#TITLE:Donald Ranlanloo;
#SUBTITLE:;
#ARTIST:2KB;
#TITLETRANSLIT:;
#SUBTITLETRANSLIT:;
#ARTISTTRANSLIT:;
#CREDIT:DMAxel;
#BANNER:Donald Ranlanloo.png;
#BACKGROUND:Donald Ranlanloo-bg.png;
#LYRICSPATH:;
#CDTITLE:BEMANI game remix.png;
#MUSIC:Donald Ranlanloo.mp3;
#OFFSET:0.860;
#SAMPLESTART:33.540;
#SAMPLELENGTH:12.000;
#SELECTABLE:YES;
#DISPLAYBPM:*;
#BPMS:0.000=805.003,12.000=100.000,19.000=400.000,23.000=200.000,39.000=400.000,67.000=800.000,75.000=400.000,139.000=100.000,155.000=200.000,251.000=100.000,267.000=200.000,281.000=100.000,282.000=400.000,376.000=200.000;
#STOPS:;
#BGCHANGES:0.060=Donald Ranlanloo.AVI=1.000=0=0=1,
99999=-nosongbg-=1.000=0=0=0 // don't automatically add -songbackground-
;

//---------------dance-single - ----------------
#NOTES:
     dance-single:
     :
     Challenge:
     10:
     0.936,1.000,0.555,0.103,0.442: // measure 1
0000
0000
0000
0000
,  // measure 2
0000
0000
0000
0000
,  // measure 3
0000
0000
0000
0000
,  // measure 4
1020
0000
0000
0100
0100
0000
0000
0001
0000
0130
0000
0010
1001
0000
0010
0000
,  // measure 5
0201
0000
0000
0000
0000
0000
0010
0000
0310
0000
0000
0000
0100
0000
0000
0001
0010
0000
0100
0000
1000
0000
0010
0000
2002
0000
0000
0000
0000
0000
0000
0000
,  // measure 6
0000
0000
0000
0000
3003
0000
1000
0100
,  // measure 7
1000
0100
0010
0001
1001
0000
0001
0010
,  // measure 8
0001
0000
0010
0000
0100
0000
1000
0000
1001
0000
0000
0001
0100
0000
0010
0000
,  // measure 9
1000
0000
0100
0000
1001
0000
0000
0000
1001
0000
0000
1000
0010
0000
0100
0000
,  // measure 10
0001
0100
0010
1000
0010
0000
1001
0000
,  // measure 11
0010
0001
0000
1000
,  // measure 12
0100
0001
0000
0100
,  // measure 13
0010
1000
0000
0001
,  // measure 14
0010
0000
1000
0000
0000
0000
0010
0100
,  // measure 15
0010
1000
0100
0011
,  // measure 16
0000
0000
1001
0000
0000
0100
0010
0000
,  // measure 17
1000
0100
0010
2002
,  // measure 18
0000
0000
0000
0000
,  // measure 19
0000
0000
3003
0001
,  // measure 20
0100
0001
1000
0010
,  // measure 21
1000
0000
0001
0000
0100
0000
0010
0100
,  // measure 22
0010
1000
0001
0100
,  // measure 23
0001
0000
0100
0000
0010
0000
1000
0010
,  // measure 24
1000
0010
1000
0000
0010
0000
0100
0000
,  // measure 25
0010
0000
0100
0000
0001
0100
0001
0100
,  // measure 26
0001
0010
0100
1000
,  // measure 27
0100
0000
1001
0000
0010
0100
0010
0100
,  // measure 28
0010
1000
0010
0100
,  // measure 29
0001
0000
0100
0000
0010
1000
0010
1000
,  // measure 30
0010
0100
0010
1000
,  // measure 31
0100
0000
0000
0010
0000
0000
0001
0000
0000
1000
0000
0010
,  // measure 32
0000
1000
0000
0100
0000
0010
0000
0001
0000
0100
0000
0001
,  // measure 33
0000
0010
0000
0100
0000
1000
0000
0010
0000
0100
0000
0001
,  // measure 34
0000
0100
0000
1000
0000
0100
0000
0001
0000
0100
0000
0010
,  // measure 35
0000
0000
0000
0000
1000
0000
0000
0000
0000
0000
0000
0000
0010
0000
0000
0000
0000
0000
0000
0000
0001
0000
0000
0000
0000
0000
0000
0000
0010
0000
0000
0000
0000
0000
0000
0000
1001
0000
0000
0100
0000
0000
1000
0000
0000
0000
0000
0000
,  // measure 36
0010
0100
0001
0000
0010
0001
0010
0100
0000
1010
0000
0000
1000
0100
0001
0000
,  // measure 37
0100
0010
1000
0000
0100
1000
0100
0010
0000
0101
0000
0000
0001
0010
1000
0100
,  // measure 38
1000
0010
0001
0010
0100
1000
0010
0100
0000
1001
0000
0000
1000
0010
0001
0100
,  // measure 39
0001
0010
1000
0010
0100
0001
0010
0100
0000
1001
0000
0000
1001
0000
0000
0000
,  // measure 40
0001
0010
0001
0100
0001
0100
0000
0100
,  // measure 41
0010
1000
0011
0000
1010
0100
1000
0010
,  // measure 42
0100
0000
0010
0000
1100
0000
0000
0000
0101
0000
0000
0000
1001
0000
0000
0001
,  // measure 43
0010
0000
0000
0010
0100
0000
0000
0100
1000
0000
0000
0000
1001
0000
0100
0000
,  // measure 44
1000
0010
1000
0010
0100
0010
0000
0010
,  // measure 45
1000
0001
1100
0000
0101
0000
0010
0100
,  // measure 46
0010
0000
1000
0000
0101
0000
0000
0000
1100
0000
0000
0000
1001
0000
0000
1000
,  // measure 47
0100
0000
0000
0100
0010
0000
0000
0010
0001
0000
0000
0000
1001
0000
0010
0000
,  // measure 48
0100
0001
0010
0100
1000
0010
0000
0010
,  // measure 49
0100
0001
1100
0000
0101
0000
1000
0010
,  // measure 50
0100
0000
0010
0000
1000
0000
0010
0000
0100
0000
0010
0000
1001
0000
0000
0001
,  // measure 51
0100
0000
0000
0100
0010
0000
0000
0010
1000
0000
0000
0000
0101
0000
0010
0000
,  // measure 52
0100
0001
0100
0010
0100
0010
0000
0010
,  // measure 53
0100
0001
1100
0000
0101
0010
0100
0010
,  // measure 54
1000
0100
0010
0001
0100
0010
1100
0000
,  // measure 55
1010
0000
2002
0000
3000
0000
1003
0100
,  // measure 56
0001
0000
0100
0010
1000
0000
0001
0010
,  // measure 57
1000
0000
0000
0000
0010
0000
0100
0000
0001
0000
0100
0010
0100
0000
0001
0000
,  // measure 58
0010
0000
1000
0000
0101
0000
0000
0000
1010
0000
0100
0010
0100
0000
0001
0000
,  // measure 59
1000
0000
0100
0000
0011
0000
0000
0000
1100
0000
0010
0100
0010
0000
0100
0000
,  // measure 60
0010
1000
0001
0100
1000
0000
0010
0100
,  // measure 61
0001
0000
0000
0000
1000
0000
0010
0000
0001
0000
0000
0000
0100
0010
0100
0000
,  // measure 62
0001
0000
0010
0000
0001
0000
0100
0000
0010
0000
1000
0001
1000
0000
0010
0000
,  // measure 63
0100
0000
0001
0000
1001
0000
0000
0000
0000
0000
0000
0000
0010
0001
0010
0000
,  // measure 64
0001
0010
1000
0000
0100
1000
0100
0000
1000
0100
0001
0000
0100
0001
0100
0000
,  // measure 65
0001
0100
1000
0000
0010
1000
0010
0000
0100
0010
1000
0000
1001
0010
0100
0010
,  // measure 66
1000
0010
0001
0000
0100
0001
0100
0010
1000
0010
0001
0000
0010
0001
0100
0001
,  // measure 67
1000
0100
0001
0000
1000
0100
1000
0010
1000
0010
0100
0000
1001
0000
0001
0000
,  // measure 68
1000
0001
0100
0001
0010
0000
0001
1000
,  // measure 69
0010
0000
1000
0000
0100
0000
1000
0000
0001
0000
0100
0010
0100
0000
0001
0000
,  // measure 70
0100
0000
1000
0000
0010
0000
0100
0000
0001
0000
0100
0010
0100
0000
0001
0000
,  // measure 71
0010
1000
0011
0110
1001
0000
0010
0000
,  // measure 72
1000
0010
0001
0010
,  // measure 73
0100
1000
0100
0001
,  // measure 74
0100
0000
1000
0000
0010
0100
0010
0000
,  // measure 75
1000
0010
0100
0001
,  // measure 76
0100
0000
0010
0000
1000
0010
0100
0010
,  // measure 77
1000
0010
0001
0010
,  // measure 78
1000
0000
0001
0000
0100
0001
0010
0001
,  // measure 79
0100
0000
0001
0000
1000
0010
1000
0100
,  // measure 80
1000
0010
1000
0100
1000
0000
0010
0000
,  // measure 81
0100
0000
0001
0000
0010
0001
0100
0001
,  // measure 82
0010
0001
0100
0001
0010
0000
0001
0000
,  // measure 83
1000
0000
0010
0100
0010
0001
0010
1000
,  // measure 84
0010
0100
0010
0000
0100
0000
0001
0000
,  // measure 85
0100
0010
0100
1000
0100
0001
0100
0010
,  // measure 86
0100
0001
0100
0001
,  // measure 87
0100
0010
0100
0001
0100
1000
0100
0010
,  // measure 88
0100
0001
0100
0010
,  // measure 89
0100
1000
0100
0010
0100
0001
0100
1000
,  // measure 90
0100
0010
0001
0100
,  // measure 91
0010
0000
1000
0100
0010
0001
0100
0001
,  // measure 92
0010
0100
1000
0010
1000
0000
0010
0000
,  // measure 93
0100
0001
0011
0000
,  // measure 94
0110
0000
1100
0000
,  // measure 95
2002
0000
0000
0000
,  // measure 96
0000
0000
3003
0000
;

//---------------dance-single - ----------------
#NOTES:
     dance-single:
     :
     Easy:
     6:
     0.567,0.736,0.278,0.257,0.000: // measure 1
0000
0000
0000
0000
,  // measure 2
0000
0000
0000
0000
,  // measure 3
0000
0000
0000
0000
,  // measure 4
0012
0103
2010
3010
,  // measure 5
0100
0000
0010
0000
1000
0010
1001
0000
,  // measure 6
0000
0000
0000
1000
,  // measure 7
0100
1000
0100
1000
,  // measure 8
0010
1000
0010
0100
,  // measure 9
0010
0100
0010
0100
,  // measure 10
0001
0010
0100
1001
,  // measure 11
0000
0000
0000
0010
,  // measure 12
0000
0000
0000
1000
,  // measure 13
0000
0000
0000
0001
,  // measure 14
0000
0000
0000
1000
,  // measure 15
0000
0100
0000
1000
,  // measure 16
0000
0010
0000
0100
,  // measure 17
0000
0001
0000
1001
,  // measure 18
0000
0000
0000
0000
,  // measure 19
0000
0000
0000
1000
,  // measure 20
0010
1000
0000
0010
,  // measure 21
0100
0010
0000
0100
,  // measure 22
0000
0001
0000
0100
,  // measure 23
0000
0000
0000
0010
,  // measure 24
1000
0010
0000
0100
,  // measure 25
0010
0100
0000
0001
,  // measure 26
0010
0100
1000
0001
,  // measure 27
0000
1001
0000
0010
,  // measure 28
0000
0100
0000
0010
,  // measure 29
0000
1000
0000
0010
,  // measure 30
0000
1000
0000
0001
,  // measure 31
0000
1000
0100
1000
,  // measure 32
0001
0010
0001
1000
,  // measure 33
0010
0001
0010
1000
,  // measure 34
0010
0100
0001
0010
,  // measure 35
1000
0010
0001
2001
,  // measure 36
0010
3020
0000
0130
,  // measure 37
0100
0002
0000
1003
,  // measure 38
1000
0020
0000
0130
,  // measure 39
0100
0002
0000
1003
,  // measure 40
0100
1000
0100
1000
0010
0100
0000
0001
,  // measure 41
0000
1000
0001
0000
0010
0001
0010
0001
,  // measure 42
0100
0010
0100
0000
1001
0000
0020
0000
,  // measure 43
0230
0302
2003
3010
,  // measure 44
0100
0001
0100
0010
0100
0010
0000
1000
,  // measure 45
0000
0001
1000
0000
0001
0000
0100
0010
,  // measure 46
1000
0100
1000
0000
1001
0000
2000
0000
,  // measure 47
3020
0230
0302
0003
,  // measure 48
1001
0000
0010
0100
0010
0100
0000
0001
,  // measure 49
0000
0100
0010
0000
1001
0000
0010
0100
,  // measure 50
0010
0100
0001
0000
0110
0000
1000
0000
,  // measure 51
1001
0011
1100
1001
,  // measure 52
0010
0100
0010
0100
0001
0000
0100
0000
,  // measure 53
0010
1000
0010
0000
0100
0000
0001
0100
,  // measure 54
0001
0000
1000
0000
0001
0100
0010
0000
,  // measure 55
0101
0000
1010
0000
1001
0000
0001
0010
,  // measure 56
0001
0000
0010
0001
0010
0000
0100
1000
,  // measure 57
0100
0000
1000
0100
1000
0000
0001
0010
,  // measure 58
0100
1000
0110
0000
1001
0000
1000
0100
,  // measure 59
0010
0001
0110
0000
1001
0000
1000
0010
,  // measure 60
1000
0010
1000
0000
0010
0000
0100
0001
,  // measure 61
0100
0001
0100
0000
0010
0000
0100
0010
,  // measure 62
0100
0010
0100
0000
0001
0000
1000
0100
,  // measure 63
0010
0001
1001
0000
0000
0000
0200
0000
,  // measure 64
0000
0302
0000
2003
,  // measure 65
0000
3020
0000
0230
,  // measure 66
0000
0320
0000
2030
,  // measure 67
0000
3002
0000
0103
,  // measure 68
0001
0100
0010
1000
,  // measure 69
0010
0100
0001
0100
,  // measure 70
0010
0000
1000
0000
0001
0000
1000
0010
,  // measure 71
0100
0010
0100
0010
0100
0000
0001
0000
,  // measure 72
1000
0010
1000
0000
,  // measure 73
0001
0000
0100
0010
,  // measure 74
1000
0001
1000
0000
,  // measure 75
0010
0000
1000
0001
,  // measure 76
0100
0010
1000
0000
,  // measure 77
0001
0000
1000
0001
,  // measure 78
0010
0001
1000
0000
,  // measure 79
0110
0000
0001
0010
,  // measure 80
0001
0010
0001
0010
,  // measure 81
0100
1000
0100
1000
,  // measure 82
0100
1000
0010
0100
,  // measure 83
0001
0100
0001
0100
,  // measure 84
0001
0100
0010
1000
,  // measure 85
0010
1000
0010
1000
,  // measure 86
0100
0010
0001
0010
,  // measure 87
0100
1000
0100
0010
,  // measure 88
0001
0100
0010
1000
,  // measure 89
0010
0100
0001
0100
,  // measure 90
0010
1000
0010
0100
,  // measure 91
0001
0010
0001
0010
,  // measure 92
0001
0010
0100
1000
,  // measure 93
0100
1000
0001
0000
,  // measure 94
1001
0000
0100
0000
,  // measure 95
2002
0000
0000
0000
,  // measure 96
0000
0000
3003
0000
;

//---------------dance-single - ----------------
#NOTES:
     dance-single:
     :
     Medium:
     8:
     0.673,0.786,0.432,0.041,0.118: // measure 1
0000
0000
0000
0000
,  // measure 2
0000
0000
0000
0000
,  // measure 3
0000
0000
0000
0000
,  // measure 4
1002
0013
2100
3001
,  // measure 5
0100
0000
0010
0000
0100
0000
0001
0000
1000
0010
0100
0010
1001
0000
0000
0000
,  // measure 6
0000
0000
0000
0001
,  // measure 7
0010
0100
1000
0100
,  // measure 8
0010
0001
1000
0001
,  // measure 9
1000
0010
0100
0001
,  // measure 10
1000
0001
1000
0001
,  // measure 11
0100
0001
0000
1000
,  // measure 12
0010
1000
0000
0010
,  // measure 13
0100
0010
0000
0100
,  // measure 14
0001
0100
0000
1001
,  // measure 15
0001
1000
0010
0100
,  // measure 16
0000
1001
0000
1001
,  // measure 17
1000
0010
0100
1001
,  // measure 18
0000
0000
0000
0000
,  // measure 19
0000
0000
0000
1000
,  // measure 20
0100
1000
0000
0001
,  // measure 21
0010
0001
0000
0100
,  // measure 22
0010
0100
0000
0010
,  // measure 23
1000
0010
0000
0100
,  // measure 24
0001
0010
0000
0100
,  // measure 25
1000
0010
0000
0100
,  // measure 26
0010
0100
0000
1001
,  // measure 27
0010
0100
1000
0001
,  // measure 28
0000
1001
0000
0100
,  // measure 29
0010
0100
0000
0001
,  // measure 30
1000
0001
0010
0100
,  // measure 31
0000
0000
0000
1001
0000
0000
0000
0000
0000
1000
0000
0010
,  // measure 32
0000
1000
0000
0010
0000
0100
0000
0001
0000
0100
0000
0001
,  // measure 33
0000
1000
0000
0010
0000
1000
0000
0010
0000
0100
0000
0001
,  // measure 34
0000
0100
0000
0001
0000
1000
0000
0001
0000
1000
0000
0001
,  // measure 35
0000
0100
0000
0010
0000
0100
0000
0010
0000
0100
0000
0000
,  // measure 36
0001
0000
0010
0100
1000
0000
0010
0000
,  // measure 37
0100
0000
0001
1000
0100
0000
1001
0000
,  // measure 38
0010
0000
0100
0001
0010
0000
0001
0000
,  // measure 39
1000
0000
0000
0000
0010
0000
0100
0010
0000
1000
0000
0000
1001
0000
0000
0000
,  // measure 40
0010
0100
0010
0100
0001
0100
0000
0010
,  // measure 41
0000
1000
0001
0000
1000
0010
1000
0010
,  // measure 42
0100
0010
0100
0000
0001
0000
1010
0000
,  // measure 43
1100
0011
0101
1001
,  // measure 44
1000
0100
1000
0010
0100
0010
0000
0100
,  // measure 45
0000
0001
0010
0000
1001
0000
0010
0001
,  // measure 46
0010
0001
0100
0000
0011
0000
1100
0000
,  // measure 47
0101
0000
1010
0000
1001
0000
1001
0010
,  // measure 48
0001
0100
0001
0010
0001
0100
0000
0001
,  // measure 49
0000
1000
0010
0000
1001
0000
1000
0100
,  // measure 50
1000
0010
1000
0100
1000
0000
0101
0000
,  // measure 51
1100
0011
1010
1001
,  // measure 52
0010
0100
0010
1000
0010
0100
0000
0001
,  // measure 53
0000
0100
0010
0000
0100
0010
0100
0001
,  // measure 54
0100
0010
1000
0100
1000
0010
1100
0000
,  // measure 55
0101
0000
1010
0000
0100
0000
0001
0100
,  // measure 56
0010
0000
0100
0010
1000
0000
0100
1000
,  // measure 57
0001
0000
0000
0000
0010
0000
0001
0000
1000
0000
0000
0010
0100
0000
0010
0000
,  // measure 58
1000
0001
1000
0000
0010
0000
0100
0010
,  // measure 59
0100
0000
0001
0000
1000
0000
0000
0000
0000
0000
0000
0010
0100
0000
0010
0000
,  // measure 60
1000
0001
1000
0000
0010
0000
0100
0010
,  // measure 61
1000
0000
0100
1000
0010
0000
0100
0001
,  // measure 62
0010
0000
0000
0000
0001
0000
0100
0000
0010
0000
0000
0100
0010
0000
1000
0000
,  // measure 63
0001
0000
1001
0000
0000
0000
1000
1000
,  // measure 64
1000
0000
0010
0010
0010
0000
0100
0100
,  // measure 65
0100
0000
0001
0001
0010
0000
1001
0100
,  // measure 66
0010
1000
0100
0010
0001
0010
0100
1000
,  // measure 67
0010
0100
0001
0010
0011
0000
1001
0000
,  // measure 68
1000
0010
0100
0001
,  // measure 69
0100
0000
0001
0100
1000
0000
0010
0000
,  // measure 70
0100
0000
0001
0000
1000
0000
0001
0010
,  // measure 71
1000
0000
0010
0100
0010
0000
1000
0000
,  // measure 72
0001
0100
0001
0000
,  // measure 73
1000
0000
0010
0100
,  // measure 74
0001
1000
0001
0000
,  // measure 75
0100
0000
0001
1000
,  // measure 76
0010
0100
0001
0000
,  // measure 77
0100
0000
0010
1000
,  // measure 78
0100
1000
0001
0000
,  // measure 79
1001
0000
0000
0000
0001
0100
0001
0000
,  // measure 80
0100
0001
0100
0000
0001
0000
0100
0000
,  // measure 81
0010
0000
0100
0000
0010
1000
0010
0000
,  // measure 82
1000
0010
1000
0000
0001
0000
1000
0000
,  // measure 83
0001
0000
1000
0000
0100
1000
0100
0000
,  // measure 84
1000
0100
1000
0000
0010
0000
0100
0000
,  // measure 85
0010
0100
0001
0010
,  // measure 86
0100
1000
0001
0010
,  // measure 87
0100
0000
1000
0000
0001
0010
0001
0000
,  // measure 88
0010
0001
0010
0000
0001
0000
0010
0000
,  // measure 89
0100
0000
1000
0000
0001
1000
0001
0000
,  // measure 90
1000
0001
1000
0000
0010
0000
0100
0000
,  // measure 91
0010
0000
1000
0000
0010
0100
0010
0000
,  // measure 92
0100
0010
0100
0000
0001
0000
0010
0000
,  // measure 93
0100
1000
1010
0000
,  // measure 94
0110
0000
0101
0000
,  // measure 95
2002
0000
0000
0000
,  // measure 96
0000
0000
3003
0000
;

//---------------dance-single - ----------------
#NOTES:
     dance-single:
     :
     Hard:
     10:
     0.770,0.884,0.380,0.082,0.252: // measure 1
0000
0000
0000
0000
,  // measure 2
0000
0000
0000
0000
,  // measure 3
0000
0000
0000
0000
,  // measure 4
1001
0000
0000
0000
0010
0001
0010
0000
0001
0010
1000
0000
0100
1000
0100
0000
,  // measure 5
1000
0000
0100
0000
0001
0000
0000
0000
0100
0000
0010
0000
0100
0000
0000
0001
1000
0000
0010
0000
0100
0000
0010
0000
1001
0000
0000
0000
0000
0000
0000
0000
,  // measure 6
0000
0000
0000
0000
0000
0000
0100
0010
,  // measure 7
0100
0000
0001
1000
0001
0000
1000
0010
,  // measure 8
1000
0000
0001
0100
0001
0000
0100
0010
,  // measure 9
0100
0000
0001
1000
0001
0000
1000
0001
,  // measure 10
0100
0000
0001
0100
0010
0000
1001
0000
,  // measure 11
0100
0010
0000
1000
,  // measure 12
0010
1000
0000
0010
,  // measure 13
0100
0010
0000
0100
,  // measure 14
0001
0000
0100
0000
0000
0010
1000
0000
,  // measure 15
0001
1000
0010
0100
,  // measure 16
0000
0000
1001
0000
0000
0010
1000
0000
,  // measure 17
0100
0010
0001
1001
,  // measure 18
0000
0000
0000
0000
,  // measure 19
0000
0000
0000
1000
,  // measure 20
0010
1000
0000
0001
,  // measure 21
0100
0001
0000
0100
,  // measure 22
0010
0100
0000
0010
,  // measure 23
0000
0000
1000
0000
0000
0000
0010
0100
,  // measure 24
0010
1000
0010
0100
,  // measure 25
0001
0100
0000
0001
,  // measure 26
0010
0000
0001
0000
0000
1000
0001
0000
,  // measure 27
0010
0100
1000
0001
,  // measure 28
0000
1001
0000
1000
,  // measure 29
0100
1000
0000
1001
,  // measure 30
0001
0100
0010
0100
,  // measure 31
0001
0000
0000
1000
0000
0000
0001
0000
0000
1000
0000
0010
,  // measure 32
0000
1000
0000
0010
0000
0100
0000
0001
0000
0100
0000
0010
,  // measure 33
0000
1000
0000
0001
0000
0100
0000
0001
0000
0100
0000
0010
,  // measure 34
0000
0100
0000
0010
0000
1000
0000
0100
0000
0010
0000
0001
,  // measure 35
0000
0100
0000
0010
0000
1000
0000
0010
0000
0200
0000
0000
,  // measure 36
0001
0010
0302
0000
1000
0010
2003
0000
,  // measure 37
0010
0100
3020
0000
0100
0001
0230
0000
,  // measure 38
0001
0000
1000
0000
0302
0000
0000
0000
1000
0000
0010
0000
1003
0010
0100
0000
,  // measure 39
0010
1000
0001
0000
0100
0010
0100
0010
0000
0101
0000
0000
1010
0000
0000
0000
,  // measure 40
0010
0100
0010
0100
0001
0100
0000
0010
,  // measure 41
0000
1000
0100
0000
1000
0010
1000
0001
,  // measure 42
0100
0001
1000
0000
0001
0000
1100
0000
,  // measure 43
0011
1010
0101
1001
,  // measure 44
1000
0100
1000
0001
0010
0001
0100
0010
,  // measure 45
0000
1000
0000
0001
0010
0000
1001
0000
,  // measure 46
0100
0001
0010
0001
0100
0000
0011
0000
,  // measure 47
1100
1001
1010
0101
,  // measure 48
0010
0100
0010
1000
0100
0010
0000
0001
,  // measure 49
0000
0100
0010
0000
0100
0000
0010
0100
,  // measure 50
0010
1000
0100
0000
0011
0000
1100
0000
,  // measure 51
0101
0000
1010
0000
1001
0000
0010
0001
,  // measure 52
0100
0001
0010
0100
1000
0100
0000
1000
,  // measure 53
0000
0001
0100
0000
0011
0000
0100
1000
,  // measure 54
0010
1000
0100
0010
0001
0010
0101
0000
,  // measure 55
1010
0000
1001
0000
0000
0000
0010
0001
,  // measure 56
0100
0000
0001
0100
1000
0000
0010
0100
,  // measure 57
0001
0000
0000
0000
1000
0000
0100
0000
0001
0000
0000
0100
0010
0000
0100
0000
,  // measure 58
0001
0000
0100
0000
1000
0000
0000
0000
1001
0000
0000
0010
0100
0000
0010
0000
,  // measure 59
1000
0000
0010
0000
0001
0000
0000
0000
1001
0000
0000
0100
0010
0000
1000
0000
,  // measure 60
0010
0100
0001
0100
0010
0000
0100
0010
,  // measure 61
1000
0000
0100
1000
0001
0000
0010
0001
,  // measure 62
1000
0000
0000
0000
0010
0000
0100
0000
0001
0000
0000
0100
0010
0000
1000
0000
,  // measure 63
0100
0000
0010
0000
1001
0000
0000
0000
0000
0000
0000
0000
0001
0010
0000
0000
,  // measure 64
0010
1000
0000
0000
1000
0100
0000
0000
0100
0001
0000
0000
0001
0010
0000
0000
,  // measure 65
0010
0100
0000
0000
0100
1000
0000
0000
1000
0010
0000
0000
0010
0001
0000
0000
,  // measure 66
0001
0100
0000
0000
0100
1000
0000
0000
1000
0010
0000
0000
0010
0001
0000
0000
,  // measure 67
0001
0010
0000
0000
0010
0100
0000
0000
0100
1000
0000
0000
0100
0000
1000
0000
,  // measure 68
0010
1000
0100
1000
0010
0000
0100
0001
,  // measure 69
0010
0001
0100
0001
0010
0000
0001
0100
,  // measure 70
0010
0100
0001
0100
0010
0000
1000
0100
,  // measure 71
1000
0010
1000
0100
1001
0000
0010
0000
,  // measure 72
0001
0010
0001
0100
,  // measure 73
0010
1000
0100
1000
,  // measure 74
0100
0001
0100
1000
,  // measure 75
0010
0001
0010
1000
,  // measure 76
0010
0000
0100
0000
0001
1000
0001
1000
,  // measure 77
0001
0000
1000
0010
,  // measure 78
0100
0000
0001
0000
0100
0010
0100
0010
,  // measure 79
0100
0000
0000
0000
0001
0010
0001
0010
,  // measure 80
0001
0010
0001
0010
0001
0000
0100
0000
,  // measure 81
1000
0000
0010
0000
0100
0010
0100
0010
,  // measure 82
0100
0010
0100
0000
0001
0000
0100
0000
,  // measure 83
1000
0000
0010
0000
0100
0001
0100
0001
,  // measure 84
0100
0001
0100
0000
0010
0000
1000
0000
,  // measure 85
0001
0010
0100
1000
,  // measure 86
0010
0100
0001
0010
,  // measure 87
0100
0000
1000
0100
1000
0100
1000
0001
,  // measure 88
1000
0001
1000
0000
0010
0000
0100
0000
,  // measure 89
0010
0000
0100
0000
0001
0010
0001
0010
,  // measure 90
0001
1000
0001
1000
0001
0000
0100
0000
,  // measure 91
0010
0000
0100
0000
0010
0100
0010
0100
,  // measure 92
0001
1000
0001
1000
0001
0000
0100
0000
,  // measure 93
0010
1000
0011
0000
,  // measure 94
0110
0000
1100
0000
,  // measure 95
2002
0000
0000
0000
,  // measure 96
0000
0000
3003
0000
;

//---------------dance-single - ----------------
#NOTES:
     dance-single:
     :
     Beginner:
     3:
     0.197,0.242,0.165,0.000,0.000: // measure 1
0000
0000
0000
0000
,  // measure 2
0000
0000
0000
0000
,  // measure 3
0000
0000
0000
0000
,  // measure 4
0000
0000
0000
0000
,  // measure 5
0010
0000
0100
1001
,  // measure 6
0000
0000
0000
0000
,  // measure 7
0000
0100
0000
0010
,  // measure 8
0000
1000
0000
0001
,  // measure 9
0000
1000
0000
0001
,  // measure 10
0000
0100
0000
1001
,  // measure 11
0000
0000
0000
0010
,  // measure 12
0000
0000
0000
0100
,  // measure 13
0000
0000
0000
0010
,  // measure 14
0000
0000
0000
1000
,  // measure 15
0000
0000
0000
0001
,  // measure 16
0000
0000
0000
1000
,  // measure 17
0000
0000
0000
1001
,  // measure 18
0000
0000
0000
0000
,  // measure 19
0000
0000
0000
0000
,  // measure 20
0000
0000
0000
0010
,  // measure 21
0000
0000
0000
0100
,  // measure 22
0000
0000
0000
0010
,  // measure 23
0000
0000
0000
1000
,  // measure 24
0000
0000
0000
0001
,  // measure 25
0000
0000
0000
1000
,  // measure 26
0000
0000
0000
0001
,  // measure 27
0000
0000
0000
1000
,  // measure 28
0000
0100
0000
1000
,  // measure 29
0000
0100
0000
1000
,  // measure 30
0000
0001
0000
1000
,  // measure 31
0000
0001
0000
0010
,  // measure 32
0000
0001
0000
0100
,  // measure 33
0000
0001
0000
1000
,  // measure 34
0000
0001
0000
1000
,  // measure 35
0000
0001
0000
1001
,  // measure 36
0000
0000
0000
0010
,  // measure 37
0000
0000
0000
0001
,  // measure 38
0000
0000
0000
1000
,  // measure 39
0000
0000
0000
0100
,  // measure 40
0000
0000
1000
0000
,  // measure 41
0000
0001
0000
1000
,  // measure 42
0000
0001
0000
1001
,  // measure 43
0000
0000
0000
1001
,  // measure 44
0000
0100
0000
0010
,  // measure 45
0000
0100
0000
0010
,  // measure 46
0000
0100
0000
0110
,  // measure 47
0000
0000
0000
1000
,  // measure 48
0000
0001
0000
1000
,  // measure 49
0000
0010
0000
0100
,  // measure 50
0000
0010
0000
1001
,  // measure 51
0000
0000
0000
0010
,  // measure 52
0000
0001
0000
0010
,  // measure 53
0000
0001
0000
1000
,  // measure 54
0000
0001
0000
1001
,  // measure 55
0000
0000
0000
1001
,  // measure 56
0000
0000
0000
0000
,  // measure 57
0000
0000
0000
0110
,  // measure 58
0000
0000
0000
0000
,  // measure 59
0000
0000
0000
1001
,  // measure 60
0000
0010
0000
1000
,  // measure 61
0000
0010
0000
0100
,  // measure 62
0000
0010
0000
0100
,  // measure 63
0000
1001
0000
0010
,  // measure 64
0000
0010
0000
0010
,  // measure 65
0000
0010
0000
0100
,  // measure 66
0000
0100
0000
0100
,  // measure 67
0000
0100
0000
1001
,  // measure 68
0000
1000
0000
0001
,  // measure 69
0000
1000
0000
0010
,  // measure 70
0000
0100
0000
0010
,  // measure 71
0000
0100
0010
0000
,  // measure 72
0000
0000
0000
0000
,  // measure 73
0000
0000
1000
0000
,  // measure 74
0000
0000
0000
0000
,  // measure 75
0000
0000
0001
0000
,  // measure 76
0000
0000
0000
0000
,  // measure 77
0000
0000
1000
0000
,  // measure 78
0000
0000
0000
0000
,  // measure 79
0000
0000
0010
0000
,  // measure 80
0000
0000
0010
0000
,  // measure 81
0000
0000
0010
0000
,  // measure 82
0000
0000
0010
0000
,  // measure 83
0000
0000
0100
0000
,  // measure 84
0000
0000
0100
0000
,  // measure 85
0000
0000
0100
0000
,  // measure 86
0000
0000
0100
0000
,  // measure 87
0000
0000
0001
0000
,  // measure 88
0000
0000
0001
0000
,  // measure 89
0000
0000
0001
0000
,  // measure 90
0000
0000
0001
0000
,  // measure 91
0000
0000
1000
0000
,  // measure 92
0000
0000
1000
0000
,  // measure 93
0000
0000
1001
0000
,  // measure 94
0000
0000
0000
0000
,  // measure 95
1001
0000
0000
0000
;
