#TITLE:Do You Want To;
#SUBTITLE:(TV Edit);
#ARTIST:Franz Ferdinand;
#TITLETRANSLIT:;
#SUBTITLETRANSLIT:;
#ARTISTTRANSLIT:;
#CREDIT:DMAxel;
#BANNER:Do You Want To (TV Edit).png;
#BACKGROUND:Do You Want To (TV Edit)-bg.png;
#LYRICSPATH:Do You Want To (TV Edit).lrc;
#CDTITLE:DMAxel Original Simfile.png;
#MUSIC:Do You Want To (TV Edit).mp3;
#OFFSET:-0.767;
#SAMPLESTART:31.112;
#SAMPLELENGTH:15.000;
#SELECTABLE:YES;
#DISPLAYBPM:123.000;
#BPMS:0.000=133.000,12.000=135.000,20.000=134.000,32.000=133.000,40.000=122.750,83.000=126.000,90.000=122.750,128.000=126.000,136.000=127.000,138.000=126.000,146.000=122.750,151.000=134.000,154.000=126.000,168.000=123.000;
#STOPS:;
#BGCHANGES:40.767=Do You Want To (TV Edit).avi=1.000=1=0=1,
99999=-nosongbg-=1.000=0=0=0 // don't automatically add -songbackground-
;

//---------------dance-single - ----------------
#NOTES:
     dance-single:
     :
     Hard:
     7:
     0.474,0.433,0.326,0.157,0.000: // measure 1
0000
0000
0000
0000
,  // measure 2
0000
0000
0000
0000
,  // measure 3
0000
0000
0011
0000
0100
0000
1000
0200
,  // measure 4
0000
1000
0000
0301
0000
0000
1000
0010
,  // measure 5
0100
0010
1001
0000
0100
0000
0010
0200
,  // measure 6
0000
0001
0000
1300
0000
0000
0001
0100
,  // measure 7
0010
0100
0010
0000
1000
0010
0001
0000
,  // measure 8
1000
0100
0001
0000
0100
0010
1000
0100
,  // measure 9
0010
0001
0010
0000
1100
0000
0001
0010
,  // measure 10
0001
0010
0001
1000
0001
1000
0001
0000
,  // measure 11
1100
1001
0020
2030
,  // measure 12
0000
3010
0000
0001
0010
0100
1000
0100
,  // measure 13
1000
1001
0020
0032
,  // measure 14
0000
0103
0000
1000
0100
0010
0001
0010
,  // measure 15
0001
0000
1001
0000
0200
0000
0301
0010
,  // measure 16
0100
2000
0000
0000
3010
0000
1000
0010
,  // measure 17
0001
0010
0010
0000
0101
0000
0001
1001
,  // measure 18
0000
1000
0010
1000
0010
0100
0010
0010
,  // measure 19
0100
0000
1001
0000
0010
0100
0010
0010
,  // measure 20
0000
0010
1000
0100
1000
0100
1000
0001
,  // measure 21
0010
0100
1000
0010
1000
0100
0000
0010
,  // measure 22
0001
0100
0001
0010
0000
0001
0000
0100
,  // measure 23
0010
1000
0011
0000
0200
0000
2300
0000
,  // measure 24
0000
3100
0000
0001
0010
0100
1000
0100
,  // measure 25
1000
0000
0100
0000
1010
0000
1000
1001
,  // measure 26
0000
0010
0000
1000
0010
0001
0100
0100
,  // measure 27
0010
0000
0100
0000
0011
0000
1000
1001
,  // measure 28
0000
0010
0001
0010
1000
0010
0100
0100
,  // measure 29
0001
0100
1000
0000
0010
0000
0100
0000
,  // measure 30
0001
0100
0001
0100
0000
0010
0000
1000
,  // measure 31
0010
0100
0011
0000
0200
0000
0302
0000
,  // measure 32
0000
0013
0000
1000
0100
0010
0001
0010
,  // measure 33
1001
0000
1100
0000
0001
0010
0001
0100
,  // measure 34
0001
0010
0001
0100
0001
0010
0001
1000
,  // measure 35
0100
0010
0001
0000
1000
0100
1000
0010
,  // measure 36
1000
0100
1000
0010
1000
0100
1000
0001
,  // measure 37
0010
0100
1000
0000
0011
0000
2010
0000
,  // measure 38
0000
3100
0000
0001
0100
0010
1000
0000
,  // measure 39
0001
0010
1001
0000
0001
0010
0100
1000
,  // measure 40
0010
1000
0100
1000
0010
1000
0100
1000
,  // measure 41
0100
0010
0001
0000
1000
0010
0100
0000
,  // measure 42
0100
0010
1000
0100
0010
0001
0000
0001
,  // measure 43
1000
0101
1010
0012
,  // measure 44
0000
0103
0000
1000
0100
0010
0001
0010
,  // measure 45
0001
1100
0101
1010
,  // measure 46
0011
1001
0000
0000
;

//---------------dance-single - ----------------
#NOTES:
     dance-single:
     :
     Easy:
     3:
     0.267,0.254,0.157,0.112,0.000:
0000
0000
0000
0000
,
0000
0000
0000
0000
,
0000
0000
0000
0000
,
0000
0000
0000
0000
,
0000
1002
0000
0000
,
0000
2003
0000
0000
,
0000
3010
0100
0010
,
0100
0010
1000
0001
,
1000
0001
0010
0001
,
1000
0100
0100
1000
,
0020
0000
0130
0002
,
0000
0013
0001
0100
,
0010
0100
0001
2000
,
0000
3100
1000
0010
,
0100
0010
1000
0020
,
0000
0000
0130
0001
,
0010
0010
0001
1000
,
0000
0100
0100
1000
,
0010
0100
0001
0010
,
0000
0001
0001
0100
,
0010
0200
0000
0000
,
0310
1000
0100
1000
,
0010
0100
1001
1001
,
0000
0010
0100
0001
,
0010
0010
0001
1001
,
0000
0100
0100
0010
,
1000
0100
1000
1001
,
0000
0010
0010
0100
,
0001
0010
0001
0000
,
0100
0010
1000
0000
,
0100
1000
0010
1002
,
0000
0103
0010
1000
,
0100
0100
1000
1000
,
0100
0100
0010
0010
,
0001
1001
0001
0001
,
0010
0010
0100
0100
,
1000
1001
0010
0200
,
0000
0301
0010
0001
,
1000
1001
0010
0010
,
0100
0100
0001
0001
,
0010
1001
0100
0100
,
0010
0010
1000
1000
,
0001
1001
0100
0020
,
0000
1030
0100
1000
,
0010
0100
0101
0010
,
1010
1001
0000
0000
;

//---------------dance-single - ----------------
#NOTES:
     dance-single:
     :
     Medium:
     5:
     0.365,0.356,0.270,0.045,0.000:
0000
0000
0000
0000
,
0000
0000
0000
0000
,
0000
0000
1001
0000
0010
0100
0010
0000
,
1000
0002
0103
0010
,
0100
0020
1030
0100
,
1000
0001
0100
0000
,
0010
0000
0100
0000
0001
0010
0001
0000
,
1000
0100
1000
0000
0000
0010
0100
0001
,
0010
0001
0100
0000
0010
0000
1000
0000
,
0100
1100
0011
1001
,
0002
0000
1003
0010
,
0000
0100
0000
0001
0010
0001
0100
0001
,
0000
0100
0010
1001
,
0000
0010
0000
1000
0100
1000
0010
1000
,
0000
0001
0100
1001
,
0010
0100
0000
0000
0010
0000
1000
0010
,
0001
0000
1001
0000
0010
0000
0001
0100
,
0000
0010
0000
1000
0100
0000
1000
0000
,
0010
0000
0100
0000
0001
0000
1000
0010
,
0000
0100
0000
0010
1000
0000
0010
0000
,
0100
0001
0010
0000
1001
0000
0000
0000
,
0001
1000
0100
0000
1000
0000
0010
0000
,
0100
0010
1001
0002
,
0000
0103
0000
0010
1000
0100
1000
0010
,
0000
0000
1001
0000
0100
0000
0010
1000
,
0000
0100
0000
1000
0010
0100
0001
0000
,
0100
0000
0100
0000
0001
0000
0100
0010
,
0000
1000
0000
0010
0100
0001
0010
0001
,
0100
0001
1000
0000
0010
0000
0010
0000
,
0100
0001
0010
0001
0000
0100
0000
0001
,
0100
1000
0000
0000
0100
0000
1001
0000
,
0000
0010
0000
0100
0001
0010
0100
1000
,
0010
1001
0100
0010
,
1000
0100
0010
0001
,
0100
1001
0010
0100
,
0001
0010
0100
1000
,
0010
0101
1010
1001
,
0000
0100
0000
0001
0010
0001
0100
0001
,
0100
1001
0010
0100
,
0001
0010
0100
1000
,
0010
0100
0010
0000
0100
0000
0001
0000
,
1000
0100
0010
0001
,
1000
0100
1000
0000
0110
0000
1001
0000
,
0000
0010
0000
1000
0100
1000
0010
1000
,
0010
1100
0101
1010
,
0011
1001
0000
0000
;

//---------------dance-single - ----------------
#NOTES:
     dance-single:
     :
     Challenge:
     8:
     0.505,0.458,0.225,0.011,0.062: // measure 1
0000
0000
0000
0000
,  // measure 2
0000
0000
0000
0000
,  // measure 3
0000
0000
1001
0000
0010
0001
0100
0001
,  // measure 4
0010
0000
1001
0000
0100
1000
0010
1000
,  // measure 5
0100
0000
1001
0000
0100
0001
0010
0001
,  // measure 6
0100
0000
1001
0000
0010
1000
0100
1000
,  // measure 7
0010
0100
0001
0000
1000
0100
0001
0000
,  // measure 8
1000
0010
0001
0000
0100
0010
1000
0100
,  // measure 9
0010
0001
1100
0000
0011
0000
1001
0100
,  // measure 10
1000
0100
1000
0001
1000
0001
1000
0000
,  // measure 11
0011
0000
1001
0000
0100
1000
0100
1000
,  // measure 12
0000
1000
0010
1000
0100
0010
0001
0010
,  // measure 13
0001
0000
1001
0000
0010
0001
0010
0001
,  // measure 14
0000
0001
0100
0001
0010
0100
1000
0100
,  // measure 15
1000
0000
1001
0000
0010
0100
1000
0100
,  // measure 16
0010
0002
0000
0000
0013
0000
0001
0100
,  // measure 17
1000
0000
0001
0010
0001
0000
1000
0000
0010
0000
0100
0000
0010
0000
0010
0000
,  // measure 18
0000
0010
0100
0001
0100
0010
0100
0100
,  // measure 19
0010
0000
1001
0000
0100
0001
0100
0100
,  // measure 20
0000
0100
0001
0010
0001
0010
0001
1000
,  // measure 21
0100
0010
0001
0100
0001
0010
0000
0100
,  // measure 22
1000
0010
1000
0100
1000
0010
0100
0000
,  // measure 23
0010
0100
1001
0000
0010
1000
0010
1000
,  // measure 24
0000
1000
0100
1000
0100
0010
0001
0010
,  // measure 25
0001
0000
1001
0010
0100
0010
0100
0100
,  // measure 26
0000
0000
0100
0000
0001
0000
0010
0000
0001
0000
1000
0000
0010
0000
0000
0010
,  // measure 27
0100
0000
0000
0100
0010
0000
0000
0000
0100
0000
0010
0000
1000
0000
1000
0000
,  // measure 28
0000
0000
1000
0000
0010
0000
0100
0000
0010
0000
1000
0000
0001
0000
0000
0001
,  // measure 29
1000
0000
0000
1000
0001
0000
0010
0000
0100
0000
1000
0000
0000
0000
1000
0000
,  // measure 30
0001
0100
0001
0010
0100
1000
0000
1000
,  // measure 31
0010
0100
1001
0000
0100
0001
0100
0001
,  // measure 32
0000
0000
0001
0000
0010
0000
0001
0000
0010
0000
0100
0000
1000
0000
0000
1000
,  // measure 33
0001
0000
0000
0001
1000
0000
0000
0000
1000
0000
0100
0000
1000
0000
0010
0000
,  // measure 34
1000
0100
1000
0010
1000
0100
1000
0001
,  // measure 35
0010
0100
1000
0000
0001
0010
0001
0100
,  // measure 36
0001
0010
0001
0100
0001
0010
0001
1000
,  // measure 37
0100
0010
0001
0000
1000
0010
1000
0010
,  // measure 38
0000
0000
0010
0000
0100
0000
0001
0000
0010
0000
0100
0000
1000
0000
0000
1000
,  // measure 39
0001
0000
0000
0001
1000
0000
0000
0000
1000
0000
0100
0000
0010
0000
0001
0000
,  // measure 40
0100
0001
0010
0001
0100
0001
0010
0001
,  // measure 41
0010
0100
1000
0000
0010
1000
0010
0100
,  // measure 42
0010
0000
0001
0000
0010
0000
0100
0000
1000
0000
0010
0000
0100
0000
0000
0010
,  // measure 43
0100
0000
0000
0100
0010
0000
0000
0000
0100
0000
0001
0000
0100
0000
0001
0000
,  // measure 44
0000
0001
0010
0001
0010
0100
1000
0100
,  // measure 45
1000
0011
1010
0101
,  // measure 46
1100
1001
0000
0000
;

//---------------dance-single - ----------------
#NOTES:
     dance-single:
     :
     Beginner:
     2:
     0.106,0.153,0.034,0.000,0.000:
0000
0000
0000
0000
,
0000
0000
0000
0000
,
0000
1000
0000
0000
,
0000
0000
0000
0000
,
0000
0001
0000
0000
,
0000
0000
0000
0000
,
0000
1000
0000
1000
,
0000
1000
0000
1000
,
0000
0001
0000
0001
,
0000
0001
0000
0000
,
0000
0000
1000
0000
,
0010
0000
1000
0000
,
0000
0000
0001
0000
,
0100
0000
0001
0000
,
0000
0000
1000
0000
,
0001
0000
1000
0000
,
0010
0000
0010
0000
,
0000
0100
0000
0000
,
0000
0000
0001
0000
,
0000
1000
0000
0000
,
0000
0001
0000
0000
,
0000
0100
0000
0000
,
0001
0000
1000
0000
,
1000
0000
1000
0000
,
0010
0000
0100
0000
,
0000
0001
0000
0000
,
0000
0000
1000
0000
,
0000
0100
0000
0000
,
0000
1000
0000
0000
,
0000
0001
0000
0000
,
0000
0000
1000
0000
,
0100
0000
0010
0000
,
0001
0000
1000
0000
,
1000
0000
1000
0000
,
0001
0000
0001
0000
,
0001
0000
0001
0000
,
0001
0000
0100
0000
,
0000
0010
0000
0000
,
0000
0000
1000
0000
,
1000
0000
1000
0000
,
1000
0000
0001
0000
,
0001
0000
0001
0000
,
0001
0000
0100
0000
,
0000
0010
0000
0000
,
0000
1001
0000
0110
,
0000
1001
0000
0000
;
