#TITLE:CROSSOVER 12;
#SUBTITLE:;
#ARTIST:319;
#TITLETRANSLIT:;
#SUBTITLETRANSLIT:;
#ARTISTTRANSLIT:;
#CREDIT:DMAxel;
#BANNER:CROSSOVER 12.png;
#BACKGROUND:CROSSOVER 12-bg.png;
#LYRICSPATH:;
#CDTITLE:pop'n music.png;
#MUSIC:CROSSOVER 12.mp3;
#OFFSET:-10.060;
#SAMPLESTART:28.140;
#SAMPLELENGTH:12.000;
#SELECTABLE:YES;
#BPMS:0.000=100.000;
#STOPS:;
#BGCHANGES:;

//---------------dance-single - ----------------
#NOTES:
     dance-single:
     :
     Easy:
     2:
     0.128,0.167,0.088,0.059,0.000: // measure 1
0001
0000
0000
0000
,  // measure 2
1000
0000
0000
0000
,  // measure 3
0001
0000
0001
0000
,  // measure 4
1000
0000
0100
0000
,  // measure 5
2000
0000
3000
0000
,  // measure 6
0020
0000
0030
0110
,  // measure 7
0002
0000
0003
0000
,  // measure 8
0200
0000
0300
0000
,  // measure 9
1001
0001
0001
0000
,  // measure 10
1000
1000
1000
0000
,  // measure 11
0010
0000
0100
0000
,  // measure 12
0001
0000
0000
0000
,  // measure 13
1000
1000
1000
0000
,  // measure 14
0001
0001
0001
0000
,  // measure 15
0010
0000
0000
0010
,  // measure 16
0000
0110
0000
0110
,  // measure 17
1000
1000
1000
0000
,  // measure 18
0001
0001
0001
0000
,  // measure 19
1000
1000
1000
0000
,  // measure 20
0001
0100
0100
0110
,  // measure 21
0001
0000
0010
0000
,  // measure 22
0001
0000
1000
0000
,  // measure 23
0100
0100
0100
0000
,  // measure 24
0010
0010
0010
0000
,  // measure 25
1001
0000
0000
0000
,  // measure 26
0001
0000
0000
0000
,  // measure 27
0110
0000
0000
0000
,  // measure 28
1000
0000
0000
0000
,  // measure 29
1001
1000
1000
0000
,  // measure 30
0001
0001
0001
0000
,  // measure 31
0010
0000
0100
0000
,  // measure 32
1000
0000
0000
0000
,  // measure 33
0001
0001
0001
0000
,  // measure 34
1000
1000
1000
0000
,  // measure 35
0100
0000
0000
0000
,  // measure 36
0010
0000
0000
0000
,  // measure 37
0001
0000
0000
0000
,  // measure 38
2002
0000
0000
3003
;

//---------------dance-single - ----------------
#NOTES:
     dance-single:
     :
     Medium:
     4:
     0.257,0.277,0.285,0.118,0.044: // measure 1
1000
0001
1000
0001
,  // measure 2
1000
0001
1000
0110
,  // measure 3
0001
0001
0010
0110
,  // measure 4
1000
1000
0100
0110
,  // measure 5
0002
0000
0000
0000
0003
1001
0000
0000
,  // measure 6
2000
0000
0000
0000
0000
3000
1001
0000
,  // measure 7
0020
0000
0000
0000
0030
1001
0000
0000
,  // measure 8
0200
0000
0000
0000
0000
0000
0000
0000
0300
0001
0000
0100
0000
1000
0000
0000
,  // measure 9
0001
1000
0001
0000
0010
0000
0100
0000
,  // measure 10
1000
0100
1000
0010
,  // measure 11
0200
0000
0302
0000
,  // measure 12
2003
0000
3001
0110
,  // measure 13
1001
0100
0010
0001
,  // measure 14
2000
0000
3002
0000
,  // measure 15
0013
0000
0100
0000
1000
0001
1000
0000
,  // measure 16
0001
0110
0000
0110
,  // measure 17
1000
0001
1000
0000
0001
0000
0110
0000
,  // measure 18
0001
1000
0100
0010
,  // measure 19
0001
1000
0001
0000
0100
0000
0110
0000
,  // measure 20
0001
1100
1100
0101
,  // measure 21
1001
0010
0100
1000
,  // measure 22
0010
0000
1000
0000
0010
0100
0010
0000
,  // measure 23
1001
0000
0010
0000
0010
0001
0010
0000
,  // measure 24
1001
0100
0101
0101
,  // measure 25
1001
0000
0000
0000
0000
0011
0000
0000
,  // measure 26
1001
0000
0000
1100
,  // measure 27
1001
0000
0000
0000
0000
0101
0000
0000
,  // measure 28
1001
0000
0000
0000
0000
0000
0000
0000
0000
1000
0000
0100
0000
0001
0000
0000
,  // measure 29
1000
0001
1000
0000
0010
0000
0100
0000
,  // measure 30
0001
1000
0001
0000
0100
0000
0010
1000
,  // measure 31
0002
0000
0203
0000
,  // measure 32
2300
0000
3001
1001
,  // measure 33
0001
1000
0001
0000
0100
0000
0010
0000
,  // measure 34
1000
0001
1000
0000
0010
0000
0100
0000
,  // measure 35
0001
0001
1000
1000
,  // measure 36
0100
0100
0010
0010
,  // measure 37
0001
0001
0100
0100
,  // measure 38
1001
0000
0000
0000
0000
0000
0000
0001
0000
0100
0000
1000
0000
0000
0000
0000
;

//---------------dance-single - ----------------
#NOTES:
     dance-single:
     :
     Hard:
     6:
     0.342,0.296,0.216,0.059,0.187: // measure 1
0001
0010
0100
1000
0001
0010
0100
1000
,  // measure 2
0001
0000
0000
1001
,  // measure 3
1000
1000
0001
0001
1000
0000
0110
0000
,  // measure 4
0001
0100
1000
0100
,  // measure 5
0001
0000
1000
0010
0000
0100
0000
0010
0000
0000
1001
0000
0000
0000
0000
0000
,  // measure 6
1000
0000
0001
0100
0000
0010
0000
0100
0000
0001
0000
0000
1001
0000
0000
0000
,  // measure 7
0001
0000
1000
0010
0000
0100
0000
0010
0000
0000
1001
0000
0000
0000
0000
0000
,  // measure 8
1000
0000
0001
0100
0000
0010
0000
0100
0000
0001
0000
0100
0000
1000
0000
0000
,  // measure 9
0100
0001
0100
0010
0100
0000
0010
0100
,  // measure 10
0010
1000
0100
0001
0100
1000
0100
0010
,  // measure 11
0002
0000
2003
0000
,  // measure 12
3001
0110
1000
0110
,  // measure 13
1001
0000
1000
0100
0001
0100
1000
0100
,  // measure 14
0010
0001
1000
0000
0001
0100
1000
0100
,  // measure 15
0001
0000
0010
0000
0100
1000
1001
0000
,  // measure 16
0010
0110
0000
0110
,  // measure 17
0001
0010
0100
1000
0010
0000
1010
0000
,  // measure 18
1000
0100
0010
0001
,  // measure 19
1000
0100
0010
0001
0100
0001
0011
0000
,  // measure 20
0100
1010
1010
1001
,  // measure 21
1000
0100
0010
0001
0100
0000
0100
0000
,  // measure 22
0001
0100
0010
0100
0001
0000
1000
0000
,  // measure 23
1001
0000
0001
0010
0100
1000
0010
0000
,  // measure 24
1000
0010
0100
0010
1000
0000
1001
0000
,  // measure 25
1000
0000
0001
0100
0000
0010
0000
0100
0000
0000
1001
0000
0000
0000
0000
0000
,  // measure 26
0001
0000
1000
0010
0000
0100
0000
0010
0000
1000
0000
0000
1001
0000
0000
0000
,  // measure 27
0001
0000
1000
0010
0000
0100
0000
0010
0000
0000
1001
0000
0000
0000
0000
0000
,  // measure 28
1000
0000
0001
0100
0000
0010
0000
0100
0000
0001
0000
0100
0000
1000
0000
0000
,  // measure 29
0100
0001
0100
0010
0100
0000
0001
0100
,  // measure 30
1000
0100
0001
0100
0010
1000
0001
0100
,  // measure 31
2000
0000
3200
0000
,  // measure 32
0301
0100
0010
1000
,  // measure 33
1001
0000
1000
0100
0001
0100
1000
0100
,  // measure 34
0020
0000
0032
0000
,  // measure 35
1003
0000
0000
0010
0000
0000
0001
0000
0000
0010
0000
0000
1000
0000
0000
0000
,  // measure 36
0001
0100
1000
0000
0100
0001
1000
0100
,  // measure 37
0001
0000
0000
0000
0100
1000
0100
0000
0010
0000
0001
0000
1000
0000
1000
0000
,  // measure 38
0010
0000
0000
0000
0000
0000
0000
1000
0000
0100
0000
0001
0000
0000
0000
0000
;

//---------------dance-single - ----------------
#NOTES:
     dance-single:
     :
     Challenge:
     8:
     0.506,0.425,0.304,0.088,0.702: // measure 1
1000
0001
0000
0000
0000
0000
0001
0100
0000
0010
0000
0000
0000
0000
1000
0000
,  // measure 2
0100
0000
0000
0100
0000
0000
0100
0000
0000
0000
0100
0000
1001
0000
0000
0000
,  // measure 3
0001
0000
0001
0000
0100
0000
0100
0000
0010
0000
0000
1000
0001
0000
0010
0000
,  // measure 4
0001
0000
1000
0000
0010
0000
0000
0100
0001
0100
0000
0010
1000
0000
0010
0000
,  // measure 5
1000
0100
0010
0001
0000
0100
0000
1000
0000
0100
0001
0000
0000
0000
0000
0000
,  // measure 6
0001
0010
0100
1000
0000
0100
0000
0001
0000
0100
1000
0000
1001
0000
0000
0000
,  // measure 7
1000
0100
0010
0001
0000
0100
0000
1000
0000
0100
0001
0000
0000
0000
0000
0000
,  // measure 8
0001
0010
0100
1000
0000
0100
0000
0001
0000
0101
0000
1001
0000
1100
0000
0000
,  // measure 9
1001
0000
0001
0100
0000
0010
0000
0100
0000
0000
0001
0000
0100
0000
1000
0000
,  // measure 10
0100
0000
0001
0100
0000
0010
0000
1000
0000
1000
0000
0001
0000
0010
0001
0010
,  // measure 11
0002
0000
0000
0010
0000
0000
0000
0000
0013
0000
0100
0000
2000
0000
0000
0100
0000
0000
0000
0000
3100
0000
0010
0000
,  // measure 12
0001
1000
0110
0001
1000
0000
1001
0000
,  // measure 13
1001
0000
0001
0000
0100
0001
0010
0100
0000
0010
0100
0000
1000
0000
0100
0000
,  // measure 14
0002
0000
0000
0000
0100
0000
0000
0000
1003
0100
0010
0001
0000
0010
0001
0100
,  // measure 15
0020
0000
0000
1000
0000
0000
1000
0030
0000
1000
0001
0000
0011
0000
0000
0000
,  // measure 16
0011
1001
1100
1001
,  // measure 17
1000
0010
0100
0001
0000
0001
0100
0010
1000
0000
0001
0000
1001
0000
1000
0010
,  // measure 18
0100
0000
0100
0000
0200
0000
0000
0000
0001
0000
0000
0001
0000
0000
0301
0000
,  // measure 19
0001
0100
0010
1000
0000
1000
0010
0100
0001
0000
1000
0000
1001
0000
0001
0000
,  // measure 20
0100
0000
1100
0000
1100
0101
1001
0000
,  // measure 21
0001
0100
0000
0001
0100
0000
0010
2000
0000
0000
0001
0000
3001
0000
0100
0001
,  // measure 22
0000
0100
0000
0001
1000
0000
0100
1000
0000
0001
1000
0001
1000
0000
0001
0000
,  // measure 23
0011
0000
1000
0000
0100
0000
0001
0100
0000
1000
0000
0100
0000
0000
0010
0000
,  // measure 24
0001
0000
0100
0010
0100
0000
0001
0000
1000
0100
0000
0000
1001
0000
0000
0000
,  // measure 25
1000
0100
0010
0001
0000
0100
0000
1000
0000
0100
0001
0000
0000
0000
0000
0000
,  // measure 26
0001
0010
0100
1000
0000
0100
0000
0001
0000
0100
1000
0000
1001
0000
0000
0000
,  // measure 27
1000
0100
0010
0001
0000
0100
0000
1000
0000
0100
0001
0000
0000
0000
0000
0000
,  // measure 28
0001
0010
0100
1000
0000
0100
0000
0001
0000
0101
0000
1001
0000
1100
0000
0000
,  // measure 29
1001
0000
1000
0100
0000
1000
0000
0001
0000
0000
1000
0000
0100
0000
0001
0000
,  // measure 30
0100
0000
1000
0010
0000
0100
0000
0001
0000
0001
0000
0100
0000
0001
0010
0100
,  // measure 31
2000
0000
0000
0100
0000
0000
0000
0000
3100
0000
0010
0000
0002
0000
0000
0010
0000
0000
0000
0000
0013
0000
0100
0000
,  // measure 32
1000
0000
0010
0000
1000
0000
0001
0000
0110
0000
0100
0000
1000
0010
1000
0010
,  // measure 33
0100
0000
0001
0000
0100
0001
0010
0100
0000
1000
0010
0000
0100
0000
0010
0000
,  // measure 34
2000
0000
0000
0000
0001
0000
0000
0000
3001
0100
0010
1000
0000
1000
0010
0100
,  // measure 35
0001
0000
0100
0001
0000
0100
0001
0000
0000
1000
0001
0000
0100
0000
0010
0000
,  // measure 36
0100
0010
0100
0010
0000
1000
0000
0100
0000
0001
0000
0100
1000
0000
0001
0000
,  // measure 37
0100
0010
0100
0010
0000
1000
0100
1000
0000
0001
0010
0001
0100
0000
0010
0000
,  // measure 38
1000
0100
0010
0001
0000
1000
0000
1100
0000
0101
0000
1001
0000
0000
0000
0000
;

//---------------dance-single - ----------------
#NOTES:
     dance-single:
     :
     Beginner:
     1:
     0.034,0.054,0.000,0.000,0.000: // measure 1
1000
0000
0000
0000
,  // measure 2
0000
0000
0000
0000
,  // measure 3
0001
0000
0000
0000
,  // measure 4
0000
0000
0000
0000
,  // measure 5
1000
0000
0000
0000
,  // measure 6
1000
0000
0000
0000
,  // measure 7
0001
0000
0000
0000
,  // measure 8
0001
0000
0000
0000
,  // measure 9
1000
0000
0000
0000
,  // measure 10
0000
0000
0000
0000
,  // measure 11
0100
0000
0000
0000
,  // measure 12
0000
0000
0000
0000
,  // measure 13
0010
0000
0000
0000
,  // measure 14
0000
0000
0000
0000
,  // measure 15
0001
0000
0000
0000
,  // measure 16
0000
0000
0000
0000
,  // measure 17
0001
0000
0000
0000
,  // measure 18
0000
0000
0000
0000
,  // measure 19
0001
0000
0000
0000
,  // measure 20
0000
0000
0000
0000
,  // measure 21
1000
0000
0000
0000
,  // measure 22
0000
0000
0000
0000
,  // measure 23
1000
0000
0000
0000
,  // measure 24
0000
0000
0000
0000
,  // measure 25
0001
0000
0000
0000
,  // measure 26
0010
0000
0000
0000
,  // measure 27
0100
0000
0000
0000
,  // measure 28
1000
0000
0000
0000
,  // measure 29
1000
0000
0000
0000
,  // measure 30
0000
0000
0000
0000
,  // measure 31
1000
0000
0000
0000
,  // measure 32
0000
0000
0000
0000
,  // measure 33
0001
0000
0000
0000
,  // measure 34
0000
0000
0000
0000
,  // measure 35
0001
0000
0000
0000
,  // measure 36
0000
0000
0000
0000
,  // measure 37
0100
0000
0000
0000
,  // measure 38
0100
0000
0000
0000
;
