#TITLE:CONNECTED;
#SUBTITLE:;
#ARTIST:EBISU;
#TITLETRANSLIT:;
#SUBTITLETRANSLIT:;
#ARTISTTRANSLIT:;
#CREDIT:DMAxel;
#BANNER:CONNECTED.png;
#BACKGROUND:CONNECTED-bg.png;
#LYRICSPATH:;
#CDTITLE:DMAxel Original Simfile.png;
#MUSIC:CONNECTED.mp3;
#OFFSET:-0.040;
#SAMPLESTART:63.510;
#SAMPLELENGTH:12.000;
#SELECTABLE:YES;
#BPMS:0.000=155.000;
#STOPS:;
#BGCHANGES:;

//---------------dance-single - ----------------
#NOTES:
     dance-single:
     :
     Easy:
     4:
     0.260,0.318,0.038,0.123,0.000: // measure 1
0000
0000
0000
0000
,  // measure 2
0000
0000
0000
0000
,  // measure 3
0000
0000
0000
0000
,  // measure 4
0000
0000
0000
0000
,  // measure 5
0000
0000
0000
0000
,  // measure 6
0001
0000
1000
0000
,  // measure 7
0001
0000
1000
0000
,  // measure 8
0001
0000
1000
0000
,  // measure 9
0001
0000
0010
0000
,  // measure 10
0100
0000
0010
0000
,  // measure 11
0100
0000
1000
0000
,  // measure 12
0001
0000
1000
0000
,  // measure 13
0010
0000
1000
0000
,  // measure 14
0002
0000
0103
0000
,  // measure 15
0002
0000
1003
0000
,  // measure 16
0002
0000
0103
0000
,  // measure 17
0002
0000
1003
0000
,  // measure 18
0020
0000
0130
0000
,  // measure 19
0010
0100
0010
0000
,  // measure 20
1000
0001
1000
0000
,  // measure 21
1000
0010
1000
0000
,  // measure 22
0001
0100
0001
0000
,  // measure 23
0001
1000
0001
0000
,  // measure 24
0100
0010
0100
0000
,  // measure 25
0010
1000
0010
0000
,  // measure 26
0100
0010
0100
0000
,  // measure 27
0010
1000
0010
0000
,  // measure 28
0100
0001
0100
0000
,  // measure 29
0200
0000
0000
0300
,  // measure 30
0001
1000
0001
0000
,  // measure 31
0001
0010
0001
0000
,  // measure 32
0001
1000
0001
0000
,  // measure 33
1000
0100
1000
0100
,  // measure 34
1000
0001
1000
0000
,  // measure 35
1000
0010
1000
0000
,  // measure 36
1000
0001
1000
0000
,  // measure 37
0001
0100
0001
0100
,  // measure 38
0001
0010
0001
0000
,  // measure 39
0002
0000
0000
0000
,  // measure 40
2003
0000
0000
0000
,  // measure 41
3100
0000
0000
0000
,  // measure 42
1001
1000
0010
0010
,  // measure 43
1000
0010
1000
1000
,  // measure 44
0010
0100
0010
0010
,  // measure 45
1000
0010
0100
0100
,  // measure 46
0010
1000
0010
0010
,  // measure 47
1000
0001
0010
0010
,  // measure 48
0001
1000
0100
0100
,  // measure 49
1000
0100
0010
0001
,  // measure 50
2002
0000
0000
3003
,  // measure 51
1001
0001
0100
0100
,  // measure 52
0001
0100
0001
0001
,  // measure 53
0100
0010
0100
0100
,  // measure 54
0001
0100
0010
0010
,  // measure 55
0100
0001
0100
0100
,  // measure 56
0001
1000
0100
0100
,  // measure 57
1000
0001
0010
0010
,  // measure 58
0001
0010
0100
1000
,  // measure 59
2002
0000
0000
3003
,  // measure 60
0010
0001
0010
0010
,  // measure 61
0001
1000
0100
0100
,  // measure 62
1000
0001
0010
0010
,  // measure 63
0001
1000
0100
0100
,  // measure 64
1000
0000
0000
0000
,  // measure 65
0001
0000
0000
0000
,  // measure 66
1000
0000
0000
0000
,  // measure 67
0002
0000
0000
0000
,  // measure 68
0003
0000
0000
0000
;

//---------------dance-single - ----------------
#NOTES:
     dance-single:
     :
     Medium:
     7:
     0.442,0.509,0.190,0.161,0.000: // measure 1
0000
0000
0000
0000
,  // measure 2
0000
0000
0000
0000
,  // measure 3
0000
0000
0000
0000
,  // measure 4
0000
0000
0000
0000
,  // measure 5
0000
0000
0000
0000
,  // measure 6
0001
1000
0001
1000
,  // measure 7
0001
1000
0001
1000
,  // measure 8
0010
0100
0010
0100
,  // measure 9
0010
0100
0010
0100
,  // measure 10
0001
0001
0010
0001
,  // measure 11
1000
1000
0100
1000
,  // measure 12
0001
0001
0100
0001
,  // measure 13
1000
1000
0010
1000
,  // measure 14
0002
0010
0013
0100
,  // measure 15
2000
0100
3100
0010
,  // measure 16
0002
0100
0103
0010
,  // measure 17
2000
0010
3010
0100
,  // measure 18
0001
0100
0001
0000
0001
0000
0100
0000
,  // measure 19
1000
0010
1000
0000
1000
0000
0100
0000
,  // measure 20
0001
0010
0001
0000
0001
0000
0010
0000
,  // measure 21
1000
0100
1000
0000
1000
0000
0010
0000
,  // measure 22
0001
0100
0001
0000
0010
0100
1000
0000
,  // measure 23
1000
0001
1000
0000
0100
0010
0001
0000
,  // measure 24
0001
1000
0001
0000
0010
0100
1000
0000
,  // measure 25
1000
0001
1000
0000
0100
0010
0001
0000
,  // measure 26
0001
0010
1000
0000
0010
0000
0100
0000
,  // measure 27
0001
0010
1000
0000
0010
0000
0100
0000
,  // measure 28
0001
0100
1000
0000
0100
0000
0010
0000
,  // measure 29
0202
0000
0000
0303
,  // measure 30
0001
0100
0010
0000
1000
0010
0001
0000
,  // measure 31
1000
0010
0100
0000
0001
0100
1000
0000
,  // measure 32
0001
0100
0010
0000
1000
0010
0001
0000
,  // measure 33
0100
0010
0100
0010
0100
0010
0100
0000
,  // measure 34
0001
0100
0010
0000
1000
0010
0001
0000
,  // measure 35
1000
0010
0100
0000
0001
0100
1000
0000
,  // measure 36
0001
0100
0010
0000
1000
0010
0001
0000
,  // measure 37
0100
0010
0100
0010
0100
0010
0100
0000
,  // measure 38
0001
0100
1000
0010
,  // measure 39
0001
0010
1000
0100
,  // measure 40
0001
0100
1000
0010
,  // measure 41
2002
0000
0000
3003
,  // measure 42
1001
0000
1010
0000
0100
0010
0100
0000
,  // measure 43
1001
0000
0101
0000
0010
0100
0010
0000
,  // measure 44
1001
0000
1010
0000
0100
0010
0100
0000
,  // measure 45
1001
0000
0101
0000
0010
0100
0010
0000
,  // measure 46
1000
0010
0100
0000
0110
0000
0101
0000
,  // measure 47
0001
0100
0010
0000
0110
0000
1010
0000
,  // measure 48
1000
0010
0100
0000
0110
0000
0101
0000
,  // measure 49
0001
0100
0010
0000
0110
0000
1010
0000
,  // measure 50
2002
0000
0000
3003
,  // measure 51
0001
0100
0001
0000
0001
0010
0001
0000
,  // measure 52
1000
0010
1000
0000
1000
0100
1000
0000
,  // measure 53
0001
0100
0010
0000
0010
0100
0010
0000
,  // measure 54
1000
0010
0100
0000
0100
0010
0100
0000
,  // measure 55
0001
0010
0100
0000
0010
0100
0010
0000
,  // measure 56
1000
0100
0010
0000
0100
0010
0100
0000
,  // measure 57
0001
0010
0100
0000
0010
0100
0010
0000
,  // measure 58
1000
0100
0010
0000
0100
0010
0100
0000
,  // measure 59
2002
0000
0000
3003
,  // measure 60
1000
0010
0100
0000
0001
0000
0010
0000
,  // measure 61
1000
0010
0100
0000
0001
0000
0010
0000
,  // measure 62
1000
0010
0100
0000
0001
0000
0100
0000
,  // measure 63
1000
0001
0010
0000
1000
0000
0100
0000
,  // measure 64
0002
0000
1000
0000
,  // measure 65
2003
0000
0001
0000
,  // measure 66
3002
0000
1000
0000
,  // measure 67
0203
0000
0020
0000
,  // measure 68
0330
0000
0000
0000
;

//---------------dance-single - ----------------
#NOTES:
     dance-single:
     :
     Beginner:
     1:
     0.084,0.125,0.028,0.000,0.000: // measure 1
0000
0000
0000
0000
,  // measure 2
0000
0000
0000
0000
,  // measure 3
0000
0000
0000
0000
,  // measure 4
0000
0000
0000
0000
,  // measure 5
0000
0000
0000
0000
,  // measure 6
0001
0000
0000
0000
,  // measure 7
0001
0000
0000
0000
,  // measure 8
0001
0000
0000
0000
,  // measure 9
0001
0000
0000
0000
,  // measure 10
1000
0000
0000
0000
,  // measure 11
1000
0000
0000
0000
,  // measure 12
1000
0000
0000
0000
,  // measure 13
1000
0000
0000
0000
,  // measure 14
1000
0000
0000
0000
,  // measure 15
0001
0000
0000
0000
,  // measure 16
1000
0000
0000
0000
,  // measure 17
0001
0000
0000
0000
,  // measure 18
0001
0000
0000
0000
,  // measure 19
1000
0000
0000
0000
,  // measure 20
0001
0000
0000
0000
,  // measure 21
1000
0000
0000
0000
,  // measure 22
0010
0000
0000
0000
,  // measure 23
0100
0000
0000
0000
,  // measure 24
0010
0000
0000
0000
,  // measure 25
0100
0000
0000
0000
,  // measure 26
0001
0000
0000
0000
,  // measure 27
0100
0000
0000
0000
,  // measure 28
0010
0000
0000
0000
,  // measure 29
0100
0000
0000
0000
,  // measure 30
0100
0000
0000
0000
,  // measure 31
0100
0000
0000
0000
,  // measure 32
0010
0000
0000
0000
,  // measure 33
0010
0000
0000
0000
,  // measure 34
1000
0000
0000
0000
,  // measure 35
0001
0000
0000
0000
,  // measure 36
1000
0000
0000
0000
,  // measure 37
1000
0000
0000
0000
,  // measure 38
0001
0000
0000
0000
,  // measure 39
0000
0000
0000
0000
,  // measure 40
0000
0000
0000
0000
,  // measure 41
0000
0000
0000
0000
,  // measure 42
1001
0000
0000
0000
,  // measure 43
0001
0000
0000
0000
,  // measure 44
0010
0000
0000
0000
,  // measure 45
0001
0000
0000
0000
,  // measure 46
0010
0000
0000
0000
,  // measure 47
0001
0000
0000
0000
,  // measure 48
1000
0000
0000
0000
,  // measure 49
0100
0000
0000
0000
,  // measure 50
1000
0000
0000
0000
,  // measure 51
1001
0000
0000
0000
,  // measure 52
1000
0000
0000
0000
,  // measure 53
0100
0000
0000
0000
,  // measure 54
1000
0000
0000
0000
,  // measure 55
0001
0000
0000
0000
,  // measure 56
0010
0000
0000
0000
,  // measure 57
0001
0000
0000
0000
,  // measure 58
1000
0000
0000
0000
,  // measure 59
1001
0000
0000
0000
,  // measure 60
1000
0000
0000
0000
,  // measure 61
1000
0000
0000
0000
,  // measure 62
1000
0000
0000
0000
,  // measure 63
1000
0000
0000
0000
,  // measure 64
0001
0000
0000
0000
,  // measure 65
0001
0000
0000
0000
,  // measure 66
0001
0000
0000
0000
,  // measure 67
0001
0000
0000
0000
;

//---------------dance-single - ----------------
#NOTES:
     dance-single:
     :
     Hard:
     8:
     0.576,0.603,0.104,0.038,0.422: // measure 1
0000
0000
0000
0000
,  // measure 2
0000
0000
0000
0000
,  // measure 3
0000
0000
0000
0000
,  // measure 4
0000
0000
0000
0000
,  // measure 5
0000
0000
0000
0000
,  // measure 6
1000
0010
1000
0000
1000
0000
0001
0000
,  // measure 7
0001
0100
0001
0000
0001
0000
1000
0000
,  // measure 8
1000
0010
1000
0000
1000
0000
0001
0000
,  // measure 9
0001
0100
0001
0000
0001
0000
1000
0000
,  // measure 10
1000
0100
1000
0000
1000
0000
0001
0000
,  // measure 11
0001
0010
0001
0000
0001
0000
1001
0000
,  // measure 12
1000
0010
0100
0000
0001
0000
1001
0000
,  // measure 13
0001
0100
0010
0000
1000
0000
1001
0000
,  // measure 14
0100
0000
0000
0100
0000
0000
0100
0000
1000
0000
0000
0000
0001
0000
0000
0000
,  // measure 15
0010
0000
0000
0010
0000
0000
0010
0000
0001
0000
0000
0000
1000
0000
0000
0000
,  // measure 16
0100
0000
0000
0100
0000
0000
0100
0000
1000
0000
0000
0000
0001
0000
0000
0000
,  // measure 17
0010
0000
0000
0010
0000
0000
0010
0000
0001
0000
0000
0000
1000
0000
0000
0000
,  // measure 18
0001
0100
0001
0000
0100
0010
0100
0000
,  // measure 19
0001
0100
0001
0000
0100
0010
0100
0000
,  // measure 20
1000
0010
1000
0000
0010
0100
0010
0000
,  // measure 21
1000
0010
1000
0000
0010
0100
0010
0000
,  // measure 22
1000
0000
0010
0000
1000
0000
0000
0001
0000
0100
0000
0010
0000
1000
0000
0000
,  // measure 23
0001
0000
0100
0000
0001
0000
0000
1000
0000
0010
0000
0100
0000
0001
0000
0000
,  // measure 24
1000
0000
0001
0000
1000
0000
0000
0001
0000
0010
0000
0100
0000
1000
0000
0000
,  // measure 25
0001
0000
1000
0000
0001
0000
0000
1000
0000
0100
0000
0010
0000
0001
0000
0000
,  // measure 26
0100
0010
0100
0001
1000
0100
0010
0000
,  // measure 27
0010
0100
0010
1000
0001
0010
0100
0000
,  // measure 28
0100
0010
0100
0001
1000
0100
0010
0000
,  // measure 29
2002
0000
0000
3003
,  // measure 30
1000
0010
0100
0001
0010
1000
0010
0000
,  // measure 31
0001
0100
0010
1000
0100
0001
0100
0000
,  // measure 32
1000
0010
0100
0001
0010
1000
0010
0000
,  // measure 33
0001
0100
0010
1000
0001
0100
0010
0000
,  // measure 34
1000
0010
0100
0001
0010
1000
0010
0000
,  // measure 35
0001
0100
0010
1000
0100
0001
0100
0000
,  // measure 36
1000
0010
0100
0001
0010
1000
0010
0000
,  // measure 37
0001
0100
0010
1000
0010
0100
0001
0100
,  // measure 38
0010
1000
0010
0000
1000
0000
0001
0000
,  // measure 39
0100
0001
0100
0000
0001
0000
1000
0000
,  // measure 40
0010
0100
0010
0000
1000
0000
0001
0000
,  // measure 41
0220
0000
0000
0330
,  // measure 42
0001
0000
0100
0000
0001
0000
0010
0100
0000
1000
0000
0100
0000
0010
0000
0000
,  // measure 43
0001
0000
0100
0000
0001
0000
0010
0100
0000
1000
0000
0100
0000
0010
0001
0000
,  // measure 44
1000
0000
0010
0000
1000
0000
0100
0010
0000
0001
0000
0010
0000
0100
0000
0000
,  // measure 45
1000
0000
0010
0000
1000
0000
0100
0010
0000
0001
0000
0010
0000
0100
1000
0000
,  // measure 46
0001
0000
0100
0000
0010
0000
1000
0001
0000
0010
0000
0100
0000
1000
0001
0000
,  // measure 47
1000
0000
0010
0000
0100
0000
0001
1000
0000
0100
0000
0010
0000
0001
1000
0000
,  // measure 48
0001
0000
0100
0000
0010
0000
1000
0001
0000
0010
0000
0100
0000
1000
0001
0000
,  // measure 49
1000
0000
0010
0000
0100
0000
0001
1000
0000
0100
0000
0010
0000
0001
0100
0000
,  // measure 50
0001
0000
0000
0101
0000
0000
0110
0000
0000
1010
0000
0000
0010
0000
0100
0000
,  // measure 51
0010
0000
1000
0000
0100
0000
0010
0001
0000
0100
0000
0001
0000
0010
0001
0000
,  // measure 52
0100
0000
0001
0000
0010
0000
0100
1000
0000
0010
0000
1000
0000
0100
1000
0000
,  // measure 53
0010
0000
1000
0000
0100
0000
0010
0001
0000
0100
0000
0001
0000
0010
0001
0000
,  // measure 54
0100
0000
0001
0000
0010
0000
0100
1000
0000
0010
0000
1000
0000
0100
1000
0000
,  // measure 55
0010
0000
1000
0000
0010
0000
0100
0001
0000
0010
0000
0001
0000
0100
0001
0000
,  // measure 56
0010
0000
0001
0000
0100
0000
0010
1000
0000
0100
0000
1000
0000
0010
1000
0000
,  // measure 57
0100
0000
1000
0000
0010
0000
0100
0001
0000
0010
0000
0001
0000
0100
0001
0000
,  // measure 58
0010
0000
0001
0000
0100
0000
0010
1000
0000
0100
0000
1000
0000
0010
0100
0000
,  // measure 59
0010
0000
0000
1010
0000
0000
0110
0000
0000
0101
0000
0000
0100
0000
0010
0000
,  // measure 60
0100
0001
0100
0010
1000
1000
1000
0001
,  // measure 61
0100
0010
0100
0001
1000
1000
1000
0001
,  // measure 62
0100
0010
0100
0001
1000
1000
1000
0001
,  // measure 63
0100
0010
0100
0001
1000
1000
1000
0001
,  // measure 64
1000
1000
1000
1000
,  // measure 65
0010
0010
0010
0010
,  // measure 66
0100
0100
0100
0100
,  // measure 67
0001
0000
0000
0000
0001
0000
0000
0000
0001
0000
0000
1000
0000
0000
0001
0000
;

//---------------dance-single - ----------------
#NOTES:
     dance-single:
     :
     Challenge:
     9:
     0.712,0.762,0.114,0.038,0.607: // measure 1
0000
0000
0000
0000
,  // measure 2
0000
0000
0000
0000
,  // measure 3
0000
0000
0000
0000
,  // measure 4
0000
0000
0000
0000
,  // measure 5
0000
0000
0000
0000
,  // measure 6
1000
0001
0100
0010
0100
0001
1000
0000
,  // measure 7
1000
0001
0100
0010
0100
0001
1000
0000
,  // measure 8
0001
0100
0010
0100
0001
1000
0001
0000
,  // measure 9
0001
0100
0010
0100
0001
1000
0001
0000
,  // measure 10
1000
0010
1000
0000
0001
0000
0100
0000
0010
0000
0100
0000
0001
0000
0000
0000
,  // measure 11
1000
0010
1000
0000
0001
0000
0100
0000
0010
0000
0100
0000
0001
0000
0000
0000
,  // measure 12
0001
0100
0001
0000
1000
0000
0010
0000
0100
0000
0010
0000
1000
0000
0000
0000
,  // measure 13
0001
0100
0001
0000
1000
0000
0010
0000
0100
0000
0010
0000
1000
0000
0000
0000
,  // measure 14
1010
0000
0000
0110
0000
0000
0100
0000
0001
0000
1000
0000
0001
0000
0100
0000
,  // measure 15
0101
0000
0000
0110
0000
0000
0010
0000
1000
0000
0001
0000
1000
0000
0010
0000
,  // measure 16
0110
0000
0000
1010
0000
0000
0100
0000
0001
0000
1000
0000
0001
0000
0100
0000
,  // measure 17
0110
0000
0000
0101
0000
0000
0010
0000
1000
0000
0001
0000
1000
0000
0000
0000
,  // measure 18
1000
0100
1000
0100
0001
0010
0100
1000
,  // measure 19
0001
0010
0001
0010
1000
0100
0010
0001
,  // measure 20
1000
0010
1000
0010
0001
0010
0100
1000
,  // measure 21
0001
0100
0001
0100
1000
0100
0010
0001
,  // measure 22
1000
0000
0100
0000
1000
0000
0010
0100
0000
0001
0000
0010
0000
0100
0000
0000
,  // measure 23
1000
0000
0100
0000
1000
0000
0010
0100
0000
0001
0000
0010
0000
0100
0000
1000
,  // measure 24
0001
0000
0010
0000
0001
0000
0100
0010
0000
1000
0000
0100
0000
0010
0000
0000
,  // measure 25
0001
0000
0010
0000
0001
0000
0100
0010
0000
1000
0000
0100
0000
0010
0000
0001
,  // measure 26
0100
0010
0100
0001
1000
0100
0001
0100
,  // measure 27
1000
0001
1000
0010
1000
0100
0001
0100
,  // measure 28
1000
0001
1000
0100
0001
0010
1000
0010
,  // measure 29
2002
0000
0000
3003
,  // measure 30
0001
0100
0010
1000
0100
0001
0100
1000
,  // measure 31
0001
0100
0010
1000
0100
0001
0100
1000
,  // measure 32
0001
0010
0100
1000
0010
0001
0010
1000
,  // measure 33
0100
0010
0001
0000
0010
0000
0100
0000
1000
0100
0010
0000
0001
0000
1000
0000
,  // measure 34
0001
0100
0010
1000
0100
0001
0100
1000
,  // measure 35
0100
0010
0001
0010
1000
0001
0010
0100
,  // measure 36
1000
0100
0010
0001
0010
1000
0010
0001
,  // measure 37
0010
0100
1000
0000
0010
0000
0100
0000
0001
0010
0100
0000
1000
0000
0010
0000
,  // measure 38
1000
1000
1000
0000
1000
0010
0100
0000
,  // measure 39
0001
0001
0001
0000
0100
0010
1000
0000
,  // measure 40
0010
0010
0010
0000
1000
0100
0001
0000
,  // measure 41
0220
0000
0000
0330
,  // measure 42
1000
0010
1000
0000
0001
0000
0100
0001
0000
1000
0000
0001
0000
0010
0000
0000
,  // measure 43
0001
0100
0001
0000
1000
0000
0010
1000
0000
0001
0000
1000
0000
0100
0010
0000
,  // measure 44
0001
0100
0001
0000
1000
0000
0001
0100
0000
0001
0000
1000
0000
0100
0000
0000
,  // measure 45
1000
0010
1000
0000
0001
0000
0100
0001
0000
1000
0000
0001
0000
0010
0100
0000
,  // measure 46
1000
0010
1000
0000
0100
0000
1000
0001
0000
0100
0000
0001
0000
0010
0100
0000
,  // measure 47
1000
0001
1000
0000
0100
0000
0010
0001
0000
0100
0000
0001
0000
0010
0100
0000
,  // measure 48
1000
0010
1000
0000
0100
0000
1000
0001
1000
0001
0000
0100
0000
0010
1000
0000
,  // measure 49
0001
0100
0001
0000
0010
0000
0001
1000
0001
1000
0000
0100
0000
1000
0010
0000
,  // measure 50
0100
0001
0000
0001
1000
0000
1000
0100
0000
0100
0010
0000
0001
1000
0001
0000
,  // measure 51
1001
0000
0010
0000
0100
0000
1000
0010
0100
0010
0000
1000
0000
0001
0010
0000
,  // measure 52
1000
0000
0100
0000
0010
0000
0001
0100
0010
0100
0000
0001
0000
1000
0100
0000
,  // measure 53
0001
0000
0010
0000
0100
0000
1000
0010
0100
0010
0000
1000
0000
0001
0010
0000
,  // measure 54
1000
0000
0100
0000
0010
0000
0001
0100
0010
0100
0000
0001
0000
0010
0100
0000
,  // measure 55
1000
0000
0010
0000
0100
0000
0001
1000
0010
1000
0000
0001
0000
0010
0100
0000
,  // measure 56
1000
0001
1000
0000
0010
0000
0100
0000
0001
1000
0000
0001
0000
0010
0100
0000
,  // measure 57
1000
0000
0010
0000
0100
0000
0001
1000
0010
1000
0000
0001
0000
1000
0100
0000
,  // measure 58
0001
0000
0100
0000
0010
0000
1000
0001
0000
0001
0000
1000
0010
0000
0100
0000
,  // measure 59
0010
1000
0000
1000
0001
0000
0001
0010
0000
0010
0100
0000
1000
0001
1000
0000
,  // measure 60
1001
0000
1000
0000
0010
0000
0100
0001
0000
0001
0000
0001
0000
0010
0100
0000
,  // measure 61
1000
0000
0001
0000
0100
0000
0010
1000
0000
1000
0000
1000
0000
0100
0010
0000
,  // measure 62
0001
0000
1000
0000
0010
0000
0100
0001
0000
0001
0000
0001
0000
0010
0100
0000
,  // measure 63
1000
0000
0001
0000
0100
0000
0010
1000
0000
1000
0000
1000
0000
0100
0010
0000
,  // measure 64
0001
0100
0001
0000
0001
0100
0001
0010
,  // measure 65
0100
1000
0100
0000
0100
1000
0100
0010
,  // measure 66
0001
1000
0001
0000
0001
1000
0001
0100
,  // measure 67
0010
0000
1000
0000
0010
0000
0000
0000
0010
0000
0000
0010
0000
0000
0010
0000
;
