#TITLE:BREAK OF DAWN;
#SUBTITLE:(Brisk Mix);
#ARTIST:BANG;
#TITLETRANSLIT:;
#SUBTITLETRANSLIT:;
#ARTISTTRANSLIT:;
#CREDIT:DMAxel;
#BANNER:BREAK OF DAWN (Brisk Mix).png;
#BACKGROUND:BREAK OF DAWN (Brisk Mix)-bg.png;
#LYRICSPATH:BREAK OF DAWN (Brisk Mix).lrc;
#CDTITLE:Dancemania SPEED presents HAPPY RAVERS.png;
#MUSIC:BREAK OF DAWN (Brisk Mix).mp3;
#OFFSET:-5.320;
#SAMPLESTART:66.975;
#SAMPLELENGTH:12.000;
#SELECTABLE:YES;
#BPMS:0.000=182.250;
#STOPS:;
#BGCHANGES:;

//---------------dance-single - ----------------
#NOTES:
     dance-single:
     :
     Easy:
     4:
     0.256,0.352,0.084,0.094,0.000: // measure 1
1000
0001
1000
0001
,  // measure 2
1000
0100
0010
0001
,  // measure 3
1000
0000
1000
0000
,  // measure 4
0001
0010
0100
1000
,  // measure 5
0001
0000
0001
0010
,  // measure 6
0100
1000
0010
0100
,  // measure 7
0001
0000
1000
0100
,  // measure 8
0010
0001
0100
0010
,  // measure 9
1000
0001
1000
0001
,  // measure 10
1000
0100
0010
0001
,  // measure 11
1000
0000
1000
0000
,  // measure 12
0001
0010
0100
1000
,  // measure 13
0001
0000
1000
0100
,  // measure 14
0010
0001
1000
0000
,  // measure 15
1001
0000
0001
0000
,  // measure 16
1001
0000
0000
0000
,  // measure 17
1001
0000
0000
0000
,  // measure 18
0000
0000
0000
0000
,  // measure 19
2000
0000
0000
0000
,  // measure 20
3002
0000
1003
0100
,  // measure 21
0020
0000
0000
0000
,  // measure 22
0000
0000
0000
0000
,  // measure 23
0031
0000
0100
0000
,  // measure 24
0010
1000
0010
1000
,  // measure 25
0002
0000
0000
0000
,  // measure 26
0000
0000
0000
0000
,  // measure 27
2003
0000
0000
0000
,  // measure 28
0000
0000
0000
0000
,  // measure 29
3002
0000
0000
0000
,  // measure 30
0000
0000
0000
0000
,  // measure 31
0203
0000
0000
0000
,  // measure 32
0000
0000
0000
0000
,  // measure 33
0310
0000
0010
0000
,  // measure 34
0010
0000
0010
0000
,  // measure 35
0100
0000
0100
0000
,  // measure 36
0100
0000
0100
0000
,  // measure 37
0010
0000
0010
0000
,  // measure 38
0010
0000
0010
0000
,  // measure 39
0100
0000
0100
0000
,  // measure 40
0100
0000
0000
0000
,  // measure 41
0110
0000
0000
0000
,  // measure 42
0001
0000
0000
0000
,  // measure 43
1000
0000
0000
0000
,  // measure 44
0000
0000
0001
1000
,  // measure 45
1001
0000
0000
0000
,  // measure 46
0010
0000
0000
0000
,  // measure 47
0100
0000
0000
0000
,  // measure 48
1000
0000
0000
0000
,  // measure 49
0001
1000
0001
0000
,  // measure 50
0100
0001
0100
0000
,  // measure 51
0010
1000
0010
0000
,  // measure 52
0100
0010
0100
0010
,  // measure 53
1000
0100
1000
0000
,  // measure 54
0001
0100
0001
0000
,  // measure 55
0010
0001
0010
0100
,  // measure 56
1000
0001
1000
0001
,  // measure 57
1000
0100
0010
0001
,  // measure 58
1000
0100
1000
0000
,  // measure 59
0001
0010
0100
1000
,  // measure 60
0001
0010
0001
0000
,  // measure 61
1000
0100
0010
0001
,  // measure 62
1000
0010
1000
0010
,  // measure 63
0100
0001
0100
0001
,  // measure 64
0010
0100
1000
0001
,  // measure 65
1001
0000
0000
0000
,  // measure 66
1000
1000
1000
1100
,  // measure 67
2002
0000
0000
0000
,  // measure 68
3003
0000
0000
0000
;

//---------------dance-single - ----------------
#NOTES:
     dance-single:
     :
     Medium:
     6:
     0.421,0.598,0.189,0.241,0.000: // measure 1
0001
0100
0001
0000
1000
0100
1000
0000
,  // measure 2
0001
0010
0100
1000
0001
0000
0001
0000
,  // measure 3
1000
0000
0010
0000
0100
0000
0001
1000
,  // measure 4
0000
0100
0000
1000
0000
0001
1000
0000
,  // measure 5
1000
0100
1000
0000
0001
0100
0001
0000
,  // measure 6
1000
0100
0010
0001
1000
0000
1000
0000
,  // measure 7
0001
0100
0010
1000
,  // measure 8
1001
0001
1001
1000
,  // measure 9
0001
0010
0100
1000
0001
0000
0100
0001
,  // measure 10
1000
0000
0100
1000
0100
0000
1000
0000
,  // measure 11
0001
0000
0010
0000
0100
0000
1000
0001
,  // measure 12
0000
0010
0000
0001
0000
0100
0010
0000
,  // measure 13
1000
0010
1000
0000
0001
0010
0001
0000
,  // measure 14
0100
0010
1000
0001
,  // measure 15
1000
0001
1000
0001
1000
0001
1000
0000
,  // measure 16
2002
0000
0000
3003
,  // measure 17
0201
0000
0000
0000
,  // measure 18
0302
0000
0000
0000
,  // measure 19
2003
0000
0000
0000
,  // measure 20
3002
0000
1003
0010
,  // measure 21
0200
0000
0000
0000
,  // measure 22
0302
0000
0000
0000
,  // measure 23
2003
0000
0001
0000
,  // measure 24
3001
0010
0100
1000
,  // measure 25
0020
0000
0000
0000
,  // measure 26
0100
0000
0000
0000
,  // measure 27
0230
0000
0000
0000
,  // measure 28
0001
0000
0000
0000
,  // measure 29
0302
0000
0000
0000
,  // measure 30
1000
0000
0000
0000
,  // measure 31
2003
0000
0000
0000
,  // measure 32
0010
0000
0000
0000
,  // measure 33
3001
0000
0100
0000
,  // measure 34
0010
0000
1000
0000
,  // measure 35
0100
0000
0010
0000
,  // measure 36
0001
0000
1000
0000
,  // measure 37
0010
0000
1000
0000
,  // measure 38
0001
0000
0010
0000
,  // measure 39
0100
0000
1000
0000
,  // measure 40
0001
0000
1000
0000
,  // measure 41
1002
0000
0203
0000
,  // measure 42
0302
0000
2003
0000
,  // measure 43
3001
0010
0100
1000
,  // measure 44
0001
0000
1000
1000
,  // measure 45
1002
0000
0203
0000
,  // measure 46
0302
0000
2003
0000
,  // measure 47
3010
0000
0110
0000
,  // measure 48
1001
0001
1000
0001
,  // measure 49
0100
0010
0100
0001
0010
0100
1000
0000
,  // measure 50
0010
0100
0010
1000
0100
0010
0001
0000
,  // measure 51
0100
0010
0100
0001
0010
0100
1000
0000
,  // measure 52
0010
0100
0010
0000
0101
0000
1100
0000
,  // measure 53
1001
0000
0010
0000
0100
0000
1000
0100
,  // measure 54
0001
0000
0100
0000
0010
0000
1000
0100
,  // measure 55
0001
0000
0100
0000
0010
0000
1000
0100
,  // measure 56
0001
0000
0100
0001
1000
0000
0100
1000
,  // measure 57
0010
0100
0000
0010
0000
1000
0100
1000
,  // measure 58
0000
0010
0000
0100
0000
0001
0010
0001
,  // measure 59
0000
0100
0000
0010
0000
1000
0010
1000
,  // measure 60
0000
0010
0000
0100
0001
0000
1001
0000
,  // measure 61
1001
0000
0100
0001
0100
0000
1000
0100
,  // measure 62
0010
0000
0001
0100
0001
0000
0010
0100
,  // measure 63
1000
0001
1000
0001
1000
0001
1000
0001
,  // measure 64
0010
0100
0010
0100
0010
0100
0010
0100
,  // measure 65
1000
0000
0000
0000
,  // measure 66
0110
0101
1100
1001
,  // measure 67
2002
0000
0000
0000
,  // measure 68
3003
0000
0000
0000
;

//---------------dance-single - ----------------
#NOTES:
     dance-single:
     :
     Hard:
     8:
     0.574,0.598,0.231,0.147,0.089: // measure 1
0001
0100
0010
1000
0100
0010
0001
0200
,  // measure 2
0000
0001
0000
0001
0000
0301
1000
0000
,  // measure 3
1000
0010
0100
0001
0010
0100
1000
0020
,  // measure 4
0000
1000
0000
1000
0000
1030
0001
0000
,  // measure 5
1001
0000
1100
0000
0001
0100
0001
1000
,  // measure 6
0000
0100
0000
1000
0000
0010
0100
0000
,  // measure 7
1001
0000
0011
0000
1000
0010
1000
0001
,  // measure 8
0010
0100
1000
0001
0010
0100
0010
0000
,  // measure 9
0101
0000
0101
0000
1000
0100
1000
0001
,  // measure 10
0000
0100
0000
0010
0000
1000
0001
0000
,  // measure 11
1000
0100
0010
0001
1000
0100
1000
0001
,  // measure 12
0000
0100
0000
0010
0000
1000
0001
0000
,  // measure 13
1010
0000
1010
0000
0001
0010
0001
1000
,  // measure 14
0000
0010
0000
0100
0000
0001
1000
0000
,  // measure 15
0001
0010
0100
1000
0001
0010
0001
1000
,  // measure 16
0010
0010
0010
0010
,  // measure 17
2002
0000
0000
3000
,  // measure 18
0200
0000
0000
0003
,  // measure 19
0020
0000
0000
0300
,  // measure 20
1030
0000
1010
1010
,  // measure 21
2002
0000
0000
0003
,  // measure 22
0020
0000
0000
3000
,  // measure 23
0130
0000
0001
0000
,  // measure 24
1000
0100
0010
0001
,  // measure 25
0100
0010
0100
0010
,  // measure 26
1000
0100
1000
0100
,  // measure 27
0010
0001
0010
0001
,  // measure 28
0100
0001
0100
0001
,  // measure 29
1000
0100
1000
0100
,  // measure 30
1000
0001
1000
0001
,  // measure 31
1000
0000
0000
0000
0010
0000
0000
0000
0100
0000
0000
0100
0000
0000
0100
0000
,  // measure 32
0000
0000
0001
0000
0000
0100
0000
0000
0010
0000
0000
1000
0000
0000
0001
0000
,  // measure 33
0010
0001
0000
1000
0000
0010
0000
1000
,  // measure 34
0000
0010
0000
0100
0000
0001
0000
1000
,  // measure 35
0100
1000
0000
0001
0000
0100
0000
0001
,  // measure 36
0000
0100
0000
0010
0000
1000
0000
0001
,  // measure 37
1000
0001
0000
0010
0000
0100
0000
1000
,  // measure 38
0000
0010
0000
0100
0010
0100
0010
0100
,  // measure 39
0000
0001
1000
0001
1000
0001
0010
0100
,  // measure 40
1000
0001
0010
0100
1000
0010
0100
0001
,  // measure 41
2000
0000
0000
0000
0000
0000
0000
0000
3001
0000
0000
0100
0000
0000
0010
0000
,  // measure 42
0000
0000
1000
0000
0000
0000
0001
0000
1000
0000
0000
0010
0000
0000
0100
0000
,  // measure 43
0000
0000
0001
0000
0000
0000
1000
0000
0001
0000
0000
0010
0000
0000
0100
0000
,  // measure 44
0000
0000
0000
0000
1000
0000
0000
0000
0010
0000
0000
0100
0000
0000
0010
0000
,  // measure 45
2000
0000
0000
0000
0001
0000
0000
0000
3001
0000
0000
0100
0000
0000
0010
0000
,  // measure 46
2000
0000
0000
0000
0001
0000
0000
0000
3001
0000
0000
0010
0000
0000
0100
0000
,  // measure 47
0010
0001
0101
1000
,  // measure 48
1100
0000
0000
0000
1100
0000
0000
0000
1001
0000
0000
0100
0001
0000
1000
0000
,  // measure 49
0001
0010
0100
1000
0100
0010
0100
1000
,  // measure 50
0000
0010
0100
0001
0010
0100
0010
0001
,  // measure 51
0000
0100
0010
1000
0100
0010
0100
1000
,  // measure 52
0000
0000
0010
0000
1000
0000
0001
0000
1001
0000
0000
1000
0001
0000
0100
0000
,  // measure 53
0001
0010
0100
1000
0100
0001
0010
0100
,  // measure 54
0000
1000
0100
0010
0001
0100
1000
0100
,  // measure 55
0000
0010
0001
0010
0100
1000
0100
0001
,  // measure 56
0100
0000
0000
0010
1000
0000
0001
0000
0010
0000
0000
0100
1000
0000
0001
0000
,  // measure 57
0010
0100
0000
0010
0001
0010
0100
1000
,  // measure 58
0000
0100
0010
0100
1000
0001
0010
0100
,  // measure 59
0000
0010
0001
0010
0100
1000
0001
0100
,  // measure 60
0000
0000
0010
0000
1000
0000
0001
0000
1001
0000
0000
0001
1000
0000
0010
0000
,  // measure 61
1000
0100
0010
0001
0100
1000
0100
0010
,  // measure 62
0000
0001
0100
0010
1000
0100
0001
0100
,  // measure 63
0010
1000
0010
1000
0001
0010
0001
0010
,  // measure 64
0100
0000
0000
1000
0010
0000
0100
0000
0001
0000
0000
0100
0001
0000
1000
0000
,  // measure 65
0100
0000
0000
0000
,  // measure 66
1100
0000
0000
0000
1100
0000
0000
0000
0101
0000
0000
0001
1000
0000
0100
0000
,  // measure 67
2002
0000
0000
0000
,  // measure 68
3003
0000
0000
0000
;

//---------------dance-single - ----------------
#NOTES:
     dance-single:
     :
     Beginner:
     1:
     0.082,0.139,0.073,0.000,0.000: // measure 1
0001
0000
0000
0000
,  // measure 2
1000
0000
0000
0000
,  // measure 3
0001
0000
0000
0000
,  // measure 4
0000
0000
0000
0000
,  // measure 5
1000
0000
0000
0000
,  // measure 6
0001
0000
0000
0000
,  // measure 7
1000
0000
0000
0000
,  // measure 8
1000
0000
0000
0000
,  // measure 9
0001
0000
0000
0000
,  // measure 10
1000
0000
0000
0000
,  // measure 11
0001
0000
0000
0000
,  // measure 12
0100
0000
0000
0000
,  // measure 13
0100
0000
0000
0000
,  // measure 14
0010
0000
0000
0000
,  // measure 15
0100
0000
0000
0000
,  // measure 16
0000
0000
0000
0000
,  // measure 17
1001
0000
0000
0000
,  // measure 18
0000
0000
0000
0000
,  // measure 19
0000
0000
0000
0000
,  // measure 20
0000
0000
0000
0000
,  // measure 21
0001
0000
0000
0000
,  // measure 22
0000
0000
0000
0000
,  // measure 23
1000
0000
0000
0000
,  // measure 24
0001
0000
0000
0000
,  // measure 25
1001
0000
0000
0000
,  // measure 26
0000
0000
0000
0000
,  // measure 27
0000
0000
0000
0000
,  // measure 28
0000
0000
0000
0000
,  // measure 29
0000
0000
0000
0000
,  // measure 30
0000
0000
0000
0000
,  // measure 31
0000
0000
0000
0000
,  // measure 32
0000
0000
0000
0000
,  // measure 33
1000
0000
0000
0000
,  // measure 34
0000
0000
0000
0000
,  // measure 35
0001
0000
0000
0000
,  // measure 36
0000
0000
0000
0000
,  // measure 37
1000
0000
0000
0000
,  // measure 38
0000
0000
0000
0000
,  // measure 39
1000
0000
0000
0000
,  // measure 40
0000
0000
0000
0000
,  // measure 41
1001
0000
0000
0000
,  // measure 42
0100
0000
0000
0000
,  // measure 43
0100
0000
0000
0000
,  // measure 44
0100
0000
0000
0000
,  // measure 45
0010
0000
0000
0000
,  // measure 46
0010
0000
0000
0000
,  // measure 47
0010
0000
0000
0000
,  // measure 48
0110
0000
0000
0000
,  // measure 49
0001
0000
0000
0000
,  // measure 50
1000
0000
0000
0000
,  // measure 51
0001
0000
0000
0000
,  // measure 52
1000
0000
0000
0000
,  // measure 53
0001
0000
0000
0000
,  // measure 54
0001
0000
0000
0000
,  // measure 55
0001
0000
0000
0000
,  // measure 56
0001
0000
0000
0000
,  // measure 57
1001
0000
0000
0000
,  // measure 58
1000
0000
0000
0000
,  // measure 59
0001
0000
0000
0000
,  // measure 60
1000
0000
0000
0000
,  // measure 61
1000
0000
0000
0000
,  // measure 62
1000
0000
0000
0000
,  // measure 63
1000
0000
0000
0000
,  // measure 64
0000
0000
0000
0000
,  // measure 65
1001
0000
0000
0000
,  // measure 66
0000
0000
0000
0000
,  // measure 67
1001
0000
0000
0000
;
