#TITLE:暗黒サイケデリック;
#SUBTITLE:;
#ARTIST:ALI PROJECT;
#TITLETRANSLIT:ANKOKU PSYCHEDELIC;
#SUBTITLETRANSLIT:;
#ARTISTTRANSLIT:;
#CREDIT:DMAxel;
#BANNER:ANKOKU PSYCHEDELIC.png;
#BACKGROUND:ANKOKU PSYCHEDELIC-bg.png;
#LYRICSPATH:ANKOKU PSYCHEDELIC.lrc;
#CDTITLE:pop'n music.png;
#MUSIC:ANKOKU PSYCHEDELIC.mp3;
#OFFSET:-0.500;
#SAMPLESTART:71.571;
#SAMPLELENGTH:12.000;
#SELECTABLE:YES;
#BPMS:0.000=135.040,32.000=67.520,40.000=135.040,200.000=67.520;
#STOPS:;
#BGCHANGES:;

//---------------dance-single - ----------------
#NOTES:
     dance-single:
     :
     Easy:
     3:
     0.164,0.245,0.091,0.163,0.000: // measure 1
0000
0000
0000
0000
,  // measure 2
0000
0000
0000
0000
,  // measure 3
0000
0000
0000
0000
,  // measure 4
0000
0000
0000
0000
,  // measure 5
0001
0001
0001
0001
,  // measure 6
1000
1000
1000
1000
,  // measure 7
0001
0001
0001
0001
,  // measure 8
1000
0001
0200
0000
,  // measure 9
0320
0000
0000
0000
0000
0230
0000
0000
,  // measure 10
0310
0000
0000
0000
,  // measure 11
1001
0000
0000
0000
,  // measure 12
0100
0000
0000
0000
,  // measure 13
0010
0000
0000
0000
,  // measure 14
0002
0000
0000
0000
,  // measure 15
1003
0000
1000
0000
,  // measure 16
0010
0000
0010
0000
,  // measure 17
0100
0000
0100
0000
,  // measure 18
0001
0000
0001
0000
,  // measure 19
0001
0000
1000
0000
,  // measure 20
0001
0000
1001
0000
,  // measure 21
0100
0000
0100
0000
,  // measure 22
0010
0000
0010
0000
,  // measure 23
1000
0000
1000
0000
,  // measure 24
0001
0000
0001
0000
,  // measure 25
1000
0000
0010
0000
,  // measure 26
1000
0000
1001
0000
,  // measure 27
0001
0000
0100
0000
,  // measure 28
0001
0000
0001
0000
,  // measure 29
0100
0000
0010
0000
,  // measure 30
0100
0000
0100
0000
,  // measure 31
0020
0000
0000
0000
,  // measure 32
0230
0000
0000
0000
,  // measure 33
0302
0000
0000
0000
,  // measure 34
2003
0000
0000
0000
,  // measure 35
3002
0000
0000
0000
,  // measure 36
0023
0000
0000
0000
,  // measure 37
0230
0000
0000
0000
,  // measure 38
2300
0000
3000
0000
,  // measure 39
1001
0000
1000
0000
,  // measure 40
0001
0000
0100
0000
,  // measure 41
1001
0000
0001
0000
,  // measure 42
1000
1000
1000
0000
,  // measure 43
1001
0000
0100
0000
,  // measure 44
1000
0000
0001
0000
,  // measure 45
0001
0001
0001
0000
,  // measure 46
1000
1000
1000
0000
,  // measure 47
1001
0001
0001
0001
,  // measure 48
0100
0100
0100
0100
,  // measure 49
0010
0010
0010
0010
,  // measure 50
1000
0001
1000
0000
,  // measure 51
0220
0000
0000
0000
,  // measure 52
0000
0330
2002
0000
,  // measure 53
0000
0000
0000
3003
,  // measure 54
0220
0000
0000
0000
,  // measure 55
0330
0000
0000
0000
;

//---------------dance-single - ----------------
#NOTES:
     dance-single:
     :
     Medium:
     5:
     0.268,0.441,0.263,0.172,0.000:
0000
0000
0000
0000
,
0000
0000
0000
0000
,
0000
0000
0000
0000
,
0000
0000
0000
0000
,
1001
1000
1000
1000
,
0110
0010
0010
0010
,
1001
0001
0001
0001
,
0100
0010
0100
0000
1001
0000
0000
0000
,
0200
0000
0000
0000
0000
0320
0000
0000
,
0130
0000
0100
0000
,
1001
0000
0001
0000
,
0010
0000
0100
0000
,
1000
0000
0010
0000
,
0200
0000
0000
0300
,
1001
0001
1000
0001
,
0100
0000
0010
0000
0100
0100
0000
0000
,
0001
1000
0001
1001
,
1000
1000
0110
0000
,
0001
0010
0100
1001
,
0010
0100
0020
0000
,
1000
1030
0100
1000
,
0001
0001
1000
1000
,
1001
0010
0100
0001
,
0100
0010
1000
0000
,
0010
0100
0001
0010
,
0100
0100
1001
0000
,
1000
0000
0010
0000
1000
0001
1000
0000
,
0010
0100
0020
0000
,
1000
0000
1030
0000
0001
1000
0001
0000
,
1000
0100
0010
0001
,
1002
0000
1000
0000
,
0203
0000
0010
0000
,
0320
0000
1000
0000
,
2030
0000
0001
3000
,
0120
0000
0100
0000
,
2030
0000
0001
0000
,
3002
0000
0010
0000
,
2003
0000
3100
0000
,
1000
0001
0000
0000
0010
0000
0001
0000
,
0001
1000
0000
0000
0100
0000
1000
0000
,
1000
0001
0000
0000
0010
0000
0001
0000
,
0001
0100
0010
1000
,
0001
1000
0000
0000
1000
0000
0010
0000
,
1000
0001
0000
0000
0001
0000
0100
0000
,
0010
0100
0010
0000
0100
0010
0100
0000
,
0001
1000
0001
0000
0100
0010
0100
0000
,
1001
0011
0011
0011
,
1001
1010
1010
1010
,
1001
0110
0110
1001
,
0001
1000
0001
0000
0110
0000
0000
0000
,
0220
0000
0000
0000
,
0000
0330
2002
0000
,
0000
0000
0000
3003
,
0220
0000
0000
0000
,
0330
0000
0000
0000
;

//---------------dance-single - ----------------
#NOTES:
     dance-single:
     :
     Hard:
     7:
     0.431,0.416,0.317,0.190,0.136:
0000
0000
0000
0000
,
0000
0000
0000
0000
,
0000
0000
0000
0000
,
0000
0000
0000
0000
,
0001
0000
0000
0001
0100
0000
0000
0001
0100
0000
0000
0001
0100
0000
0000
0000
,
0100
0000
0000
0100
0010
0000
0000
0100
0010
0000
0000
0100
0010
0000
0000
0000
,
1000
0000
0000
1000
0010
0000
0000
1000
0010
0000
0000
1000
0010
0000
1000
0000
,
0001
1000
0001
0000
0011
0000
0000
0000
,
0200
0000
2300
0000
0000
3002
0000
0000
,
1003
0100
0010
0001
0010
0200
0000
0300
,
1001
0000
0100
0010
0001
0100
0001
0000
,
0010
0000
0010
0100
1000
0010
1000
0000
,
0100
0000
0100
0010
0001
0100
0001
0000
,
2002
0000
0000
3003
,
1100
0000
1001
0000
0100
0010
0001
0000
,
0011
0000
1001
0000
0001
0100
0100
0000
,
0101
0000
1001
0000
0010
1000
0100
0000
,
1010
0000
1001
0000
0100
0010
0001
0000
,
0100
0010
0100
0001
0010
0100
1000
0000
,
0010
0100
0010
1000
0200
0000
0010
0000
,
0301
0010
0001
1000
0100
0010
0001
0000
,
1001
0110
1001
0110
,
0101
0000
0010
0100
1000
0000
1100
0000
,
1000
0100
0010
0000
0001
0001
0100
0000
,
1010
0000
0100
0010
0001
0000
0101
0000
,
1001
0110
1001
0000
,
0010
0100
0010
1000
0001
1000
0001
0000
,
0100
0010
0100
0001
0020
0000
0100
0000
,
1030
0100
1000
0001
0010
0100
1000
0000
,
1001
0110
1001
0110
,
2001
0010
0100
0010
,
3002
1000
0100
0010
,
2003
0001
0010
0100
,
3002
1000
0100
0013
,
0201
1000
0001
1300
,
0021
1000
0001
1030
,
0100
0001
0100
0000
0010
1000
0010
0000
,
1000
0001
1000
0001
2000
0000
0000
0000
,
3010
1000
0010
0100
0001
0010
0100
1000
,
0010
0000
0100
0001
1000
0100
0010
0001
,
0100
0001
0100
0010
1000
0100
0010
0001
,
0101
1010
0101
1001
,
0100
0001
0100
0010
1000
0100
0010
0001
,
0100
0000
0010
0100
0010
1000
0100
0001
,
0100
0010
0100
0001
0010
0100
0010
0001
,
1000
0001
1000
0100
0010
0100
1000
0000
,
1001
0000
0000
1000
0010
0000
0000
1000
0010
0000
0000
1000
0010
0000
0000
0000
,
0100
0000
0000
0100
0010
0000
0000
0100
0010
0000
0000
0100
0010
0000
0000
0000
,
0001
0000
0000
0001
0100
0000
0000
0001
0100
0000
0000
0001
0100
0000
0001
0000
,
1000
0001
1000
0000
1100
0000
0000
0000
,
0020
0000
0000
0000
0000
0000
0001
0000
0000
0001
0000
0000
0000
0000
0000
0000
0000
0000
0000
0000
0000
0000
0000
0032
0000
0000
0000
0000
0000
1000
0000
0000
,
1000
0000
0000
0000
0000
0000
0000
0000
0003
0000
0000
0000
0000
0000
0000
0000
2000
0000
0000
0000
0000
0000
0100
0000
0000
0100
0000
0000
0000
0000
0000
0000
,
0000
0000
0000
0000
0000
0000
0000
3020
0000
0000
0000
0000
0000
0100
0000
0000
0100
0000
0000
0000
0000
0000
0000
0000
0030
0000
0000
0000
0000
0000
0000
0000
,
0200
0000
0000
0000
0000
0000
0001
0000
0000
0001
0000
0000
0000
0000
0000
0000
0000
0000
0000
0000
0000
0000
0000
0320
0000
0000
0000
0000
0000
1000
0000
0000
,
1030
0000
0000
0000
;

//---------------dance-single - ----------------
#NOTES:
     dance-single:
     :
     Challenge:
     9:
     0.544,0.685,0.245,0.118,0.267:
0000
0000
0000
0000
,
0000
0000
0000
0000
,
0000
0000
0000
0000
,
0000
0000
0000
0000
,
0001
0000
1000
0010
1000
0000
0001
0100
0001
0000
1000
0010
1000
0000
0001
0000
,
1000
0000
0001
0100
0001
0000
1000
0010
1000
0000
0001
0100
0001
0000
1000
0000
,
0001
0000
0010
0001
0010
0000
0100
1000
0100
0000
1000
0001
1000
0000
0010
0100
,
0010
1000
0100
0010
0001
0000
1001
0000
,
0010
1000
0100
0000
1000
0001
0010
0000
0001
1000
0100
0000
1000
0001
0100
0000
,
0010
0000
0100
0000
0010
0000
0100
0000
0010
0000
0000
1000
0000
0000
0001
0000
0100
0000
0010
0000
0100
0000
0010
0000
0100
0000
0000
0001
0000
0000
1000
0000
,
1001
0000
0010
0001
0010
0000
0100
0000
1000
0000
0010
0000
1000
0000
0001
0000
,
1000
0000
0100
1000
0100
0000
0010
0000
0001
0000
0100
0000
0001
0000
1000
0000
,
0001
0000
0010
0001
0010
0000
0100
0000
1000
0000
0010
0000
1000
0000
1000
0000
,
0010
0100
0010
0000
1000
0000
0000
0000
0100
0000
0010
0000
0001
1000
0001
0000
,
0100
0001
0010
0100
0010
0000
1001
0000
,
0010
1000
0100
0010
0001
1001
0000
0010
,
0100
0001
0010
0100
0010
0000
1001
0000
,
0010
0000
1000
0000
0010
0000
0100
0000
0001
1000
0001
0000
0000
0000
0000
0000
,
0100
0010
1000
0100
0010
0010
0001
0000
,
0100
0010
0100
0001
0100
0000
0110
0000
,
0010
1000
0010
0100
0001
0001
1001
0000
,
0010
1000
0000
1000
0100
0000
0010
0001
0000
0001
0100
0000
0010
0000
0100
0000
,
0001
0010
0100
1000
1010
0000
1001
0000
,
0100
0010
1000
0100
0010
1001
0000
0000
,
0100
0010
1000
0100
0010
0001
0101
0000
,
0010
0000
1000
0000
0010
0000
0100
0000
0001
1000
0001
0000
0000
0000
0000
0000
,
0100
0001
0100
0010
0100
0001
1000
0000
,
0010
0100
0010
1000
0010
0000
0110
0000
,
0100
0001
0100
1000
0100
0010
0001
0000
,
0100
0001
0000
0001
0010
0000
0100
1000
0000
1000
0010
0000
0100
0000
0010
0000
,
1000
1000
0000
1000
0001
0010
0001
0010
,
0001
0001
0000
0001
1000
0100
1000
0000
,
0001
0001
0000
0001
1000
0100
1000
0010
,
1000
1000
0000
1000
0001
0100
0001
0000
,
0201
0000
0001
0000
0301
0010
0100
1000
,
1020
0000
1000
0000
1030
0100
0010
0001
,
0100
0100
0001
0010
0001
1000
0100
1000
,
0010
0010
1000
0001
1000
0000
0000
0000
,
0001
0001
1000
0010
1000
0010
1000
0001
,
1000
1000
1001
0000
0010
0001
0010
0001
,
1000
1000
0001
0100
0001
0100
0001
1000
,
1100
0101
1100
1001
,
1000
1000
0001
0010
0001
0010
0001
1000
,
0001
0001
1001
0000
0100
1000
0100
1000
,
0001
0001
0010
0100
1000
0100
0001
0100
,
1000
0001
1000
0100
0010
0100
1000
0000
,
0001
0000
0010
0001
0010
0000
0100
1000
0100
0000
0010
0001
0010
0000
0001
0000
,
1000
0000
0100
1000
0100
0000
0010
0001
0010
0000
0100
1000
0100
0000
1000
0000
,
0001
0000
0100
0001
0100
0000
0010
1000
0010
0000
1000
0001
1000
0000
0010
0100
,
0010
1000
0100
0010
0001
0000
1001
0000
,
2100
0000
0000
0000
0000
0000
3100
0000
0000
0020
0000
0000
0000
0000
0000
0000
0000
0000
0000
0030
0000
0000
0000
0012
0000
0000
0000
0000
0000
0013
0000
0000
,
0200
0000
0000
0000
0000
0000
0000
0000
0000
0000
0000
0000
0300
0000
0000
0000
2010
0000
0000
0000
0000
0000
3010
0000
0000
0200
0000
0000
0000
0000
0000
0000
,
0000
0000
0000
0300
0000
0000
0000
0102
0000
0000
0000
0000
0000
0103
0000
0000
0020
0000
0000
0000
0000
0000
0000
0000
0000
0000
0000
0000
0030
0000
0000
0000
,
2001
0000
0000
0000
0000
0000
3100
0000
0000
0020
0000
0000
0000
0000
0000
0000
0000
0000
0000
0030
0000
0000
0000
1002
0000
0000
0000
0000
0000
0013
0000
0000
,
0100
0000
0000
0000
;

//---------------dance-single - ----------------
#NOTES:
     dance-single:
     :
     Beginner:
     1:
     0.060,0.096,0.018,0.000,0.000:
0000
0000
0000
0000
,
0000
0000
0000
0000
,
0000
0000
0000
0000
,
0000
0000
0000
0000
,
1000
0000
0000
0000
,
0001
0000
0000
0000
,
1000
0000
0000
0000
,
0001
0000
0000
0000
,
1000
0000
0000
0000
,
0000
0000
0000
0000
,
0010
0000
0000
0000
,
0010
0000
0000
0000
,
0100
0000
0000
0000
,
0100
0000
0000
0000
,
0001
0000
0000
0000
,
0010
0000
0000
0000
,
0100
0000
0000
0000
,
1000
0000
0000
0000
,
1000
0000
0000
0000
,
0100
0000
0000
0000
,
0010
0000
0000
0000
,
0001
0000
0000
0000
,
1000
0000
0000
0000
,
0001
0000
0000
0000
,
0010
0000
0000
0000
,
0100
0000
0000
0000
,
1000
0000
0000
0000
,
0001
0000
0000
0000
,
1000
0000
0000
0000
,
0001
0000
0000
0000
,
0100
0000
0000
0000
,
0000
0000
0000
0000
,
0100
0000
0000
0000
,
0000
0000
0000
0000
,
0010
0000
0000
0000
,
0000
0000
0000
0000
,
0010
0000
0000
0000
,
0000
0000
0000
0000
,
1001
0000
0000
0000
,
1000
0000
0000
0000
,
0100
0000
0000
0000
,
1000
0000
0000
0000
,
0001
0000
0000
0000
,
0010
0000
0000
0000
,
0001
0000
0000
0000
,
1000
0000
0000
0000
,
1001
0000
0000
0000
,
0100
0000
0000
0000
,
0010
0000
0000
0000
,
0100
0000
0000
0000
,
0001
0000
0000
0000
,
0000
0000
1000
0000
,
0000
0000
0000
0000
,
0001
0000
0000
0000
;
