#TITLE:ACROSS THE BOARDERS;
#SUBTITLE:;
#ARTIST:B.BANDJ;
#TITLETRANSLIT:;
#SUBTITLETRANSLIT:;
#ARTISTTRANSLIT:;
#CREDIT:DMAxel;
#BANNER:ACROSS THE BOARDERS.png;
#BACKGROUND:ACROSS THE BOARDERS-bg.png;
#LYRICSPATH:;
#CDTITLE:beatmania.png;
#MUSIC:ACROSS THE BOARDERS.mp3;
#OFFSET:-0.120;
#SAMPLESTART:33.634;
#SAMPLELENGTH:12.000;
#SELECTABLE:YES;
#BPMS:0.000=91.000;
#STOPS:;
#BGCHANGES:;

//---------------dance-single - ----------------
#NOTES:
     dance-single:
     :
     Easy:
     2:
     0.119,0.164,0.013,0.000,0.000:
0000
0000
0000
1000
,
0000
0000
0000
0001
,
0000
0000
0000
1000
,
0000
0000
0000
0010
,
0000
0000
0000
0100
,
0000
0000
0000
0010
,
0000
0000
0000
0010
,
0000
0000
0000
1000
,
0000
0000
0000
1001
,
0000
0010
0000
0100
,
0000
0010
0000
1000
,
0000
0100
0000
1000
,
0000
0001
0000
0010
,
0010
0001
0001
1000
,
1000
0100
0100
1000
,
1000
0010
0010
0100
,
0100
0001
0001
0010
,
0010
0100
0100
1000
,
1000
0100
0100
0010
,
0010
0001
0001
1000
,
1000
0001
0001
1000
,
0000
0000
0010
0100
,
0000
0000
0001
0010
,
0000
0000
0100
1000
,
0000
0000
0010
1000
,
0000
0000
0001
0100
,
0000
0000
0001
1000
,
0000
0000
1000
0001
,
0000
0000
1000
0000
;

//---------------dance-single - ----------------
#NOTES:
     dance-single:
     :
     Hard:
     6:
     0.370,0.390,0.346,0.115,0.038:
0000
0000
0000
0000
0000
0000
1000
0100
,
1000
0000
0100
0000
0100
0000
0000
0000
1000
0000
0001
0000
0001
0000
0000
0100
,
0000
0010
0000
0000
0010
0100
0001
0001
,
1000
0000
1000
0000
0100
0000
0010
0000
0001
0000
0000
0000
0100
0000
0000
0100
,
0000
0100
0000
0010
0010
0000
1001
0000
,
0000
1100
0000
0000
0000
0000
0011
0101
,
0000
1100
0000
0000
0011
0000
1100
0000
,
0000
0110
0000
0000
0000
0000
1010
0101
,
0000
0000
0000
1001
0000
0000
0010
0000
0000
0001
0000
0000
0010
0000
0000
0000
0000
0000
0001
0000
0100
0000
0010
0000
,
1000
0100
0000
0100
1000
0000
0010
0000
,
0010
0000
0000
0100
0000
0000
0000
0000
0000
0100
0000
0000
0001
0000
0000
0000
0000
0000
1000
0000
0010
0000
0100
0000
,
0001
0010
0000
0010
0001
0000
0100
0000
,
0100
0010
0000
0000
1001
0000
1000
1000
,
1000
1000
1001
0001
0001
0001
0101
0100
,
0100
0100
0110
0010
0010
0010
1010
1000
,
1000
1000
1001
0001
0001
0001
0101
0100
,
0100
0100
0110
0010
0010
0010
1010
1000
,
1000
1000
1001
0001
0001
0001
0101
0100
,
0100
0100
0110
0010
0010
0010
1010
1000
,
1000
1000
1100
0100
0100
0100
1100
1000
,
1000
1000
1001
0001
0001
0001
0200
0000
,
0000
0310
1000
0001
0100
0000
0200
0000
,
0000
0310
0100
0001
1000
0000
2000
0000
,
0000
3001
1000
0010
0100
0000
0200
0000
,
0000
0310
1000
0001
0010
0000
0020
0000
,
0000
0031
0100
0010
1000
0000
2000
0000
,
0000
3010
0100
0001
0010
0000
0020
0000
,
0000
0031
1000
0010
0100
0000
0200
0000
,
0000
0310
0100
0001
1000
0000
0020
0000
,
0030
0000
0000
0000
;

//---------------dance-single - ----------------
#NOTES:
     dance-single:
     :
     Challenge:
     7:
     0.425,0.390,0.154,0.026,0.115: // measure 1
0000
0000
0000
0000
0000
0000
1000
0100
,  // measure 2
1000
0100
1000
0100
1000
0100
0001
0010
,  // measure 3
0001
0010
0001
0010
0001
0100
1000
0100
,  // measure 4
1000
0100
1000
0100
1000
0010
0001
0010
,  // measure 5
0001
0010
0001
0100
0100
0000
1001
0000
,  // measure 6
0000
0101
0000
0000
1000
0010
1100
1100
,  // measure 7
0000
0011
0000
0000
0010
0100
0011
0011
,  // measure 8
0000
1100
0000
0000
0010
0100
0101
1010
,  // measure 9
0000
0000
0000
1100
0000
0000
0001
0000
0000
0010
0000
0000
0001
0000
0000
0100
0000
0000
0001
1000
0001
1000
0001
1000
,  // measure 10
0001
1000
0100
1000
0010
1000
0010
0001
,  // measure 11
0010
0000
0000
0001
0000
0000
0010
0000
0000
1000
0000
0000
0100
0000
0000
0010
0000
0000
0001
0000
0100
0000
0010
0000
,  // measure 12
1000
0100
1000
0100
0001
0100
0001
1000
,  // measure 13
0010
0100
0001
0000
1000
0000
0001
0100
,  // measure 14
0001
0100
0001
0010
1000
0010
1000
0100
,  // measure 15
0001
0100
0001
0010
1000
0010
1000
0100
,  // measure 16
0001
0100
0001
0010
1000
0010
1000
0100
,  // measure 17
0001
0000
0000
0000
0100
0000
0000
0000
0001
0000
0100
0000
0001
0000
0000
0000
1000
0000
0010
0000
1000
0000
0000
0001
0010
0000
0000
0000
0001
0000
0000
0000
,  // measure 18
0010
0001
0010
1000
0100
1000
0100
0001
,  // measure 19
0010
0000
0000
0000
0001
0000
0000
0000
0010
0000
0000
0000
0001
0000
0000
0000
1000
0000
0000
0000
0000
0000
0000
0001
1000
0000
0000
0000
0010
0000
0000
0000
,  // measure 20
1000
0010
0001
0010
0001
0010
0001
0010
,  // measure 21
1000
0000
0000
0000
0010
0000
0000
0000
1000
0000
0000
0000
0001
0000
0000
0000
0100
0000
0000
0000
0000
0000
0000
0001
1000
0000
0000
0000
0100
0000
0000
0000
,  // measure 22
1000
0000
0000
0000
0100
0000
0000
0000
1000
0000
0000
0000
0100
0000
0000
0000
0001
0000
0000
0000
0000
0000
0000
1000
0001
0000
0000
0000
0010
0000
0000
0000
,  // measure 23
0001
0000
0000
0000
0010
0000
0000
0000
0001
0000
0000
0000
0010
0000
0000
0000
1000
0000
0000
0000
0000
0000
0000
0001
1000
0000
0000
0000
0010
0000
0000
0000
,  // measure 24
1000
0000
0000
0000
0010
0000
0000
0000
1000
0000
0000
0000
0010
0000
0000
0000
0001
0000
0000
0000
0000
0000
0000
1000
0001
0000
0000
0000
0100
0000
0000
0000
,  // measure 25
0001
0000
0000
0000
0100
0000
0000
0000
0001
0000
0000
0000
0100
0000
0000
0000
1000
0000
0000
0000
0000
0000
0000
0001
1000
0000
0000
0000
0100
0000
0000
0000
,  // measure 26
1000
0000
0000
0000
0010
0000
0000
0000
1000
0000
0000
0000
0100
0000
0000
0000
0001
0000
0000
0000
0000
0000
0000
1000
0001
0000
0000
0000
0010
0000
0000
0000
,  // measure 27
0001
0000
0000
0000
0100
0000
0000
0000
0001
0000
0000
0000
0100
0000
0000
0000
1000
0000
0000
0000
0000
0000
0000
0010
0100
0000
0000
0000
0010
0000
0000
0000
,  // measure 28
0100
0000
0000
0000
0001
0000
0000
0000
0010
0000
0000
0000
0100
0000
0000
0000
1000
0000
0000
0000
0000
0000
0000
0010
0100
0000
0000
0000
0010
0000
0000
0000
,  // measure 29
0100
0001
0100
0010
1000
0000
0220
0000
,  // measure 30
0330
0000
0000
0000
;

//---------------dance-single - ----------------
#NOTES:
     dance-single:
     :
     Medium:
     4:
     0.267,0.258,0.231,0.115,0.000:
0000
0000
0000
1000
,
1000
1000
1000
1000
,
1000
0000
1000
0000
1000
0100
0001
0000
,
0001
0001
0001
0001
,
0001
0000
0000
0100
0100
0000
0010
0000
,
0000
0100
0000
0000
0001
0000
0010
0001
,
0000
1000
0000
0000
0100
0000
1000
0100
,
0000
1000
0000
0000
0000
0000
0010
0100
,
0000
0001
0000
0000
0000
0000
2000
0000
,
3001
0000
0100
0010
,
0100
0001
1000
0100
,
1000
0000
0010
0100
0010
0000
0100
0000
,
0001
0010
0001
0000
0000
0000
1001
0000
,
1000
1001
0010
0101
,
0010
0110
0100
1100
,
1000
1001
0001
0101
,
0100
0110
0110
1001
,
0100
1010
0100
0101
,
0010
1100
0100
0011
,
0100
1001
0010
1001
,
0001
0101
1010
0002
,
0000
1003
0100
1000
0001
0000
0200
0000
,
0000
0310
0100
0010
1000
0000
0002
0000
,
0000
1003
0010
1000
0001
0000
0200
0000
,
0000
0310
0100
0010
1000
0000
0200
0000
,
0000
1300
0001
1000
0010
0000
0200
0000
,
0000
0310
1000
0001
0100
0000
0002
0000
,
0000
0013
0001
1000
0100
0000
2000
0000
,
0000
3100
1000
0010
0100
0000
0001
0000
;

//---------------dance-single - ----------------
#NOTES:
     dance-single:
     :
     Beginner:
     1:
     0.059,0.107,0.026,0.000,0.000:
0000
0000
0000
0000
,
0000
0000
0000
0000
,
0000
0000
0000
0001
,
0000
0000
0000
0000
,
0000
0000
0000
1000
,
0000
0000
0000
0001
,
0000
0000
0000
1000
,
0000
0000
0000
0010
,
0000
0000
0000
0100
,
0000
0000
0000
0010
,
0000
0000
0000
0100
,
0000
0000
0000
0001
,
0000
0000
0000
1000
,
0000
0000
0000
0001
,
0000
0000
0000
1000
,
0000
0000
0000
0100
,
0000
1001
0000
1001
,
0000
0010
0000
0100
,
0000
0010
0000
0100
,
0000
0001
0000
1000
,
0000
0001
0000
1000
,
0000
0000
0000
0001
,
0000
0000
0000
0100
,
0000
0000
0000
0010
,
0000
0000
0000
0100
,
0000
0000
0000
0001
,
0000
0000
0000
1000
,
0000
0000
0000
0001
;
