#TITLE:A SHOOTING STAR;
#SUBTITLE:;
#ARTIST:古川もとあき;
#TITLETRANSLIT:;
#SUBTITLETRANSLIT:;
#ARTISTTRANSLIT:MOTOAKI FURUKAWA;
#CREDIT:DMAxel;
#BANNER:A SHOOTING STAR.png;
#BACKGROUND:A SHOOTING STAR-bg.png;
#LYRICSPATH:;
#CDTITLE:ee'mall.png;
#MUSIC:A SHOOTING STAR.mp3;
#OFFSET:-0.720;
#SAMPLESTART:69.237;
#SAMPLELENGTH:12.000;
#SELECTABLE:YES;
#BPMS:0.000=140.000;
#STOPS:;
#BGCHANGES:;

//---------------dance-single - ----------------
#NOTES:
     dance-single:
     :
     Easy:
     3:
     0.259,0.273,0.216,0.515,0.000:
0000
0000
0000
0000
,
0000
0000
0000
0000
,
0000
0000
0000
0000
,
0000
0000
0000
0000
,
2002
0000
0000
3003
,
0220
0000
0000
0330
,
2002
0000
0000
3003
,
0220
0000
0000
0330
,
2002
0000
0000
0000
,
3003
0001
0001
0010
,
0200
0000
0000
1300
,
1000
0100
0020
0000
,
0032
0000
2003
0000
,
3000
0001
1000
0001
,
2000
0000
0000
3001
,
0001
0010
0100
1000
,
0001
0010
0001
0000
,
1000
0100
1000
0000
,
0001
0010
0001
0000
,
1000
0100
1000
0000
,
0002
0000
0000
1000
,
2003
0000
0020
3030
,
2002
0000
0000
3003
,
0220
0000
0000
0330
,
2002
0000
0000
3003
,
0022
0000
0000
0033
,
2002
0000
0000
3003
,
2200
0000
0000
3300
,
2002
0000
0000
3003
,
0220
0000
0000
0330
,
2002
0000
0000
0000
,
3003
0010
0010
0001
,
1000
0100
1000
0000
,
0001
0010
0001
0000
,
1000
0001
1000
0001
,
1000
0001
1000
0001
,
1000
0010
1000
0000
,
0001
0100
0001
0000
,
1000
0001
1000
0001
,
1000
0010
0100
0010
,
2020
0000
0000
3030
,
2002
0000
0000
3003
,
0202
0000
0000
0303
,
2002
0000
0000
3003
,
0220
0000
0000
0000
,
0330
1000
1000
0010
,
0100
0010
0000
0010
,
1000
0100
1000
0010
,
0100
0010
0100
0001
,
0010
0001
1000
0010
,
0220
0000
0000
0330
,
2002
0000
0000
0000
,
0000
0000
0000
0000
,
3003
0000
0000
0000
;

//---------------dance-single - ----------------
#NOTES:
     dance-single:
     :
     Hard:
     8:
     0.448,0.519,0.216,0.206,0.629:
0000
0000
0000
0000
,
0000
0000
0000
0000
,
0000
0000
0000
0000
,
0000
0000
0000
0000
,
1002
0000
0000
0000
0000
0000
1000
0000
1000
0000
1000
0000
,
2003
0000
0000
0000
0000
0000
0001
0000
0001
0000
0001
0000
,
3002
0000
0000
0000
0000
0000
0100
0000
0100
0000
0100
0000
,
0203
0000
0320
0000
,
1030
0000
1000
0000
1000
0001
0000
0001
0000
0001
0000
0000
,
0001
0100
0100
0110
,
0010
1000
0010
1000
0000
0000
0000
0000
0000
1000
0000
1000
,
0001
0000
0001
0010
0000
0010
0001
0000
0000
0000
0100
0010
,
0200
0000
0000
0000
0001
0000
0301
0000
0000
1001
0000
0000
,
0001
0000
0001
1000
0000
1000
0100
0000
0100
1000
0000
1000
,
0001
0100
0001
0100
0000
0000
0000
0000
0000
0001
0000
0001
,
1000
0000
1000
0100
0000
0100
1000
0000
0010
0100
0010
0100
,
0010
0000
0100
0010
0000
0100
0010
0000
0100
0001
0000
0000
,
0001
0000
0010
0100
0000
0010
0100
0000
0010
1000
0000
0000
,
1000
0000
0100
0010
0000
0100
0010
0000
0100
0001
0000
0000
,
0001
0000
0010
0100
0000
0010
0100
0000
0010
1000
0000
0000
,
1000
0001
1000
0001
1000
0001
1000
0001
1000
0001
0000
0000
,
0011
0000
1010
0000
,
1001
0000
0000
0000
0000
0000
0010
0000
0010
0000
0010
0000
,
0011
0000
0000
0000
0000
0000
1000
0001
1000
0001
1000
0001
,
1000
0000
0000
0000
0000
0000
0100
0000
0100
0000
0100
0000
,
1100
0100
0110
1001
,
0020
0000
0032
0000
,
0203
0000
0320
0000
,
2030
0000
3002
0000
,
0203
0000
0320
0000
,
1030
0000
1000
0000
1000
0001
0000
0001
0000
0001
0000
0000
,
1001
0010
0010
0110
,
1001
0000
1000
0100
0000
0100
1000
0000
1000
0001
0000
0001
,
0010
0000
0010
0001
0000
0001
1000
0000
1000
0001
0000
0001
,
1000
0000
1000
0000
0010
0100
0000
0001
0000
0001
0000
0000
,
1000
0000
1000
0000
0010
0100
0000
0001
0000
0001
0000
0000
,
1001
0000
0001
0010
0000
0010
0001
0000
0001
1000
0000
1000
,
0100
0000
0100
1000
0000
1000
0001
0000
0001
1000
0000
1000
,
0001
0000
0001
0000
0100
0010
0000
1000
0000
1001
0000
0000
,
0001
0000
0001
0000
0100
0010
0000
1000
0000
1001
0000
0000
,
0021
0000
0032
0000
,
2003
0000
3200
0000
,
1300
0000
1000
0010
0000
0010
0100
0000
0001
0100
0000
0100
,
0010
0100
0010
0100
0010
0100
0010
0000
0100
0001
0000
0001
,
1000
0000
1000
0000
0010
0100
0000
0001
0000
1001
0000
0000
,
1001
0010
0010
0110
,
0010
1000
0010
1000
0000
0000
0000
0000
0000
1000
0000
1000
,
0100
0000
0100
1000
0000
1000
0001
0000
0000
0000
0100
0001
,
0100
0000
0100
0010
0000
0010
1000
0000
1000
0010
0000
0010
,
0001
0000
0001
0100
0000
0100
1000
0000
1000
0001
1000
0001
,
1000
0000
0010
0010
,
0220
0000
0000
0000
,
0000
0000
0000
0000
,
0330
0000
0000
0000
;

//---------------dance-single - ----------------
#NOTES:
     dance-single:
     :
     Challenge:
     9:
     0.610,0.683,0.546,0.052,1.000: // measure 1
0000
0000
0000
0000
,  // measure 2
0000
0000
0000
0000
,  // measure 3
0000
0000
0000
0000
,  // measure 4
0000
0000
0000
0000
,  // measure 5
1001
0000
0001
0100
0000
0100
0001
0000
1000
0010
0000
0010
,  // measure 6
1000
0000
0001
0100
0000
0100
0001
1000
0001
1000
0001
0000
,  // measure 7
1001
0000
1000
0010
0000
0010
1000
0000
0001
0100
0000
0100
,  // measure 8
0001
1000
0001
1000
0001
1000
0010
0100
0010
0100
0010
0000
,  // measure 9
1010
0000
1010
0000
1000
0001
0000
0101
0000
0110
0000
0000
,  // measure 10
0110
1000
1000
1001
,  // measure 11
0010
0001
0010
0001
0000
0000
0000
0000
0000
0001
1000
0001
,  // measure 12
1000
0100
1000
0010
0100
0010
1000
0000
0000
0000
0010
1000
,  // measure 13
0020
0000
0000
0000
0100
0000
0130
0000
0000
0110
0000
0000
,  // measure 14
1001
0000
0000
1000
0001
1000
0001
0010
0001
0100
0010
0100
,  // measure 15
0001
0010
0001
0020
0000
0000
0000
0000
0000
0031
1000
0001
,  // measure 16
1000
0100
1000
0010
0100
0010
1000
0001
0010
0001
0000
0001
,  // measure 17
0100
0000
0100
0010
0000
0010
1000
0000
0001
1000
0000
1000
,  // measure 18
0010
0000
0010
0100
0000
0100
0001
0000
1000
0001
0000
0000
,  // measure 19
0011
0000
0010
0100
0000
0100
1000
0000
0001
1000
0000
1000
,  // measure 20
0100
0000
0100
0010
0000
0010
0001
0000
1000
0001
1000
0001
,  // measure 21
1000
0100
1000
0100
0010
0001
0010
0001
0010
0001
0000
0000
,  // measure 22
0100
0001
0100
0001
0100
0001
1000
0010
1000
0010
0000
0000
,  // measure 23
1001
0000
0000
0000
0000
0000
0101
0000
0101
0000
0110
0000
,  // measure 24
1002
0000
1000
0000
1000
0000
1003
0010
1000
0010
1000
0000
,  // measure 25
1001
0000
0000
0000
0000
0000
1010
0000
1010
0000
0110
0000
,  // measure 26
1001
0000
1010
1010
,  // measure 27
1000
0010
1000
0010
1000
0010
0100
0010
0100
0010
0100
0001
,  // measure 28
1000
0000
0000
0000
0001
0010
0001
1000
0100
1000
0010
0100
,  // measure 29
0010
0000
0000
1000
0010
1000
0010
1000
0000
0101
0000
0000
,  // measure 30
0101
0000
1001
0000
,  // measure 31
1010
0000
1010
0000
1000
0001
0000
0101
0000
0110
0000
0000
,  // measure 32
0110
0001
0001
1001
,  // measure 33
0001
0000
0001
0100
0000
0100
0010
0000
0010
1000
0000
1000
,  // measure 34
0100
0000
0100
0001
0000
0001
0010
0000
0010
1000
0000
1000
,  // measure 35
0001
0000
0101
0000
0001
1000
0000
1100
0000
1001
0000
0000
,  // measure 36
1010
0000
1010
0000
1000
0001
0000
0011
0000
1001
0000
0000
,  // measure 37
0001
0000
0001
0010
0000
0010
0100
0000
0100
1000
0000
1000
,  // measure 38
0010
0000
0010
0001
0000
0001
0100
0000
0100
1000
0001
1000
,  // measure 39
0001
0000
0011
0000
0001
1000
0000
1010
0000
1001
0000
0000
,  // measure 40
1000
0000
1100
0000
1000
0001
0000
0101
0000
1001
0000
0000
,  // measure 41
0001
0000
0001
0100
0000
0100
0001
1000
0001
1000
0001
1000
,  // measure 42
0001
0000
0001
0100
0000
0100
0010
0100
0010
0100
0010
0100
,  // measure 43
0010
0000
1000
0010
0000
0010
1000
0001
1000
0001
1000
0001
,  // measure 44
1000
0000
1000
0010
0000
0010
0100
0010
0100
0010
0100
0010
,  // measure 45
0100
0000
0101
0000
0001
1000
0000
1100
0000
0110
0000
0000
,  // measure 46
0110
1000
1000
1001
,  // measure 47
0100
1000
0100
1000
0000
0000
0000
0000
0000
0001
1000
0001
,  // measure 48
1000
0100
1000
0010
0100
0010
1000
0000
0000
0000
0001
0010
,  // measure 49
0001
0100
0010
0100
0001
0100
0010
0100
0001
0100
0010
0100
,  // measure 50
0010
1000
0010
0100
0010
1000
0010
0100
0010
1000
0010
0100
,  // measure 51
0001
0000
0011
1010
,  // measure 52
2002
0000
0000
0000
,  // measure 53
0000
0000
0000
0000
,  // measure 54
3003
0000
0000
0000
;

//---------------dance-single - ----------------
#NOTES:
     dance-single:
     :
     Medium:
     5:
     0.315,0.410,0.278,0.175,0.196:
0000
0000
0000
0000
,
0000
0000
0000
0000
,
0000
0000
0000
0000
,
0000
0000
0000
0000
,
2020
0000
0000
3030
,
0022
0000
0000
0033
,
2020
0000
0000
3030
,
0022
0000
0000
0033
,
0001
0000
0001
0000
0001
0000
0000
1000
0000
0010
0000
0000
,
0010
1000
0001
1000
,
0001
0000
0001
1000
0000
0000
0000
0000
0000
1000
0000
0000
,
0001
0100
0001
1000
,
0010
0000
0000
0000
0010
0000
0100
0000
0000
0010
0000
0000
,
0010
0000
0000
1000
0000
1000
0001
0000
0000
0001
0000
0001
,
1000
0000
1000
0010
0000
0000
0000
0000
0000
0010
0000
0000
,
0010
0000
1000
0001
0000
0001
0100
0000
0100
0001
0000
0000
,
0100
0100
0100
0101
,
0010
0010
0010
1010
,
1001
0001
0001
0011
,
1000
1000
1000
1100
,
1002
0000
0000
1000
,
2003
0000
3020
0000
,
0130
0000
0100
0000
,
0101
0000
0010
0000
,
1010
0000
0010
0000
,
0011
0000
0100
0000
,
1100
0000
1000
0000
,
1001
0000
0001
0000
,
1001
0000
0100
0000
,
0110
0000
0010
0000
,
1001
0000
1000
0000
1000
0000
0000
0010
0000
0100
0000
0000
,
0100
0100
0100
0100
,
1001
0100
0010
0001
,
0100
0010
1000
0001
,
0010
0000
0010
0000
0010
0000
0000
0001
0000
1000
0000
0000
,
0100
0000
0100
0000
0100
0000
0000
1000
0000
0001
0000
0000
,
1000
0100
0010
0001
,
0100
0010
1000
0001
,
0100
0000
0100
0000
0100
0000
0000
0001
0000
1000
0000
0000
,
0010
0000
0010
0000
0010
0000
0000
1000
0000
0001
0000
0000
,
1002
0000
1000
0003
,
2001
0000
0001
3000
,
1002
0000
0010
0003
,
2001
0000
0100
3100
,
1000
0000
1000
0000
1000
0000
0000
0010
0000
0100
0000
0000
,
0110
0010
0010
0010
,
1001
0000
0001
1000
0000
0000
0001
0000
0000
1000
0000
0000
,
0010
0000
0010
0100
0000
0100
0010
0000
0000
1000
0001
0100
,
0001
0000
0001
0010
0000
0000
0010
0000
1000
0100
0000
0000
,
0100
0000
0001
0100
0000
0000
0010
0000
1000
0010
0000
0000
,
0110
0000
0010
0010
,
0220
0000
0000
0000
,
0000
0000
0000
0000
,
0330
0000
0000
0000
;

//---------------dance-single - ----------------
#NOTES:
     dance-single:
     :
     Beginner:
     2:
     0.099,0.158,0.134,0.000,0.000:
0000
0000
0000
0000
,
0000
0000
0000
0000
,
0000
0000
0000
0000
,
0000
0000
0000
0000
,
1000
0000
0000
0000
,
1000
0000
0000
0000
,
0001
0000
0000
0000
,
0001
0000
0000
0000
,
1000
0000
0000
0000
,
0000
0001
0000
0000
,
1001
0000
0000
0000
,
1000
0000
1000
0000
,
0001
0000
0000
0000
,
0000
0001
0000
0000
,
1001
0000
0000
0000
,
0010
0000
0010
0000
,
0010
0000
0000
0000
,
0100
0000
0000
0000
,
0010
0000
0000
0000
,
0100
0000
0000
0000
,
0001
0000
0000
0000
,
0001
0000
0000
0000
,
1001
0000
0000
0000
,
1001
0000
0000
0000
,
1001
0000
0000
0000
,
1001
0000
0000
0000
,
1001
0000
1000
0000
,
0001
0000
0001
0000
,
0100
0000
0100
0000
,
0010
0000
0010
0000
,
0010
0000
0000
0000
,
0000
0000
0000
0000
,
1001
0000
0000
0000
,
1000
0000
0000
0000
,
0001
0000
0000
0000
,
0001
0000
0000
0000
,
1001
0000
0000
0000
,
0010
0000
0000
0000
,
0010
0000
0000
0000
,
0010
0000
0000
0000
,
1001
0000
0000
0000
,
0100
0000
0000
0000
,
0100
0000
0000
0000
,
0100
0000
0000
0000
,
1001
0000
0000
0000
,
0000
0001
0000
0000
,
1001
0000
0000
0000
,
0100
0000
0000
0000
,
0010
0000
0010
0000
,
0010
0000
0000
0000
,
0110
0000
0000
0000
,
0001
0000
0000
0000
;

//---------------dance-double - ----------------
#NOTES:
     dance-double:
     :
     Easy:
     3:
     0.284,0.382,0.330,0.464,0.000:
00000000
00000000
00000000
00000000
,
00000000
00000000
00000000
00000000
,
00000000
00000000
00000000
00000000
,
00000000
00000000
00000000
00000000
,
00002002
00000000
00000000
00003003
,
00002200
00000000
00000000
00003300
,
00022000
00000000
00000000
00033000
,
00220000
00000000
00000000
00330000
,
20020000
00000000
00000000
00000000
,
30030000
01000000
01000000
01000000
,
10010000
10000000
00000000
10000000
,
00100000
01000000
00010000
00000000
,
00002000
00000000
00023000
00000000
,
00030000
00001000
00000100
00000010
,
00001001
00000001
00000000
00000001
,
00000100
00000010
00000100
00000001
,
00001000
00001000
00001000
00011000
,
00010000
00010000
00010000
00110000
,
10000000
10000000
10000000
11000000
,
00010000
00010000
00010000
00011000
,
00000100
00001000
00000100
00001000
,
00000020
00000000
00000130
00000000
,
00002002
00000000
00000000
00003003
,
00002020
00000000
00000000
00003030
,
00022000
00000000
00000000
00033000
,
02020000
00000000
00000000
03030000
,
20020000
00000000
00000000
30030000
,
00220000
00000000
00000000
00330000
,
00022000
00000000
00000000
00033000
,
00002200
00000000
00000000
00003300
,
00002002
00000000
00000000
00000000
,
00003003
00000010
00000010
00000010
,
00000010
00000100
00000010
00000100
,
00001000
00000001
00001000
00000001
,
00000010
00000100
00001000
00010000
,
00100000
00010000
00100000
00010000
,
10000000
01000000
10000000
00100000
,
01000000
00100000
10000000
01000000
,
10000000
01000000
00100000
00010000
,
00001000
00000100
00000010
00000001
,
00002020
00000000
00000000
00003030
,
00022000
00000000
00000000
00033000
,
02020000
00000000
00000000
03030000
,
20020000
00000000
00000000
30030000
,
20020000
00000000
00000000
00000000
,
30030000
01000000
01000000
01000000
,
10010000
10000000
00000000
10000000
,
00100000
01000000
00100000
00000000
,
10010000
00010000
00011000
00001000
,
00001001
00000001
00001001
00001000
,
00022000
00000000
00000000
00033000
,
20020000
00000000
00000000
00000000
,
00000000
00000000
00000000
00000000
,
30030000
00000000
00000000
00000000
;
