#TITLE:2tone;
#SUBTITLE:;
#ARTIST:Love And Zest;
#TITLETRANSLIT:;
#SUBTITLETRANSLIT:;
#ARTISTTRANSLIT:;
#CREDIT:DMAxel;
#BANNER:2tone.png;
#BACKGROUND:2tone-bg.png;
#LYRICSPATH:;
#CDTITLE:pop'n music.png;
#MUSIC:2tone.mp3;
#OFFSET:-5.360;
#SAMPLESTART:16.634;
#SAMPLELENGTH:12.000;
#SELECTABLE:YES;
#BPMS:0.000=170.000;
#STOPS:;
#BGCHANGES:;

//---------------dance-single - ----------------
#NOTES:
     dance-single:
     :
     Easy:
     4:
     0.370,0.549,0.494,0.292,0.000: // measure 1
0001
2000
0000
0000
,  // measure 2
0001
0000
0001
3001
,  // measure 3
1000
0002
0000
0000
,  // measure 4
1000
0000
1000
1003
,  // measure 5
0001
2000
0000
0000
,  // measure 6
0000
0001
0000
0000
0001
0000
0001
0000
,  // measure 7
3002
0000
0000
0000
,  // measure 8
0103
0100
0100
0100
,  // measure 9
0110
0110
0001
1000
,  // measure 10
0001
1000
0001
1000
,  // measure 11
0110
0110
0001
1000
,  // measure 12
0001
1000
0001
1000
,  // measure 13
0110
0110
1000
0001
,  // measure 14
1000
0001
1000
0001
,  // measure 15
0110
0110
1000
0001
,  // measure 16
1000
0001
1000
0001
,  // measure 17
0200
0000
0000
0000
0301
0000
1000
0001
,  // measure 18
0000
0000
0000
1000
,  // measure 19
0020
0000
0000
0000
1030
0000
0001
1000
,  // measure 20
0000
0000
0000
0001
,  // measure 21
0200
0000
0000
0000
0301
0000
0000
1001
,  // measure 22
0000
0000
0000
1000
,  // measure 23
0020
0000
0000
0000
1030
0000
0000
2002
,  // measure 24
0000
0000
0000
0000
0000
3003
0000
0220
,  // measure 25
0000
0000
0000
0000
0000
0330
0000
2002
,  // measure 26
0000
0000
0000
0000
0000
3003
0000
0220
,  // measure 27
0000
0000
0000
0000
,  // measure 28
0330
0000
0001
0001
,  // measure 29
1001
1001
1000
0001
,  // measure 30
1000
0100
1000
0010
,  // measure 31
1001
1001
0001
1000
,  // measure 32
0001
0100
0001
0010
,  // measure 33
1001
1001
1100
1100
,  // measure 34
0010
0001
1000
0100
,  // measure 35
1001
1001
0011
0011
,  // measure 36
0100
1000
0001
0010
,  // measure 37
1002
0000
0000
0000
,  // measure 38
0000
0000
0000
0000
,  // measure 39
2003
0000
0000
0000
,  // measure 40
0000
0000
3002
0000
,  // measure 41
0000
0000
0203
0000
,  // measure 42
0000
0000
0320
0000
,  // measure 43
1030
0000
0000
0000
,  // measure 44
0101
0000
0000
0000
,  // measure 45
1001
0000
0001
0000
0001
0000
0000
0220
,  // measure 46
0000
0000
0000
0330
,  // measure 47
1001
0000
1000
0000
1000
0000
0000
0220
,  // measure 48
0000
0000
0000
0330
,  // measure 49
1001
0000
1001
0000
0001
0000
0000
0220
,  // measure 50
0000
0000
0000
0330
,  // measure 51
1001
0000
1001
0000
1000
0000
0000
0220
,  // measure 52
0000
0000
0000
0000
0000
0330
0000
2002
,  // measure 53
0000
0000
0000
0000
0000
3003
0000
0220
,  // measure 54
0000
0000
0000
0000
0000
0330
0000
2002
,  // measure 55
0000
0000
0000
3003
,  // measure 56
1001
0001
0001
0001
,  // measure 57
1000
0100
0010
0001
,  // measure 58
1000
1000
1000
1000
,  // measure 59
0001
0010
0100
1000
,  // measure 60
0001
0001
0001
0001
,  // measure 61
1000
0100
0010
0001
,  // measure 62
1000
1000
1000
1000
,  // measure 63
0001
0010
0100
1000
,  // measure 64
0010
0010
0100
0100
,  // measure 65
0010
0010
1000
0100
,  // measure 66
0001
0001
1000
1000
,  // measure 67
0001
0001
0010
1000
,  // measure 68
0010
0010
0100
0100
,  // measure 69
0010
0010
1000
0100
,  // measure 70
0001
1000
0001
1000
,  // measure 71
0020
0000
0000
0000
,  // measure 72
0130
0110
0000
0000
,  // measure 73
1001
0000
0001
0001
,  // measure 74
1001
1000
1001
0001
,  // measure 75
0110
1000
0001
1000
,  // measure 76
1001
1001
0100
0101
,  // measure 77
0010
1010
1100
1100
,  // measure 78
0011
0011
0101
0101
,  // measure 79
1010
1010
1001
0110
,  // measure 80
0000
0000
0000
1001
;

//---------------dance-single - ----------------
#NOTES:
     dance-single:
     :
     Challenge:
     9:
     0.677,0.679,0.567,0.235,0.073: // measure 1
0010
0100
0002
0000
0100
0000
0100
0000
,  // measure 2
2003
0100
0001
3001
,  // measure 3
0100
0010
2000
0000
0100
0000
0100
0000
,  // measure 4
3002
0100
1000
1003
,  // measure 5
0100
0010
0001
0000
0100
0001
0100
0000
,  // measure 6
0001
2000
0000
0000
0100
0000
3100
0000
,  // measure 7
0100
0010
0002
0000
0010
0000
0013
0000
,  // measure 8
0001
0010
0100
1000
0001
0010
0100
1000
,  // measure 9
1010
0000
1010
0000
0100
0001
0100
0001
,  // measure 10
1000
0100
0010
0100
1000
0001
0100
0001
,  // measure 11
0101
0000
0101
0000
0010
1000
0010
1000
,  // measure 12
0001
0010
0100
0010
0001
1000
0100
1000
,  // measure 13
1100
0000
1100
0000
0010
0001
1000
0010
,  // measure 14
0000
1000
0010
1000
0001
0010
1000
0001
,  // measure 15
0011
0000
0011
0000
0100
1000
0001
0100
,  // measure 16
0000
0001
0100
0001
1000
0100
0001
1000
,  // measure 17
1100
0000
1100
0000
0001
0010
0100
2002
,  // measure 18
0000
0000
3003
1001
,  // measure 19
0011
0000
0011
0000
1000
0100
0010
2002
,  // measure 20
0000
0000
3003
1001
,  // measure 21
0001
1000
0000
0100
0010
0001
1000
2002
,  // measure 22
0000
0000
3003
1001
,  // measure 23
1000
0001
0010
0100
1000
0001
0001
0100
,  // measure 24
0001
0100
0001
0100
0001
0100
0001
0100
,  // measure 25
1000
0100
1000
0100
1000
0100
1000
0010
,  // measure 26
0001
0010
0001
0010
0001
0010
0001
0010
,  // measure 27
1000
0010
1000
0010
1000
0001
0010
0100
,  // measure 28
1000
0000
1001
1001
,  // measure 29
1010
0000
1010
0000
0100
0001
1000
0010
,  // measure 30
1000
0000
0010
0000
0100
0000
0001
0000
0100
0000
1000
0000
0001
0100
0001
0000
,  // measure 31
0101
0000
0101
0000
0010
1000
0001
0100
,  // measure 32
0001
0000
0100
0000
0010
0000
1000
0000
0100
0000
0001
0000
1000
0100
1000
0000
,  // measure 33
1100
0000
1100
0000
1001
0100
0010
0001
,  // measure 34
0100
1000
0001
0010
0100
1000
0001
0010
,  // measure 35
0011
0000
0011
0000
1001
0010
0100
1000
,  // measure 36
0100
0001
1000
0100
0010
0001
1000
0010
,  // measure 37
0020
1000
1000
1000
,  // measure 38
0230
0001
0001
0001
,  // measure 39
0302
1000
2003
0010
,  // measure 40
0010
3010
0200
0001
,  // measure 41
0001
0001
0320
1000
,  // measure 42
1000
0000
0000
0000
0000
0000
0000
0000
0000
0000
0000
0000
0000
0000
0000
0000
0000
0000
0000
0000
0000
0000
0000
0000
0000
0000
0000
0000
0000
0000
0000
0000
0000
0000
0000
0000
0000
0000
0000
0000
0000
0000
0000
0000
0000
0000
0000
0000
1000
0000
0000
0000
0000
0000
0000
0000
0000
0000
0000
0000
0000
0000
0000
0000
0000
0000
0000
0000
0000
0000
0000
0000
0000
0000
0000
0000
0000
0000
0000
0000
0000
0000
0000
0000
0000
0000
0000
0000
0000
0000
0000
0000
0000
0000
0000
0000
2030
0000
0000
0000
0000
0000
0000
0000
0000
0000
0000
0000
0000
0000
0000
0000
0000
0000
0000
0000
0000
0000
0000
0000
0000
0000
0000
0000
0000
0000
0000
0000
0000
0000
0000
0000
0000
0000
0000
0000
0000
0000
0000
0000
0000
0000
0000
0000
0001
3000
0000
0000
0000
0000
0000
0000
0000
0000
0000
0000
0000
0000
0000
0000
0000
0000
0000
0000
0000
0000
0000
0000
0000
0000
0000
0000
0000
0000
0000
0000
0000
0000
0000
0000
0000
0000
0000
0000
0000
0000
0000
0000
0000
0000
0000
0000
,  // measure 43
1000
0010
0000
1000
0010
0000
0100
0001
0000
0100
0001
0000
1000
0100
0000
0000
,  // measure 44
1000
0100
0000
1000
0100
0000
0010
0001
0000
0010
0001
0000
1000
0010
0000
0000
,  // measure 45
1000
0100
0010
0001
0100
1000
0001
0220
,  // measure 46
0000
0000
0330
0110
,  // measure 47
0001
0010
0100
1000
0100
0001
1000
0220
,  // measure 48
0000
0000
0330
0110
,  // measure 49
1100
1000
0001
0100
1000
1000
0001
0220
,  // measure 50
0000
0000
0330
0110
,  // measure 51
0011
0001
1000
0100
0001
0001
1000
0010
,  // measure 52
1000
0010
1000
0010
1000
0010
1000
0010
,  // measure 53
0001
0010
0001
0010
0001
0010
0001
0100
,  // measure 54
1000
0100
1000
0100
1000
0100
1000
0100
,  // measure 55
0001
0100
0001
1000
0100
0010
0001
1000
,  // measure 56
1010
1000
0001
0000
0100
0002
0000
0100
,  // measure 57
0000
0103
0001
0000
1000
0100
0001
0100
,  // measure 58
0101
0001
1000
0000
0100
2000
0000
0100
,  // measure 59
0000
3100
1000
0000
0001
0100
1000
0001
,  // measure 60
0001
0000
1000
0000
0100
0000
0000
0000
0010
0000
0100
0000
1000
0001
1000
0000
,  // measure 61
0100
0010
0100
1000
0001
0010
0100
1000
,  // measure 62
1000
0001
0010
0000
0001
0010
0100
0010
,  // measure 63
0001
0001
0000
0010
0100
1000
0001
0000
,  // measure 64
1001
0000
0011
0000
1001
0100
0010
0001
,  // measure 65
1000
0100
0001
0100
1000
0001
0101
0000
,  // measure 66
1001
0000
1100
0000
1001
0010
0100
1000
,  // measure 67
0001
0100
1000
0100
0001
1000
1100
0000
,  // measure 68
1001
0000
0000
0000
0101
0000
0000
0000
0010
0000
1000
0000
0010
0100
0010
0000
,  // measure 69
1000
0100
0001
0010
0100
1000
0100
0010
,  // measure 70
1001
0000
1010
0000
0100
0001
0100
0010
,  // measure 71
0100
0001
0000
0100
0001
0000
0100
0001
0000
1000
0100
0000
1000
0000
0100
0000
,  // measure 72
1000
0000
1100
0000
0010
0001
1000
0001
,  // measure 73
1001
0000
0101
0000
0001
0100
0001
1000
,  // measure 74
1100
0000
1100
0000
0001
0100
1000
0100
,  // measure 75
0010
1000
0001
1000
0100
0010
0001
1000
,  // measure 76
1001
0000
1001
0000
0100
0010
0001
1000
,  // measure 77
1001
1100
1001
0101
,  // measure 78
1001
0000
1001
0000
0010
0100
1000
0001
,  // measure 79
1001
0101
1001
2200
,  // measure 80
0000
0000
3300
1001
;

//---------------dance-single - ----------------
#NOTES:
     dance-single:
     :
     Medium:
     6:
     0.487,0.582,0.527,0.332,0.000: // measure 1
0100
0001
0200
0000
0000
0000
0000
0000
,  // measure 2
0001
0000
0301
1000
,  // measure 3
0100
1000
0200
0000
0000
0000
0000
0000
,  // measure 4
1000
0000
1300
0001
,  // measure 5
0010
0001
0020
0000
0000
0000
0000
0000
,  // measure 6
0000
0001
0000
0000
0031
0000
1000
0000
,  // measure 7
0020
0000
0000
0000
,  // measure 8
1030
0001
1000
0001
1000
0001
1000
0000
,  // measure 9
1001
1001
0100
0010
,  // measure 10
0001
1000
0001
0000
1000
0100
1000
0001
,  // measure 11
1001
1001
0010
0100
,  // measure 12
1000
0001
1000
0000
0001
0100
0001
1000
,  // measure 13
1001
0000
1001
0000
1000
0010
0000
0100
,  // measure 14
0000
0001
0000
1000
0001
0000
0001
1000
,  // measure 15
1001
0000
1001
0000
0001
0100
0000
0010
,  // measure 16
0000
1000
0000
0001
1000
0000
1000
0001
,  // measure 17
0100
0000
0100
0000
0100
0001
0010
0200
,  // measure 18
0000
0000
0000
1300
,  // measure 19
0010
0000
0010
0000
0010
1000
0100
0020
,  // measure 20
0000
0000
0000
0031
,  // measure 21
1000
0001
0000
0000
0010
0100
0000
2002
,  // measure 22
0000
0000
3003
0001
,  // measure 23
1000
0010
1000
0010
1000
0001
1000
2000
,  // measure 24
0000
0000
0001
0000
0001
0000
3001
0020
,  // measure 25
0000
0000
0001
0000
0001
0000
0031
2000
,  // measure 26
0000
0000
0010
0000
0010
0000
3010
0200
,  // measure 27
0000
0010
0010
0010
,  // measure 28
0310
0000
1001
1001
,  // measure 29
1100
0000
1100
0000
0010
0001
0010
0000
,  // measure 30
0001
1000
0001
0000
1000
0000
0001
0000
,  // measure 31
0011
0000
0011
0000
0100
1000
0100
0000
,  // measure 32
1000
0001
1000
0000
0001
0000
0100
0000
,  // measure 33
1010
0000
1010
0000
0100
0001
0100
0000
,  // measure 34
0010
0100
0010
0000
1000
0010
1000
0000
,  // measure 35
0101
0000
0101
0000
0010
1000
0010
0000
,  // measure 36
0100
0010
0100
0000
0001
0100
0001
0000
,  // measure 37
2002
0000
0000
0000
,  // measure 38
0000
0000
0000
3003
,  // measure 39
0220
0000
0000
0000
,  // measure 40
0000
0330
2020
0000
,  // measure 41
0000
3030
0220
0000
,  // measure 42
0000
0330
0202
0303
,  // measure 43
2002
0000
0000
3003
,  // measure 44
0220
0000
0000
0330
,  // measure 45
1001
0000
1000
0010
1000
0001
0000
0022
,  // measure 46
0000
0000
0000
0033
,  // measure 47
1001
0000
0001
0100
0001
1000
0000
2200
,  // measure 48
0000
0000
0000
3300
,  // measure 49
1000
0001
0000
0000
0010
0100
0000
2002
,  // measure 50
0000
0000
0000
3003
,  // measure 51
0001
0100
0001
0000
1000
0100
1000
0002
,  // measure 52
0000
0000
1000
0000
1000
0000
1003
0200
,  // measure 53
0000
0000
1000
0000
1000
0000
1300
0020
,  // measure 54
0000
0000
1000
0000
1000
0000
1030
0002
,  // measure 55
0000
1000
1000
1003
,  // measure 56
1000
0001
0100
0000
0100
0001
0000
1000
,  // measure 57
0000
1000
0002
0000
0100
0000
0103
0000
,  // measure 58
0001
1000
0010
0000
0010
1000
0000
0001
,  // measure 59
0000
0001
2000
0000
0010
0000
3010
0000
,  // measure 60
1001
0000
1000
0000
1000
0010
0000
0100
,  // measure 61
0001
0100
0000
0100
0001
0100
0001
0000
,  // measure 62
1001
0000
0001
0000
0001
0100
0000
0010
,  // measure 63
1000
0010
0000
0010
1000
0010
1000
0000
,  // measure 64
1100
0000
0100
0000
1000
0001
0000
1000
,  // measure 65
0000
0100
0000
1000
0001
1000
0001
0000
,  // measure 66
0011
0000
0010
0000
0001
1000
0000
0001
,  // measure 67
0000
0010
0000
0001
1000
0001
1000
0000
,  // measure 68
1010
0000
0010
0000
1000
0001
0000
0100
,  // measure 69
0000
0010
0000
1000
0001
1000
0001
0000
,  // measure 70
0101
0000
0100
0000
0001
1000
0000
0010
,  // measure 71
0200
0010
0010
0310
,  // measure 72
0110
0110
1000
1000
,  // measure 73
1001
0000
0001
0001
,  // measure 74
0101
0101
0101
1001
,  // measure 75
1010
1010
1010
1001
,  // measure 76
0011
0011
1010
1010
,  // measure 77
0011
0011
1010
1010
,  // measure 78
1100
1100
0101
0101
,  // measure 79
1100
1100
0101
0202
,  // measure 80
0000
0000
0303
1001
;

//---------------dance-single - ----------------
#NOTES:
     dance-single:
     :
     Hard:
     8:
     0.596,0.582,0.413,0.203,0.024: // measure 1
1000
0100
0010
0000
0001
0010
0000
0001
,  // measure 2
0000
0010
0001
0000
1000
0000
1000
0000
,  // measure 3
0001
0010
0100
0000
1000
0100
0000
1000
,  // measure 4
0000
0100
1000
0000
0001
0000
0001
0000
,  // measure 5
1000
0010
0100
0000
0001
0100
0000
0001
,  // measure 6
0000
0100
0001
0000
1000
0000
1000
0000
,  // measure 7
0001
0100
0010
0000
1000
0010
0000
0100
,  // measure 8
0001
0001
0001
0001
1000
1000
1000
0000
,  // measure 9
1001
0000
1001
0000
0001
0100
0001
0100
,  // measure 10
0001
1000
0100
1000
0100
1000
0001
0001
,  // measure 11
1001
0000
1001
0000
1000
0010
1000
0010
,  // measure 12
1000
0001
0010
0001
0010
0001
1000
1000
,  // measure 13
1001
0000
1001
0000
0001
0100
0000
0010
,  // measure 14
1000
0100
0000
1000
0100
0010
0001
1000
,  // measure 15
1001
0000
1001
0000
1000
0010
0000
0100
,  // measure 16
0001
0010
0000
0001
0010
0100
1000
0001
,  // measure 17
1001
0000
0011
0000
0100
1000
0001
0200
,  // measure 18
0000
0001
0301
0101
,  // measure 19
1001
0000
1100
0000
0010
0001
1000
0020
,  // measure 20
0000
1000
1030
1010
,  // measure 21
0100
0001
1000
1000
0100
0010
0001
2002
,  // measure 22
0000
0000
3003
1001
,  // measure 23
0010
1000
0001
0001
0010
0100
1000
1000
,  // measure 24
0020
0000
1000
0000
1000
0000
1030
0002
,  // measure 25
0100
0000
0100
0000
0100
0000
0103
0020
,  // measure 26
0100
0000
0100
0000
0100
0000
0130
2000
,  // measure 27
0001
0001
0001
0001
,  // measure 28
3001
0000
0011
0011
,  // measure 29
1010
0000
1010
0000
0100
0001
0100
0001
,  // measure 30
1000
0100
1000
0001
0010
0100
1000
0001
,  // measure 31
0101
0000
0101
0000
0010
1000
0010
1000
,  // measure 32
0001
0010
0001
1000
0100
0010
0001
1000
,  // measure 33
1100
0000
1100
0000
0010
0001
0010
0100
,  // measure 34
1000
0100
0001
0100
1000
0001
0100
0001
,  // measure 35
0011
0000
0011
0000
0100
1000
0100
0010
,  // measure 36
0001
0100
1000
0100
0001
1000
0100
1000
,  // measure 37
1002
1000
1000
1000
,  // measure 38
1000
1000
1000
1003
,  // measure 39
0210
0010
0010
0010
,  // measure 40
0010
0310
0102
0100
,  // measure 41
0100
0103
2100
0100
,  // measure 42
0100
3100
1100
0001
,  // measure 43
1000
0000
0000
0100
0000
0000
0010
0000
0000
0001
0000
0000
1000
0000
0000
0000
,  // measure 44
0001
0000
0000
0010
0000
0000
0100
0000
0000
1000
0000
0000
0001
0000
0000
0000
,  // measure 45
1000
0010
1000
0001
0010
0100
1000
0020
,  // measure 46
0000
1000
1030
1010
,  // measure 47
0001
0100
0001
1000
0100
0010
0001
0200
,  // measure 48
0000
0001
0301
0101
,  // measure 49
1000
0010
0000
1000
0001
0010
0100
2000
,  // measure 50
0000
0001
3001
1001
,  // measure 51
0001
0100
0001
1000
0100
0010
0001
0200
,  // measure 52
0001
0000
0001
0000
0001
0000
0301
2000
,  // measure 53
0100
0000
0100
0000
0100
0000
3100
0020
,  // measure 54
0001
0000
0001
0000
0001
0000
0031
2000
,  // measure 55
0010
0010
0010
3010
,  // measure 56
0100
0001
0010
0000
0001
0020
0000
0001
,  // measure 57
0000
0031
1000
0000
0010
0100
0010
0100
,  // measure 58
0010
1000
0100
0000
1000
0200
0000
1000
,  // measure 59
0000
1300
0001
0000
0100
0010
0100
0010
,  // measure 60
0100
0000
0001
0000
0100
0010
1000
1000
,  // measure 61
0100
0010
0000
0001
0100
0010
0100
0000
,  // measure 62
0110
0000
1000
0000
0010
0100
0001
0001
,  // measure 63
0010
0100
0000
1000
0010
0100
0010
0000
,  // measure 64
0110
0000
0110
0000
1000
0010
0000
0100
,  // measure 65
0001
0010
0000
0001
0010
0100
1000
0000
,  // measure 66
0110
0000
0110
0000
0001
0100
0000
0010
,  // measure 67
1000
0100
0000
1000
0100
0010
0001
0000
,  // measure 68
1000
1000
0010
0000
0100
0001
0010
0200
,  // measure 69
0000
1000
0000
1300
0001
0010
0100
0000
,  // measure 70
1000
1000
0010
0000
0100
0001
0010
0100
,  // measure 71
1000
0000
0000
0010
0000
0000
0100
0000
0000
0001
0000
0000
1000
0000
0001
0000
,  // measure 72
1000
0000
1100
0000
0001
0100
0001
0000
,  // measure 73
1002
0000
1000
1003
,  // measure 74
0110
0000
0110
0000
0010
0001
1000
0000
,  // measure 75
0110
0000
0110
0000
0100
1000
0001
0000
,  // measure 76
0011
0000
0011
0000
0100
1000
0100
0001
,  // measure 77
1000
0000
0100
0010
0100
1000
0001
0000
,  // measure 78
1100
0000
1100
0000
0010
0001
0010
1000
,  // measure 79
0001
0000
0010
0100
0010
0001
2002
0000
,  // measure 80
0000
0000
3003
0110
;

//---------------dance-single - ----------------
#NOTES:
     dance-single:
     :
     Beginner:
     2:
     0.104,0.226,0.113,0.000,0.000: // measure 1
0001
0000
0000
0000
,  // measure 2
0000
0000
0000
0000
,  // measure 3
0001
0000
0000
0000
,  // measure 4
0000
0000
0000
0000
,  // measure 5
1000
0000
0000
0000
,  // measure 6
0000
0000
0000
0000
,  // measure 7
1000
0000
0000
0000
,  // measure 8
1001
0000
0000
0000
,  // measure 9
0001
0000
0000
0000
,  // measure 10
0000
0000
0000
0000
,  // measure 11
1000
0000
0000
0000
,  // measure 12
0000
0000
0000
0000
,  // measure 13
0001
0000
0000
0000
,  // measure 14
0001
0000
0000
0000
,  // measure 15
1000
0000
0000
0000
,  // measure 16
1000
0000
0000
0000
,  // measure 17
0100
0000
0000
0000
,  // measure 18
0000
0000
0000
0000
,  // measure 19
1000
0000
0000
0000
,  // measure 20
0001
0000
0000
0000
,  // measure 21
0001
0000
0000
0000
,  // measure 22
0100
0000
0000
0000
,  // measure 23
0001
0000
0000
0000
,  // measure 24
1000
0000
0000
0000
,  // measure 25
0001
0000
0000
0000
,  // measure 26
1000
0000
0000
0000
,  // measure 27
0001
0000
0000
0000
,  // measure 28
1000
0000
0000
0000
,  // measure 29
1001
0000
0000
0000
,  // measure 30
1000
0000
0000
0000
,  // measure 31
0001
0000
0000
0000
,  // measure 32
1000
0000
0000
0000
,  // measure 33
0010
0000
0000
0000
,  // measure 34
0010
0000
0000
0000
,  // measure 35
0100
0000
0000
0000
,  // measure 36
0100
0000
0000
0000
,  // measure 37
0010
0000
0000
0000
,  // measure 38
0000
0000
0000
0000
,  // measure 39
0000
0000
0000
0000
,  // measure 40
0000
0000
0000
0000
,  // measure 41
0000
0000
0000
0000
,  // measure 42
0000
0000
0000
0000
,  // measure 43
0110
0000
0000
0000
,  // measure 44
1001
0000
0000
0000
,  // measure 45
1001
0000
0000
0000
,  // measure 46
1000
0000
0000
0000
,  // measure 47
0001
0000
0000
0000
,  // measure 48
1000
0000
0000
0000
,  // measure 49
0001
0000
0000
0000
,  // measure 50
0100
0000
0000
0000
,  // measure 51
0001
0000
0000
0000
,  // measure 52
1000
0000
0000
0000
,  // measure 53
0100
0000
0000
0000
,  // measure 54
1000
0000
0000
0000
,  // measure 55
0001
0000
0000
0000
,  // measure 56
1001
0000
0000
0000
,  // measure 57
0000
0000
0000
0000
,  // measure 58
1001
0000
0000
0000
,  // measure 59
0000
0000
0000
0000
,  // measure 60
0110
0000
0000
0000
,  // measure 61
0000
0000
0000
0000
,  // measure 62
0110
0000
0000
0000
,  // measure 63
0000
0000
0000
0000
,  // measure 64
0001
0000
1000
0000
,  // measure 65
0001
0000
0000
0000
,  // measure 66
1000
0000
0001
0000
,  // measure 67
1000
0000
0000
0000
,  // measure 68
0010
0000
0100
0000
,  // measure 69
0010
0000
0000
0000
,  // measure 70
0100
0000
0010
0000
,  // measure 71
0100
0000
0000
0000
,  // measure 72
0001
0000
0000
0000
,  // measure 73
1001
0000
1000
0000
,  // measure 74
1000
0000
0001
0000
,  // measure 75
1000
0000
0001
0000
,  // measure 76
1000
0000
1001
0000
,  // measure 77
0001
0000
1001
0000
,  // measure 78
1000
0000
1001
0000
,  // measure 79
0001
0000
1001
0000
,  // measure 80
0000
0000
0000
1000
;
