#TITLE:not eternity;
#SUBTITLE:;
#ARTIST:猫叉Master;
#TITLETRANSLIT:;
#SUBTITLETRANSLIT:;
#ARTISTTRANSLIT:Nekomata Master;
#GENRE:WORLD;
#CREDIT:;
#MENUCOLOR:;
#NEWMETERSYSTEM:NO;
#BANNER:not eternity.png;
#BACKGROUND:not eternity-bg.png;
#LYRICSPATH:;
#CDTITLE:;
#MUSIC:Not Eternity.ogg;
#OFFSET:-0.377;
#SAMPLESTART:59.050;
#SAMPLELENGTH:20.800;
#SELECTABLE:YES;
#LISTSORT:;
#BPMS:0.000=92.000,156.000=46.000,158.000=92.000;
#STOPS:;
#BGCHANGES:;
#ATTACKS:;

//---------------dance-single - DDRDAIKENKAI----------------
#NOTES:
     dance-single:
     DDRDAIKENKAI:
     Challenge:
     9:
     0.559,0.531,0.681,0.331,0.282:
0000
0000
0000
0000
,
0000
0000
0000
0000
0000
0000
0000
1000
,
0001
0000
0000
0100
0000
0000
0110
0000
0000
0010
0000
1000
0100
0000
0000
1000
0000
0001
1001
0000
0000
0001
0000
0000
,
0100
0000
0010
0100
0000
0000
0110
0000
0000
0010
0000
0010
1000
0000
0000
0100
0000
1000
1100
0000
0000
0100
0000
0000
,
0110
0000
0000
0010
0000
0000
0011
0000
0000
0001
0000
0100
0010
0000
0000
0010
0000
1000
1010
0000
0000
0010
0000
0000
,
1010
0000
0000
1000
0000
0000
1100
0000
0000
0100
0000
0100
2000
0000
0000
3010
0000
0000
1002
0000
0000
0103
0010
0100
,
0010
0000
0000
0100
0000
0000
0110
0000
0000
0100
0000
0001
0010
0000
0000
0001
0000
1000
1001
0000
0000
1000
0000
0000
,
0010
0000
0100
0010
0000
0000
0110
0000
0000
0100
0000
0100
0001
0000
0000
0010
0000
0001
0011
0000
0000
0010
0000
0000
,
0110
0000
0000
0100
0000
0000
1100
0000
0000
1000
0000
0010
0100
0000
0000
0100
0000
0001
0101
0000
0000
0100
0000
0000
,
0101
0000
0000
0001
0000
0000
0011
0000
0000
0010
0000
0010
0002
0000
0000
0103
0000
0010
0110
0000
0000
0010
0000
0000
,
2200
0000
0000
0000
0000
0000
0000
0000
0000
0000
0000
0000
0000
0000
0000
0000
0000
0000
0000
0000
0000
0000
0000
0000
0000
0000
0000
0000
0000
0000
0000
0000
0000
0000
0000
0000
0000
0000
0000
0000
0000
0000
0000
0000
0000
0000
0000
0000
3300
0000
0000
0000
0000
0000
0000
0000
0000
0000
0000
0000
0000
0000
0000
0000
0000
0000
0000
0000
0000
0000
0000
0000
0000
0000
0000
0000
0000
0000
0000
0000
0000
0000
0000
0000
0001
0000
0000
0000
0000
0000
0010
0000
0000
0000
0000
0000
0001
0000
0000
0000
0000
0000
0000
0000
0000
0000
0000
0000
0000
0000
0000
0000
0000
0000
0000
0000
0000
0000
0000
0000
0000
0000
0000
0000
0000
0000
0000
0000
0000
0000
0000
0000
1000
0000
0000
0000
0000
0000
0100
0000
0000
0000
0000
0000
1000
0000
0000
0000
0000
0000
0000
0000
0000
0000
0000
0000
0000
0000
0000
0000
0100
0000
0000
0000
0000
0000
0000
0000
1000
0000
0000
0000
0000
0000
0000
0000
0000
0000
0000
0000
0000
0000
0000
0000
0000
0000
0000
0000
0000
0000
0000
0000
,
1001
0000
1000
0001
0000
0000
1001
0000
0000
0001
0000
0001
0100
0000
0100
0010
0000
0000
0110
0000
0000
0010
0000
0010
,
1000
0000
1000
0100
0000
0000
1100
0000
0000
0100
0000
0100
0010
0000
0010
0001
0000
0000
0011
0000
0000
0001
0000
0001
,
0100
0000
0100
0010
0000
0000
0110
0000
0000
0010
0000
0010
1000
0000
1000
0001
0000
0000
1001
0000
0000
1000
0000
1000
,
0010
0000
0010
1000
0000
0000
1010
0000
0000
1000
0000
1000
0001
0000
0001
0100
0000
0000
0101
0000
0000
0001
0000
0000
,
1001
0001
0101
0100
0120
0000
1030
0001
,
1004
0000
1000
0000
1000
0000
0100
0000
0100
0000
0100
0000
0103
0000
0000
0000
0000
0000
0010
0000
0000
0100
0000
0000
,
0110
0100
1100
1000
1020
0000
0031
0010
,
1000
0000
0000
0001
0000
0000
0104
0000
0100
0000
0100
0000
1003
0000
0000
0000
0000
0000
0404
0000
0000
0303
0000
0000
,
0110
0000
0000
0010
0000
0000
1010
0000
0000
1000
0000
0000
2100
0000
0000
0100
0000
0000
3100
0000
0000
0010
0000
0010
,
0004
0000
0010
0000
0010
0000
0100
0000
0100
0000
0100
0000
0103
0000
0000
0000
0000
0000
0001
0000
0000
0010
0000
0000
,
0110
0100
1100
1000
0012
0000
0103
0000
,
1004
0000
1000
0000
1000
0000
1003
0000
0000
0000
0000
0000
2200
0000
0000
3300
0000
0000
0220
0000
0000
0330
0000
0000
,
0011
0001
0100
0010
0100
1000
0100
0001
,
1000
0000
0000
0010
0000
0010
0200
0000
0000
0000
0000
0000
0301
0000
0000
0000
0000
0000
0101
0000
0000
0001
0000
0000
,
0011
0010
1000
0010
0100
0001
0100
0010
,
0001
0000
0000
1000
0000
1000
0200
0000
0000
0300
0000
0000
2200
0000
0000
3300
0000
0000
0022
0000
0000
0033
0000
0000
,
1001
0100
1000
0010
0001
0010
1000
0100
,
0001
0000
0000
0100
0000
0100
2000
0000
0000
0000
0000
0000
3001
0000
0000
0000
0000
0000
0110
0000
0000
0010
0000
0000
,
1010
0000
0000
1000
0000
0000
0001
0000
0000
0100
0000
0000
0010
0000
0000
1000
0000
0001
0100
0000
0000
0010
0000
0000
,
0110
0001
1001
0100
2100
0000
3100
0010
,
0120
0000
0000
0000
0000
0000
0130
0000
0000
1000
0000
0000
2010
0000
0000
3010
0000
0010
0200
0000
0000
0301
0000
0000
,
0101
0010
1010
0100
1100
0000
1001
0001
,
0100
0000
0000
0010
0000
0000
1000
0000
0000
0001
0000
1000
0002
0000
0000
1000
0000
0000
1003
0000
0000
0100
0000
0000
,
1100
0010
0110
0001
0011
0000
0001
1000
,
1001
0000
0000
0000
0000
0000
1000
0000
0000
0010
0000
0000
0110
0000
0000
0100
0000
0001
0200
0000
0000
0301
0000
0000
,
1001
0010
1010
0100
0110
0000
1010
1000
,
0100
0000
0000
0001
0000
0000
0100
0000
0000
0010
0000
0001
0020
0000
0000
0000
0000
0000
0031
0000
0000
0100
0000
0000
,
0210
0000
0000
0000
0000
0000
0000
0000
0000
0000
0000
0000
0000
0000
0000
0000
0000
0000
0000
0000
0000
0000
0000
0000
0310
0000
0000
0000
0000
0000
0000
0000
0000
0000
0000
0000
0000
0000
0000
0000
0100
0000
0000
0000
0000
0000
0000
0000
0020
0000
0000
0000
0000
0000
0000
0000
0000
0000
0000
0000
0000
0000
0000
0000
0000
0000
0000
0000
0000
0000
0000
0000
0000
0000
0000
0000
0000
0000
0000
0000
0000
0000
0000
0000
0000
0000
0000
0000
0000
0000
0000
0000
0000
0000
0000
0000
1030
0000
0000
0000
0000
0000
0000
0000
0000
0000
0000
0000
0000
0000
0000
0000
0000
0000
0000
0000
0000
0000
0000
0000
0000
0000
0000
0000
0000
0000
0000
0000
0000
0000
0000
0000
0000
0000
0000
0000
0000
0000
0000
0000
0000
0000
0000
0000
1100
0000
0000
0000
0000
0000
0000
0000
0000
0000
0000
0000
0000
0000
0000
0000
0000
0000
0000
0000
0000
0000
0000
0000
0000
0000
0000
0000
0000
0000
0000
0000
0000
0000
0000
0000
0001
0000
0000
0000
0000
0000
4000
0000
0000
0000
0000
0000
,
0004
0000
0000
3003
0100
0000
0000
0000
;

//---------------dance-single - DDRDAIKENKAI----------------
#NOTES:
     dance-single:
     DDRDAIKENKAI:
     Hard:
     6:
     0.366,0.354,0.287,0.322,0.054:
0000
0000
0000
0000
,
0000
0000
0000
0000
0000
0000
0000
1000
,
0001
0000
1000
0000
0010
0000
0001
0010
,
1000
0000
0001
0010
1000
0000
0010
0000
,
0100
0000
0010
0000
0001
0000
0010
0001
,
0100
0001
0010
0100
2000
0000
3000
0001
,
2000
0000
3002
0000
0203
0000
1300
0100
,
0002
0000
1003
0100
0002
0000
0203
0000
,
0320
0000
0230
0000
2300
0000
3100
1000
,
0010
1000
0100
0010
0002
0000
0003
0000
,
2200
3300
0012
1003
,
1200
0000
0000
0000
0000
0000
0000
0000
0000
0000
0000
0000
0000
0000
0000
0000
0000
0000
0000
0000
0000
0000
0000
0000
0000
0000
0000
0000
0000
0000
0000
0000
0000
0000
0000
0000
0000
0000
0000
0000
0000
0000
0000
0000
0000
0000
0000
0000
0000
0000
0000
0000
0000
0000
0000
0000
0000
0000
0000
0000
0000
0000
0000
0000
0310
0000
0000
0000
0000
0000
0000
0000
0000
0000
0000
0000
0000
0000
0000
0000
0000
0000
0000
0000
0001
0000
0000
0000
0000
0000
0000
0000
0000
0000
0000
0000
0000
0000
0000
0000
0000
0000
0000
0000
0000
0001
0000
0000
0000
0000
0000
0000
0000
0000
0000
0000
0000
0000
0000
0000
0000
0000
0000
0000
0000
0000
0001
0000
0000
0000
0000
0000
0000
0000
0000
0000
0000
0000
0000
0000
0000
0000
0000
0000
0000
0000
0000
0000
0000
0000
0000
0000
0000
0000
0000
0000
0000
0000
0000
0000
0000
0000
0000
0000
0000
0000
0000
0000
0001
0000
0000
0000
0000
0000
0000
0000
0000
0000
0000
0000
0000
0000
0000
0000
0000
0000
0000
0000
0000
0000
0000
0000
,
1000
0000
0000
0000
0000
0010
0100
0000
0000
0000
0000
0000
0001
0000
0000
0100
0000
0000
1000
0000
0000
0100
0000
0000
,
0010
0000
0000
0000
0000
0000
0000
0000
0000
0000
0000
0000
0000
0000
0000
0000
1000
0000
0000
0000
0000
0000
0000
0000
0001
0000
0000
0000
0000
0000
0000
0000
0010
0000
0000
0000
0000
0000
0000
0000
0000
0000
0000
0000
0000
0100
0000
0000
0000
0000
0000
0000
0000
0000
0000
0000
1000
0000
0000
0000
0000
0000
0000
0000
,
0000
0000
0000
0000
0000
0000
0000
0000
0000
0000
0000
0000
0000
0000
0000
1000
0000
0000
0000
0000
0000
0000
0000
0000
0000
0000
0000
0000
0000
0000
0000
0000
0001
0000
0000
0000
0000
0000
0000
0000
0000
0000
0000
0000
0000
0000
0000
0000
0200
0000
0000
0000
0000
0000
0000
0000
0000
0000
0000
0000
0000
0000
0000
0000
0000
0000
0000
0000
0000
0000
0000
0000
0000
0000
0000
0000
0000
0000
0000
0000
0000
0000
0000
0000
0000
0000
0000
0000
0000
0000
0000
0000
0000
0000
0000
0000
0301
0000
0000
0000
0000
0000
0000
0000
0000
0000
0000
0000
0000
0000
0000
0000
0000
0000
0000
0000
0000
0000
0000
0000
0000
0000
0000
0000
0000
0000
0000
0000
0000
0000
0000
0000
0000
0000
0000
0000
0000
0000
0000
0000
0000
0000
0000
0000
0101
0000
0000
0000
0000
0000
0000
0000
0000
0000
0000
0000
0000
0000
0000
0000
0000
0000
0000
0000
0000
0000
0000
0000
0000
0000
0000
0000
0000
0000
0000
0000
0000
0000
0000
0000
0000
0000
0000
0000
0000
0000
0000
0000
0000
0000
0000
0000
,
1100
0000
0011
0000
0101
0000
0100
0010
,
0120
0000
1000
0000
0100
0030
1000
0100
,
1100
0000
0011
0000
0101
0000
0001
0010
,
1000
0010
0200
0000
1300
0000
1010
0000
,
0110
0000
0000
0000
0000
0000
0101
0000
0000
0000
0000
0000
1001
0000
0000
0000
0000
0000
0001
0000
0000
1000
0000
1000
,
0200
0000
0010
0000
1300
0000
0010
0100
,
0002
0023
0230
1300
,
1020
1030
1100
0011
,
1000
0010
0100
0001
0010
0100
0010
0001
,
1000
0000
0000
0010
0000
0010
0200
0000
0000
0000
0000
0000
0301
0000
0000
0000
0000
0000
0100
0000
0000
0001
0000
0000
,
0010
0001
0100
0010
1000
0100
0010
0100
,
1000
0000
0000
0001
0000
0001
2000
0000
0000
0000
0000
0000
3020
0000
0000
0000
0000
0000
0032
0000
0000
0000
0000
0000
,
0013
1000
0100
0001
0100
1000
0010
0100
,
0010
0000
0000
1000
0000
1000
0002
0000
0000
0000
0000
0000
1003
0000
0000
0000
0000
0000
0100
0000
0000
0010
0000
0000
,
0001
0100
0100
0001
0020
0000
0130
0000
,
0110
0100
1100
1000
1001
0000
0001
1000
,
0100
0000
1000
0001
0200
0010
0310
0000
,
0110
0010
1010
1000
1001
0000
0001
0010
,
0100
0010
0001
1000
0200
0000
1300
0010
,
0110
0100
0101
0001
1001
0000
1000
0001
,
0100
0000
0001
1000
0200
0010
0310
0000
,
0011
0001
1001
1000
1010
0000
0010
0100
,
0001
0010
1000
0010
0200
0000
1300
0010
,
0001
0010
0200
0000
0301
0000
0101
0000
,
2002
0000
3003
0000
;

//---------------dance-single - DDRDAIKENKAI----------------
#NOTES:
     dance-single:
     DDRDAIKENKAI:
     Medium:
     4:
     0.260,0.283,0.143,0.170,0.000:
0000
0000
0000
0000
,
0000
0000
0000
0000
,
1000
0000
0001
0000
0100
0000
0010
0010
,
0100
0000
0001
0001
1000
0000
0001
0000
,
0010
0000
0100
0000
1000
0000
0010
0010
,
0100
0000
0001
0001
2000
0000
3000
0000
,
0001
0000
1000
0000
0100
0000
0010
0010
,
0100
0000
1000
1000
0100
0000
0010
0000
,
0100
0000
0010
0000
0001
0000
0100
0100
,
0001
0000
0010
0010
0200
0000
0300
0000
,
2000
0000
3002
0003
,
0100
0001
0000
1000
0000
0001
0000
0100
,
0000
0010
0000
0100
0000
0001
0000
1000
,
0000
0100
0000
0010
0000
0001
0000
1000
,
0000
0001
0000
0100
0000
0010
0000
0100
,
0100
0001
0000
1000
0000
0100
0000
1000
,
2000
0000
0000
0000
3000
0000
0001
0001
,
0000
0100
0000
0010
0000
0100
0000
0001
,
0001
1000
0000
0100
0000
0010
0020
0000
,
0031
1000
0000
0001
0000
0100
0000
0010
,
0020
0000
0000
0000
0030
0000
0100
0100
,
0000
0001
0000
1000
0000
0100
0000
1000
,
2000
3000
0012
2003
,
3001
0001
0100
0000
0010
0000
0100
0000
,
0001
0001
2000
0000
3001
0000
1000
0000
,
0100
0100
0010
0000
0100
0000
1000
0000
,
0010
0010
0100
0000
0120
0000
2030
0000
,
3001
0001
1000
0000
0001
0000
0010
0000
,
0001
0001
0020
0000
0031
0000
0100
0100
,
0010
0000
1000
1000
0001
0000
1000
0000
,
1100
0000
1001
0000
0101
0000
0001
0001
,
0010
0000
0001
0001
0100
0000
0010
0000
,
0110
0000
1010
0000
1100
0000
0100
0100
,
1000
0000
0001
0001
0200
0000
0310
0000
,
0110
0000
0101
0000
1001
0000
0001
0001
,
1000
0000
0010
0010
1000
0000
0001
0000
,
0011
0000
1001
0000
1100
0000
1000
1000
,
0010
0000
0100
0100
0001
0000
0000
1000
,
2002
0000
3003
0010
,
0220
0000
0330
0000
;

//---------------dance-single - DDRDAIKENKAI----------------
#NOTES:
     dance-single:
     DDRDAIKENKAI:
     Easy:
     3:
     0.237,0.265,0.179,0.278,0.000:
0000
0000
0000
0000
,
0000
0000
0000
0000
,
0001
1000
0001
1000
,
0100
1000
0010
1000
,
0100
0010
0001
0010
,
0100
0010
0002
0003
,
1000
0001
1000
0010
,
0100
0010
1000
0001
,
0100
0001
0010
0001
,
0100
0010
2000
3000
,
2002
3003
0220
0330
,
0010
1000
0001
1000
,
0100
0010
0001
1000
,
0001
0100
0010
1000
,
0001
1000
0100
0010
,
0200
2300
3002
0103
,
0220
0000
0330
0010
,
2000
3001
0010
0100
,
1000
0200
0300
0010
,
0002
0203
0320
1030
,
2002
0000
3003
1000
,
0001
1000
0100
0010
,
0220
0330
0012
2003
,
3001
0001
1000
0100
,
0010
0200
0300
1000
,
0001
1000
0010
0100
,
0010
2000
0001
3001
,
1000
0100
0010
0100
,
0010
0002
1003
0001
,
1000
0100
0100
1000
,
0110
0110
1001
0001
,
0100
0001
0010
0100
,
0110
0110
1001
0001
,
0100
0010
2000
3100
,
0110
0110
1001
0100
,
0010
0100
0001
0010
,
0110
0110
1001
1000
,
0001
0100
0220
0330
,
2002
0000
3003
0000
,
0200
0000
0300
0000
;

//---------------dance-single - DDRDAIKENKAI----------------
#NOTES:
     dance-single:
     DDRDAIKENKAI:
     Beginner:
     1:
     0.134,0.177,0.054,0.116,0.000:
0000
0000
0000
0000
,
0000
0000
0000
0000
,
1000
0000
0001
0000
,
1000
0000
0001
0001
,
0001
0000
0100
0000
,
0010
0010
0020
0030
,
0000
1000
0000
0001
,
0000
1000
0000
0001
,
0000
0100
0000
0010
,
0000
0100
0000
0110
,
0220
0000
0330
0000
,
1000
0000
0001
0000
,
1000
0000
0100
0000
,
0010
0000
0001
0000
,
0100
0000
0001
0000
,
0010
0000
0100
0000
,
2000
0000
3000
0000
,
0001
0000
0100
0000
,
0010
0020
0030
0000
,
1000
0000
0001
0000
,
2000
0000
3000
0000
,
0001
0000
0100
0000
,
0020
0030
0100
0100
,
0100
0100
0100
0100
,
0100
0200
0300
0000
,
0010
0010
0010
0010
,
0010
0020
0030
0000
,
1000
1000
1000
1000
,
1000
2000
3000
0000
,
0001
0000
1000
0000
,
0001
0001
0001
0000
,
1000
0000
0001
0000
,
1000
1000
1000
0000
,
0010
0010
0010
0000
,
0100
0100
0100
0000
,
0010
0000
0100
0000
,
0010
0010
0010
0000
,
1001
1001
1001
0000
,
0200
0000
0300
0000
,
2002
0000
3003
0000
;
