#TITLE:No title;
#SUBTITLE:;
#ARTIST:れをる;
#TITLETRANSLIT:;
#SUBTITLETRANSLIT:;
#ARTISTTRANSLIT:REOL;
#GENRE:DANCEHALL;
#CREDIT:;
#BANNER:No title.png;
#BACKGROUND:No title-bg.png;
#LYRICSPATH:;
#CDTITLE:cdtitle.png;
#MUSIC:No title.ogg;
#OFFSET:-2.577000;
#SAMPLESTART:50.555000;
#SAMPLELENGTH:9.680000;
#SELECTABLE:YES;
#BPMS:0.000000=100.000000
;
#STOPS:
;
#BGCHANGES:0.000=No title.avi=1.000=1=0=0=StretchNoLoop==CrossFade==,
99999=-nosongbg-=1.000=0=0=0 // don't automatically add -songbackground-
;
#KEYSOUNDS:;
#ATTACKS:;

//---------------dance-single - DDRDAIKENKAI + ddrstepper----------------
#NOTES:
     dance-single:
     DDRDAIKENKAI + ddrstepper:
     Challenge:
     9:
     0.656495,0.624242,0.365643,0.249302,1.042913,553.000000,509.000000,44.000000,30.000000,4.000000,0.000000,0.656495,0.624242,0.365643,0.249302,1.042913,553.000000,509.000000,44.000000,30.000000,4.000000,0.000000:
0000
0000
0000
0000
,
0000
0000
0000
0000
,
0001
0000
0001
0010
0000
0010
0001
1000
0010
0000
0010
1000
0000
1000
0001
0100
,
0010
0000
0000
0000
0010
0000
1000
0000
0000
0000
1000
0000
0001
0000
0010
0000
0100
0010
0100
0000
1000
0000
1000
0000
0001
0000
0001
0000
0100
0000
0100
0000
,
0001
0100
0010
0100
0001
0000
1000
1000
0001
0010
0100
1000
0000
1000
0001
1000
,
0001
0100
0001
0100
0010
1000
0010
1000
0001
0010
1000
0010
0001
0000
0011
0010
,
0100
1000
0010
0100
0001
1000
0010
1000
0100
0010
0001
1000
0010
0100
0010
1000
,
0001
1000
0010
1000
0010
0100
0010
0100
0001
0100
0001
0100
0010
1000
0001
0001
,
1000
0100
0001
0000
100M
0100
0001
0000
100M
0100
0010
0001
1000
0010
0200
0000
,
0301
0100
1000
0000
M001
0100
1000
0000
M001
0100
0010
1000
0001
0010
0002
0000
,
1003
0100
0010
0001
0000
0001
1000
0001
1000
0010
0001
0010
0100
0010
0100
0000
,
0001
0000
0001
0100
0000
0100
0010
1000
0001
0010
1000
0010
0100
0010
0001
0002
,
0000
1003
0010
0100
0010
1000
0000
0002
0000
1003
0100
1000
0000
0010
0000
0002
,
0000
0013
1000
0100
1000
0100
0010
0002
0000
0013
0100
0010
0001
0000
0001
0020
,
0000
0130
1000
0100
0010
0001
1000
0020
0000
0130
0001
0010
0100
0000
1000
0020
,
0000
1030
0100
0010
0001
0100
0010
1000
0100
0000
0100
0010
0001
0000
0010
0012
,
0000
1003
0010
0100
0001
0000
0010
0021
0000
0031
1000
0100
1000
0000
0001
0012
,
0000
0013
0100
0010
0000
0010
0100
1000
0100
0010
0100
1000
0001
0000
0001
0020
,
0000
1030
0010
0001
1000
0100
0010
0001
1000
0001
1000
0000
1001
0000
1000
0002
,
0000
0103
1000
0001
0010
0100
1000
0100
0010
1000
0001
0000
0011
0000
1001
0000
,
1010
0000
0000
0110
0000
0000
0010
0100
0001
0000
0101
0000
0001
0010
1000
0010
,
0001
0000
0000
0011
0000
0000
0001
0001
1000
0000
0000
1001
0000
0001
1000
0010
,
0100
0100
0010
0100
0001
0001
0100
0001
1000
0100
0001
0100
0000
0100
1000
0001
,
1000
0100
0010
0001
1000
0010
0100
0001
1000
0010
0100
0010
1000
0000
0001
0000
,
0011
0000
0000
0110
0000
0000
0100
1000
0001
0000
1001
0000
1000
0010
0001
0010
,
1000
0000
0000
1010
0000
0000
1000
0001
0010
0000
0000
0011
0000
0001
1000
0100
,
0010
0000
0001
0010
0001
0001
1000
1000
0001
0100
1000
0100
0010
0100
0001
0001
,
0100
0000
0001
0000
0010
0000
0100
0000
0000
0000
0100
0000
1000
0000
0000
0000
0001
0100
0001
0000
0100
0000
0100
0000
0010
0000
1000
0000
0010
0000
0010
0000
,
1020
0000
0000
1000
0000
0000
0100
0100
0130
0000
0000
0001
0010
0001
0100
0010
,
2010
0000
0000
0001
0000
0000
0100
0100
3100
0000
0000
1100
0000
1000
0100
1000
,
0001
0010
1000
0001
0100
1000
0001
0010
0100
1000
0001
1000
0000
1000
0010
0100
,
1000
0100
0001
1000
0010
0001
0010
1000
0001
1000
0100
1000
0000
0000
0001
0010
,
0012
0000
0000
0010
0000
0000
0100
0100
0103
0000
0000
0001
0010
0100
1000
0001
,
0021
0000
0000
0001
0000
0000
0100
0100
0130
0000
0000
1100
0000
0000
0100
1000
,
0001
0000
0001
0001
0100
0010
1000
1000
0001
0010
0100
0010
0001
0001
1000
1000
,
0001
0010
0100
1000
0000
1000
0010
0000
0120
0000
0130
0000
0210
0000
0310
0000
,
0100
0000
0000
0101
0000
0000
0001
0100
0010
0000
0000
1010
0000
1001
0000
0001
,
1000
0000
0000
1001
0000
0001
0010
0100
1000
0010
0001
0010
0000
0010
0100
0010
,
1000
0000
0000
1010
0000
0000
0010
1000
0001
0000
0000
0011
0000
0110
0000
0100
,
0010
0000
0000
0110
0000
0100
1000
0000
0001
0010
1000
0010
0001
0010
0100
0000
,
1200
0000
0000
1300
0000
1000
0001
0010
0200
0000
0000
0310
0001
0000
1001
0000
,
1020
0000
0000
0230
0000
0301
1000
0100
1000
0000
1100
0000
1001
0000
1010
0000
,
0012
0000
0000
1003
0000
0001
0100
0010
2010
0000
0000
3001
0000
1000
0010
0100
,
0102
0000
0000
1003
0000
0010
1000
0100
2100
0000
3001
0000
0100
0010
1000
0001
,
2002
0000
0000
3003
0000
0000
0000
0000
0000
0000
0000
0000
0000
0000
0000
0000
;

//---------------dance-single - DDRDAIKENKAI----------------
#NOTES:
     dance-single:
     DDRDAIKENKAI:
     Beginner:
     1:
     0.112779,0.146257,0.074791,0.132961,0.000000,95.000000,86.000000,9.000000,16.000000,0.000000,0.000000,0.112779,0.146257,0.074791,0.132961,0.000000,95.000000,86.000000,9.000000,16.000000,0.000000,0.000000:
0000
0000
0000
0000
,
0000
0000
0000
0000
,
0000
0000
0000
0000
,
0000
0000
0000
0000
,
1000
0000
1000
0000
,
0001
0000
0001
0000
,
1000
0000
0001
0000
,
1000
0000
0001
0001
,
0000
0100
0100
0100
,
0000
0010
0010
0010
,
0000
1000
1000
1000
,
0000
0001
0001
0001
,
0001
0000
0001
0000
,
0100
0000
0100
0000
,
0010
0000
0010
0000
,
1000
0000
1000
0000
,
0010
0000
0010
0000
,
0100
0000
0100
0000
,
0001
0000
0001
0000
,
1000
0000
1000
0000
,
2002
0000
3003
0000
,
0220
0000
0330
0000
,
0100
0100
0100
0000
,
0010
0010
0010
0000
,
0220
0000
0330
0000
,
2002
0000
3003
0000
,
1000
1000
1000
0000
,
0001
0001
0001
0000
,
2002
0000
3003
0000
,
0220
0000
0330
0000
,
0100
0100
0100
0000
,
0010
0010
0010
0000
,
0220
0000
0330
0000
,
2002
0000
3003
0000
,
1000
1000
1000
0000
,
0001
0001
0001
0000
,
0001
0000
0100
0000
,
0001
0000
1000
0000
,
0100
0000
0010
0000
,
0001
0000
1000
0000
,
0010
0000
0100
0000
,
0001
0000
1000
0000
,
0001
0000
0100
0000
,
0010
0000
1000
0000
,
1001
0000
0000
0000
;

//---------------dance-single - DDRDAIKENKAI----------------
#NOTES:
     dance-single:
     DDRDAIKENKAI:
     Hard:
     7:
     0.406006,0.403921,0.141271,0.274232,0.328248,342.000000,325.000000,17.000000,33.000000,0.000000,0.000000,0.406006,0.403921,0.141271,0.274232,0.328248,342.000000,325.000000,17.000000,33.000000,0.000000,0.000000:
// measure 0
0000
0000
0000
0000
,  // measure 1
0000
0000
0000
0000
,  // measure 2
1000
0000
0000
1000
0000
0000
0000
0000
0001
0000
0000
0001
0000
0000
1001
0000
,  // measure 3
1000
0000
0001
1000
0000
0000
0001
0000
1000
0000
0100
0000
0010
0000
0001
0000
,  // measure 4
1000
0000
0100
0000
1000
0000
0100
0000
0010
0000
0001
0100
0000
0001
0100
0000
,  // measure 5
0010
0000
1000
0000
0010
0000
1000
0000
0001
0000
0001
0000
0002
0000
0003
1000
,  // measure 6
0100
0010
0001
0100
0010
0001
1000
0100
,  // measure 7
0001
1000
0010
0001
0010
1000
0001
0001
,  // measure 8
0000
0101
0000
1001
1000
0100
1000
1001
,  // measure 9
0000
1010
0000
1001
0001
0100
0001
1001
,  // measure 10
0001
0000
0010
0000
0100
0000
1000
0000
0100
0000
0010
0000
0100
1000
0100
0000
,  // measure 11
0010
0000
0001
0000
0100
0000
0010
0000
1000
0000
0100
0000
1000
0001
2000
0000
,  // measure 12
3010
0000
0000
0010
0000
0000
1000
0001
0010
0000
0000
0010
0000
0001
2000
0000
,  // measure 13
3010
0000
0000
0010
0000
0100
0000
0001
1000
0000
0000
1000
0000
0100
0020
0000
,  // measure 14
0031
0000
0000
0001
0000
0000
0100
0010
1000
0000
0000
1000
0000
0001
0020
0000
,  // measure 15
0031
0000
0000
0001
0000
1000
0100
0000
1000
0000
1000
0000
0001
0000
0001
0010
,  // measure 16
0001
0000
0010
0001
0000
0000
1000
0100
1000
0000
0100
1000
0000
0010
0200
0000
,  // measure 17
0301
0000
1000
0001
0000
0001
0100
0000
0001
0000
1000
0010
0000
0010
2000
0000
,  // measure 18
3100
0000
0100
0010
0000
0000
0001
0100
0010
0000
0010
1000
0000
0001
2000
0000
,  // measure 19
3100
0000
0100
0010
0000
0001
0000
0100
0010
0100
0010
0000
0100
0000
0100
0001
,  // measure 20
0200
0000
0000
0010
0000
0000
0310
0000
1000
0000
0000
1000
0001
0000
0100
0000
,  // measure 21
0020
0000
0000
1000
0000
0000
1030
0000
0100
0000
0010
0000
0001
0000
1000
0000
,  // measure 22
0100
0000
0001
0000
0100
1000
0000
1000
0010
0000
0010
0100
0000
0100
0001
0000
,  // measure 23
0010
0000
1000
0000
0010
0001
0000
0001
0100
0000
0100
0010
0000
0000
0100
0000
,  // measure 24
0020
0000
0000
1000
0000
0000
1030
0000
0100
0000
0000
1000
0001
0000
0010
0000
,  // measure 25
0020
0000
0000
0100
0000
0000
0130
0000
1000
0000
1000
0000
0010
0000
0100
0010
,  // measure 26
0100
0010
1000
1000
0001
0010
0100
0100
,  // measure 27
0010
0001
0100
0010
1010
0100
1001
0010
,  // measure 28
0102
0000
0000
1000
0000
0000
0010
0000
0013
0000
0000
0000
0100
0000
1000
0000
,  // measure 29
1020
0000
0000
0100
0000
0000
1000
0000
2030
0000
0000
3002
0000
0000
0013
0000
,  // measure 30
0100
0000
1000
0000
0100
1000
0000
1000
0001
0000
0001
0100
0000
0100
0010
0000
,  // measure 31
1000
0000
0001
0000
0010
0100
0000
0100
0010
0000
0010
0001
0000
0000
0010
0001
,  // measure 32
0020
0000
0000
0100
0000
0000
0100
0000
0130
0000
0000
0010
0001
0000
0100
0000
,  // measure 33
0002
0000
0000
1000
0000
0000
1000
0000
1003
0000
0010
0000
0100
0000
0001
0100
,  // measure 34
0001
0010
0100
0100
1000
0001
0100
0100
,  // measure 35
0010
1000
0001
0100
0110
0010
1001
1000
,  // measure 36
0002
0000
0000
0013
0000
0000
0100
0000
2000
0000
0000
0000
3002
0000
0000
0000
,  // measure 37
0203
0000
0000
0310
0000
0000
1000
0000
0001
0000
0010
0000
0100
0000
1000
0000
,  // measure 38
0020
0000
0000
1030
0000
0000
0100
0000
0020
0000
0000
0000
0032
0000
0000
0000
,  // measure 39
0203
0000
0000
0310
0000
0000
1000
0000
0002
0000
0000
0000
1003
0000
0000
0000
,  // measure 40
0200
0000
0000
0010
0000
0000
0310
0000
0002
0000
0000
0000
2003
0000
0000
0000
,  // measure 41
3020
0000
0000
0100
0000
0000
0130
0000
0001
0000
1000
0000
0001
0000
0001
0000
,  // measure 42
1000
0000
0000
1100
0000
0000
1000
0000
0001
0000
0000
0011
0000
0000
0001
0000
,  // measure 43
1000
0000
0000
1010
0000
0000
1000
0000
0001
0000
1000
0000
0001
0000
0100
0000
,  // measure 44
0220
0000
0000
0330
0000
0000
0000
0000
0000
0000
0000
0000
0000
0000
0000
0000
;

//---------------dance-single - ----------------
#NOTES:
     dance-single:
     ddrstepper:
     Medium:
     6:
     0.326467,0.385561,0.157891,0.282542,0.141271,275.000000,256.000000,19.000000,34.000000,0.000000,0.000000,0.326467,0.385561,0.157891,0.282542,0.141271,275.000000,256.000000,19.000000,34.000000,0.000000,0.000000:
0000
0000
0000
0000
,
0000
0000
0000
0000
,
0001
0000
0000
0100
0100
0000
0000
0010
,
0010
0000
0000
1000
0000
0000
0001
0000
0010
0000
0100
0000
1000
0000
0001
0000
,
0100
0010
0100
0000
0001
1000
0001
0000
,
0010
0000
0010
0000
0100
0010
0100
0000
,
1000
0100
1000
0000
0001
1000
0001
0000
,
0100
0100
0010
0010
1000
0010
1000
1000
,
0001
0000
0010
0000
1000
0010
0001
0000
,
1000
0000
0010
0000
0001
0010
1000
0000
,
0010
0000
0100
0000
0001
0100
0010
0100
,
0001
0000
1000
0000
0100
0010
0100
1000
,
0001
0001
0001
0000
1000
1000
1000
0000
,
0001
0001
0100
0100
0010
1000
0001
0000
,
1000
1000
1000
0000
0001
0001
0001
0000
,
1000
1000
0100
0100
0010
0001
1000
0001
,
0100
0010
0100
0000
0001
1000
0001
0000
,
0010
0100
1000
0100
0010
0001
1000
0000
,
0001
0001
0100
0100
0010
1000
1010
0000
,
1000
1000
0100
0100
0010
0001
0011
0000
,
2002
0000
3003
0001
1000
0000
0001
0100
,
0220
0000
0000
0000
0330
0000
0100
0000
0010
0000
0000
0100
0000
0000
0010
0000
,
1000
0010
1000
0000
0001
0010
0001
0000
,
1000
0010
0001
0010
0100
0100
0010
1000
,
2002
0000
3003
1000
0001
0000
1000
0100
,
0220
0000
0000
0000
0330
0000
0100
0000
0010
0000
0000
0100
0000
0000
0010
0000
,
0001
0010
0001
0000
1000
0010
1000
0000
,
0001
0010
0100
0010
0220
0330
0022
0033
,
0202
0000
0000
0000
0303
0000
0100
0001
0100
0000
0000
0000
0010
0000
1000
0000
,
2200
0000
0000
0000
3300
0000
0100
1000
0100
0000
0000
0010
0000
0000
0001
0000
,
1000
0000
1000
0000
1001
0000
0000
0000
0001
0000
0001
0100
0000
0010
1000
0000
,
0001
0010
0100
1000
0001
0100
1000
0100
,
0220
0000
0000
0000
0330
0000
0010
0100
0010
0000
0000
0000
1000
0000
0100
0000
,
0220
0000
0000
0000
0330
0000
0010
0100
0010
0000
0000
0100
0000
0000
0010
0000
,
0001
0000
0001
0000
1001
0000
0000
0000
1000
0000
1000
0001
0000
0100
0010
0000
,
1000
0000
1000
0001
0000
0001
0010
0000
0100
1000
0001
0100
0020
0000
2030
0000
,
3002
0000
0000
0013
0000
0000
0000
0000
0020
0000
0000
0130
0000
0000
0000
0000
,
0200
0000
0000
1300
0000
0000
0000
0000
1000
0100
0010
0001
0000
0000
0000
0000
,
2000
0000
0000
3010
0000
0000
0000
0000
0020
0000
0000
0130
0000
0000
0000
0000
,
0200
0000
0000
0301
0000
0000
0000
0000
0001
0100
0010
1000
0001
0000
0000
0000
,
2000
0000
0000
3100
0000
0000
0000
0000
0200
0000
0000
0310
0000
0000
0000
0000
,
0020
0000
0000
0031
0000
0000
0000
0000
0002
0000
0000
1003
0000
0000
0000
0000
,
1000
0000
0000
1010
0000
0000
0000
0000
0001
0000
0000
0011
0000
0000
0000
0000
,
0001
0000
0000
1001
0000
0000
0000
0000
0110
0000
0000
0000
1000
0000
0001
0000
,
2002
0000
0000
3003
0000
0000
0000
0000
0000
0000
0000
0000
0000
0000
0000
0000
;

//---------------dance-single - ----------------
#NOTES:
     dance-single:
     DDRStepper:
     Easy:
     3:
     0.170950,0.201104,0.066481,0.232682,0.000000,144.000000,136.000000,8.000000,28.000000,0.000000,0.000000,0.170950,0.201104,0.066481,0.232682,0.000000,144.000000,136.000000,8.000000,28.000000,0.000000,0.000000:
0000
0000
0000
0000
,
0000
0000
0000
0000
,
0001
0000
1000
0000
,
0010
0000
0100
0000
0001
1000
0001
0000
,
1000
1000
0100
0100
,
0001
0100
1000
1000
,
0001
0100
0001
1000
,
0001
0010
0100
1000
,
0001
0000
0010
0010
,
0001
0000
0100
0100
,
0001
1000
0100
0100
,
1000
0001
0100
0100
,
0010
0000
1000
0000
,
0001
0001
0001
0000
,
0010
0000
0100
0000
,
1000
1000
0001
0001
,
1000
0000
0010
0000
,
1000
0001
0010
0010
,
0001
0000
0010
0000
,
0001
1000
0010
0010
,
0200
0000
0001
0001
,
0302
0000
1000
1000
,
1003
0100
1000
0001
,
1000
0010
0100
0100
,
0002
0000
0010
0010
,
0023
0000
0100
0100
,
0130
1000
0001
1000
,
0010
0100
0001
0001
,
0202
0303
0001
0100
,
2002
3003
1000
0001
,
1000
1000
0100
0100
,
0010
0100
1000
0001
,
2002
3003
1000
0010
,
0220
0330
0100
0001
,
0010
0010
0001
0001
,
1000
0010
0100
0100
,
0200
0000
0001
0000
,
0302
0000
1000
0000
,
2003
0000
0001
0000
,
3002
0000
0023
0230
,
2300
0000
3200
0000
,
2300
0000
3002
0003
,
0202
0000
0000
0000
0000
0303
0000
0000
0220
0000
0000
0000
0000
0330
0000
0000
,
2020
0000
0000
0000
0000
3030
0000
0000
1001
0000
0000
0000
1000
0000
0001
0000
,
1000
0000
0000
0000
;
