#TITLE:Where Are Ü Now;
#SUBTITLE:;
#ARTIST:Pentatonix;
#TITLETRANSLIT:Where Are U Now;
#SUBTITLETRANSLIT:;
#ARTISTTRANSLIT:;
#GENRE:POP-CAPELLA;
#CREDIT:;
#MENUCOLOR:;
#NEWMETERSYSTEM:NO;
#BANNER:Where Are U Now.png;
#BACKGROUND:Where Are U Now-bg.png;
#LYRICSPATH:;
#CDTITLE:CDTitle.png;
#MUSIC:Where Are U Now.ogg;
#OFFSET:-0.001;
#SAMPLESTART:100.275;
#SAMPLELENGTH:14.100;
#SELECTABLE:YES;
#LISTSORT:;
#BPMS:0.000=67.000,80.000=134.000,104.000=67.000,108.000=134.000;
#STOPS:;
#BGCHANGES:0.000=Where Are U Now.avi=1.000=1=0=0,
171.500=Where Are U Now-bg.png=1.000=1=0=1,
99999=-nosongbg-=1.000=0=0=0 // don't automatically add -songbackground-
;
#ATTACKS:;

//---------------dance-single - DDRDAIKENKAI----------------
#NOTES:
     dance-single:
     DDRDAIKENKAI:
     Hard:
     8:
     0.501,0.523,0.143,0.395,0.463: // measure 1
0000
0000
0000
0000
,  // measure 2
0000
0000
0000
0000
,  // measure 3
0000
0000
0000
0000
,  // measure 4
0000
0000
0000
0000
,  // measure 5
0010
0000
0000
1000
0000
0000
0100
0000
0000
0010
0000
0000
0002
0000
0000
0000
0000
0000
0013
0000
0000
0100
0000
0000
2000
0000
0000
0000
0000
0000
3010
0000
0000
0100
0000
0000
0002
0000
0000
0000
0000
0000
2003
0000
0000
0000
3000
0000
,  // measure 6
0000
0000
0000
0000
0000
0000
0000
0000
0000
0000
0000
0000
0000
0000
0000
0000
0002
0000
0000
0000
0000
0000
0000
0000
0000
0000
0000
0100
0000
0000
0000
0000
0200
0000
0000
0000
0000
0000
0303
0000
0000
0000
0000
0000
0000
0000
0000
0000
0010
0000
0000
0000
1000
0000
0000
0000
0010
0000
0000
0000
0000
0000
0000
0000
,  // measure 7
2000
0000
3100
1000
0200
0000
2000
3300
0000
0000
0000
0000
0000
0000
0000
0000
,  // measure 8
0001
0001
0001
2000
3000
0000
0000
0000
0000
0000
0000
0000
,  // measure 9
0010
1000
0100
0010
0100
1000
0010
0100
0001
0010
0001
0010
0200
0000
2300
0000
,  // measure 10
3001
0000
0000
0000
0000
0000
0100
0000
0010
0000
0000
0000
1000
0000
0000
0000
0000
0000
0100
0000
0000
0100
0000
0000
0010
0000
0000
0010
0000
0000
0010
0000
,  // measure 11
0001
1000
0001
0100
0010
0000
0010
1000
0100
0000
0100
0010
0002
0000
2003
0000
,  // measure 12
3010
0000
0000
0000
0000
0000
0010
0000
0001
0000
0010
0000
2000
0000
0000
0000
3001
0000
0010
0000
0000
0100
0000
0000
1000
0000
0010
0100
0000
0001
1000
0000
,  // measure 13
0100
0001
0100
1000
0020
0000
0130
1000
0100
0001
1000
0100
2000
0000
3200
0000
,  // measure 14
1300
0000
0000
0000
1000
0100
0020
0000
0031
0100
0020
0000
2030
0000
0000
3001
,  // measure 15
0010
0001
0100
0010
2000
0000
3001
0010
0001
0100
0010
1000
0200
0000
2300
0000
,  // measure 16
3001
0000
0000
0000
0000
0000
0001
0000
0010
0000
0100
0000
1000
0000
0000
0000
0001
0000
0000
0000
0100
0000
0000
0000
0010
0000
0000
1000
0000
0000
0100
0000
,  // measure 17
2000
0000
0000
3100
0110
0000
0020
0000
0000
0000
0031
0000
0101
0000
0000
0000
,  // measure 18
0020
0000
0000
1030
1001
0000
0020
0000
0000
0000
0031
0000
1001
0000
0000
0000
,  // measure 19
0020
0000
0000
1030
1100
0000
2000
0000
0000
0000
3001
0000
0101
0000
0000
0000
,  // measure 20
0002
0000
0000
0013
0100
1000
0100
0010
0002
0000
0003
0100
0010
1000
0100
1000
,  // measure 21
0010
0001
0010
1000
0010
0001
0020
0000
,  // measure 22
1030
0100
0001
0100
1000
0100
0002
0000
,  // measure 23
0103
1000
0010
1000
0100
1000
0010
0100
,  // measure 24
0002
0000
0000
0000
0013
0000
0100
0000
0010
0000
0100
0000
2000
0000
0000
0001
,  // measure 25
3100
0010
0100
0001
0100
0010
0100
0001
,  // measure 26
1000
0100
1000
0001
1000
0100
0010
0001
,  // measure 27
0100
0000
0000
0000
0000
0000
0000
0000
0000
0000
0000
0000
0000
0000
0000
0000
0010
0000
0000
0000
1000
0000
0000
0000
0100
0000
0000
0000
0010
0000
0000
0000
0002
0000
0000
0000
0000
0000
0000
0000
0000
0000
0000
0000
0103
0000
0000
0000
0001
0000
0000
0000
1000
0001
1000
0000
0001
0000
0000
0000
0100
0000
0000
0000
,  // measure 28
0010
0000
0000
1000
0001
0000
0100
0000
0010
1000
0000
0000
1001
0000
0000
0001
,  // measure 29
1000
0000
0010
0000
0100
0001
0000
0000
0101
0000
0000
0001
0010
0000
0100
0000
,  // measure 30
0010
0000
0000
0010
0001
0000
1000
0000
0010
0100
0000
0000
0110
0000
0000
0100
,  // measure 31
0001
0000
1000
0000
0001
0100
0000
0000
0110
0000
0000
0010
1000
0000
0100
0000
,  // measure 32
1000
0000
0000
0001
1000
0000
0010
0000
1000
0001
0000
0000
1001
0000
0000
0001
,  // measure 33
0010
0000
0001
0000
1000
0001
0000
0000
1001
0000
0000
0001
0100
0000
0010
0000
,  // measure 34
0100
1000
0100
0001
0010
1000
0010
0001
,  // measure 35
1000
0100
1000
0100
1000
0010
0100
0001
0010
0001
0000
0000
,  // measure 36
0102
0000
0000
0000
0103
0000
0010
1000
0100
0000
0100
1000
0002
0000
0000
0000
,  // measure 37
1003
0001
0100
0000
0010
0100
0001
1000
0100
0000
0100
0010
0001
0000
0000
0000
,  // measure 38
2010
0000
0000
0000
3001
0000
0010
0001
0100
0000
0100
0010
2000
0000
0000
0000
,  // measure 39
3001
0010
0100
1000
0010
1000
0100
0010
0001
0000
0100
0001
1000
0100
1000
0000
,  // measure 40
2001
0000
0001
0000
3001
0000
0100
0010
1000
0000
0010
0100
0002
0000
0000
0000
,  // measure 41
1003
0001
0100
0000
1000
0100
0001
1000
0100
0000
0010
0100
1000
0000
0000
0000
,  // measure 42
1002
0000
0100
0000
0103
0000
0010
1000
0100
0000
0100
1000
0020
0000
0000
0000
,  // measure 43
1030
0000
1001
0000
0001
0100
0010
0000
2000
0000
3010
0000
0002
0000
0103
0000
;

//---------------dance-single - DDRDAIKENKAI----------------
#NOTES:
     dance-single:
     DDRDAIKENKAI:
     Easy:
     3:
     0.218,0.271,0.034,0.236,0.000:
0000
0000
0000
0000
,
0000
0000
0000
0000
,
0000
0000
0000
0000
,
0000
0000
0000
0000
,
1000
0000
0001
0000
1000
0000
0100
0100
,
0000
0020
0032
0103
,
0010
0000
1000
0001
0000
0000
0000
0000
,
0100
0000
0000
0000
,
1000
0000
0001
0000
0100
0000
0100
0100
,
0001
1000
0100
0100
,
1000
0000
0010
0000
0001
0000
1000
1000
,
0001
0010
1000
0001
,
1000
0000
0100
0000
0010
0010
0001
0000
,
0100
0000
0010
0010
1000
0000
0001
0000
,
1000
0000
0100
0000
0001
0001
0010
0000
,
0001
0100
1000
0010
,
2000
3010
0200
0301
,
2000
3200
0320
0032
,
2003
3001
0200
0310
,
0200
0302
2003
3200
,
0310
0010
0010
0000
,
0001
0001
0001
0000
,
1000
1000
1000
0000
,
0020
0000
1030
1000
,
2000
0000
3100
0100
,
0020
0000
0031
0001
,
0200
0000
0020
0330
,
1000
1000
1000
1000
,
0001
0001
0001
0001
,
0100
0100
0100
0100
,
0010
0010
0010
0010
,
1000
1000
0010
0010
,
0100
0100
0001
0001
,
1000
0100
0010
0001
,
2000
3020
0230
0301
,
0102
0103
0010
1000
,
0100
0010
0001
1000
,
1200
1300
0010
0100
,
0001
0010
0100
1000
,
1020
1030
0001
0010
,
0001
1000
0100
0010
,
0012
0103
0010
1000
,
0100
0000
0000
0000
0000
0000
0000
0000
0000
0000
0000
0000
0000
0000
0000
0000
0000
0000
0000
0000
0000
0000
0000
0000
0000
0000
0000
0000
0000
0000
0000
0000
0000
0000
0000
0000
0000
0000
0000
0000
0000
0000
0000
0000
0000
0000
0000
0000
0010
0000
0000
0000
0000
0000
0000
0000
0000
0000
0000
0000
0000
0000
0000
0000
0000
0000
0000
0000
0000
0000
0000
0000
0000
0000
0000
0000
0000
0000
0000
0000
0000
0000
0000
0000
0000
0000
0000
0000
0000
0000
0000
0000
0000
0000
0000
0000
0002
0000
0000
0000
0000
0000
0000
0000
0000
0000
0000
0000
0000
0000
0000
0000
0000
0000
0000
0000
0000
0000
0000
0000
0000
0000
0000
0000
0000
0000
0000
0000
0000
0000
0000
0000
0000
0000
0000
0000
0000
0000
0000
0000
0000
0000
0000
0000
2000
0000
0000
0000
0000
0000
0000
0000
0000
0000
0000
0000
0000
0000
0000
0000
0000
0000
0000
0000
0000
0000
0000
0000
3000
0003
0000
0000
0000
0000
0000
0000
0000
0000
0000
0000
0000
0000
0000
0000
0000
0000
0000
0000
0000
0000
0000
0000
;

//---------------dance-single - DDRDAIKENKAI----------------
#NOTES:
     dance-single:
     DDRDAIKENKAI:
     Medium:
     4:
     0.261,0.289,0.042,0.202,0.076:
0000
0000
0000
0000
,
0000
0000
0000
0000
,
0000
0000
0000
0000
,
0000
0000
0000
0000
,
1000
0000
0001
0000
0100
0010
1000
0001
,
0000
0000
0002
0000
2003
0000
3001
1000
,
0100
0010
0001
0100
0000
0000
0000
0000
,
0001
1000
0001
2000
3000
0000
0000
0000
0000
0000
0000
0000
,
0100
0000
1000
0000
0001
0100
1000
0000
,
0100
0000
0001
0000
0000
1000
0100
0000
,
0010
0000
0001
0000
0100
0001
0010
0000
,
0100
0000
1000
0010
0001
0010
1000
0000
,
0001
0100
1000
0100
0001
1000
0100
0000
,
0010
0000
0001
0000
1000
0100
1000
0000
,
0010
0100
0001
0100
0010
1000
0001
0000
,
1000
0100
0010
0001
,
0200
0000
0310
0000
0000
1000
0100
0000
,
0020
0000
0031
0000
0000
0100
0010
0000
,
0200
0000
0301
0000
0000
1000
0100
0000
,
2000
0000
3010
0100
0002
0000
0013
0010
,
0100
1000
0100
1000
,
0010
1000
0010
1000
,
0010
0100
0010
0100
,
0001
0100
0001
0100
,
0001
0001
0100
0100
,
0010
0010
1000
1000
,
2002
0000
3003
0000
,
1000
0000
0000
1000
0000
0000
0001
0000
0000
0001
0000
0000
0100
0000
0000
0100
,
0000
0000
0010
0000
0000
0010
0000
0000
0100
0000
0000
0100
0000
0000
0001
0000
,
1000
0000
0000
1000
0000
0000
0100
0000
0000
0100
0000
0000
0010
0000
0000
0010
,
0000
0000
0001
0000
0000
0001
0000
0000
0010
0000
0000
0100
0000
0000
1000
0000
,
0001
0000
0000
0100
0000
0000
0010
0000
0000
0010
0000
0000
1000
0000
0000
0010
,
0000
0000
0100
0000
0000
0100
0000
0000
0001
0000
0000
0010
0000
0000
0100
0000
,
1000
0000
0000
1000
0000
0000
1000
0000
0001
0000
0010
0000
0002
0000
0000
0000
,
0203
0000
0310
1000
0200
0000
0310
0000
,
0210
0000
0310
0000
0001
1000
0200
0000
,
0301
0000
0100
0000
1000
0001
0100
0000
,
0120
0000
0130
0000
0001
1000
0200
0000
,
1300
0000
0010
1000
0200
0000
0310
0000
,
0210
0000
0310
0000
0001
0010
2000
0000
,
3010
0000
0001
0000
1000
0010
0001
0000
,
0021
0000
1030
0000
0001
0100
2000
0000
,
3100
0000
0001
1000
0200
0000
0020
0330
;
