#TITLE:Trumpet Lights;
#SUBTITLE:feat. Sabrina Antoinette;
#ARTIST:Chris Brown;
#TITLETRANSLIT:;
#SUBTITLETRANSLIT:;
#ARTISTTRANSLIT:;
#GENRE:DANCE;
#CREDIT:;
#BANNER:[Round 1] - Trumpet Lights.png;
#BACKGROUND:[Round 1] - Trumpet Lights-bg.png;
#LYRICSPATH:;
#CDTITLE:;
#MUSIC:[Round 1] - Trumpet Lights.ogg;
#OFFSET:-0.024648;
#SAMPLESTART:48.038483;
#SAMPLELENGTH:14.769226;
#SELECTABLE:YES;
#DISPLAYBPM:130.000000;
#BPMS:0.000000=130.000000
,136.000000=260.001007
,137.000000=130.000000
,140.000000=260.001007
,141.000000=130.000000
,144.000000=260.001007
,145.000000=130.000000
;
#STOPS:25.000000=0.231000,
26.500000=0.231000,
28.000000=0.231000,
29.500000=0.231000,
32.000000=0.231000,
32.500000=0.231000,
136.000000=0.231000,
140.000000=0.231000,
144.000000=0.231000,
150.000000=0.231000,
151.500000=0.231000,
153.000000=0.231000,
154.500000=0.231000,
157.000000=0.231000,
157.500000=0.231000
;
#BGCHANGES:;
#KEYSOUNDS:;
#ATTACKS:;

//---------------dance-single - DDRDAIKENKAI----------------
#NOTES:
     dance-single:
     DDRDAIKENKAI:
     Hard:
     9:
     0.621481,0.791743,0.343066,0.437956,0.485401,596.000000,549.000000,47.000000,60.000000,0.000000,0.000000,0.621481,0.791743,0.343066,0.437956,0.485401,596.000000,549.000000,47.000000,60.000000,0.000000,0.000000:
// measure 0
0000
0000
0000
0000
,  // measure 1
0000
0000
0000
0000
,  // measure 2
0000
0000
0000
0000
,  // measure 3
0000
0000
0000
0000
,  // measure 4
0000
0000
0000
0000
,  // measure 5
0000
0000
0000
0000
,  // measure 6
0200
0300
1001
0200
0300
1001
0020
0030
,  // measure 7
1001
0020
0030
1001
2000
3000
1010
0000
,  // measure 8
1001
0000
0000
1001
0001
0000
1000
0000
0100
0000
1000
0000
0100
0000
1000
0000
0100
0000
0010
0000
0001
0000
0010
0000
,  // measure 9
0001
0000
0000
0000
0010
0000
0000
0000
0001
0000
0000
0000
1000
0000
0000
0000
0000
0000
0000
0000
0000
1000
0000
0000
0001
0000
0000
0000
0000
0000
0100
0000
0000
0000
0000
0000
0001
0000
0000
0000
0000
0000
0000
0000
0000
0001
0000
0000
,  // measure 10
1000
0000
0100
0000
1000
0000
0000
1000
0001
0000
0010
0000
0001
0000
0000
0001
,  // measure 11
1000
0000
0010
0000
1000
0000
0000
0100
0010
0000
0100
0000
1000
0000
0000
0010
,  // measure 12
0100
0000
0010
0000
1000
0000
0000
0001
0010
0000
0001
0000
1000
0000
0000
0001
,  // measure 13
0010
0100
1000
0010
0001
0010
1000
0100
,  // measure 14
0001
0100
2000
0100
3200
0010
0320
0000
,  // measure 15
0130
0000
0000
0000
1000
0100
1000
0000
0001
0010
0001
0000
1000
0000
0001
0000
,  // measure 16
0100
0010
0200
0001
0301
0000
2000
0000
,  // measure 17
3100
0000
0011
0000
1100
0000
1010
0100
,  // measure 18
0001
0000
0010
0000
1100
0000
0000
0000
0100
0010
0000
0000
0012
0000
0000
0000
,  // measure 19
0203
0000
0310
0001
0010
1000
0100
0001
,  // measure 20
0100
1000
1010
0000
0101
0010
0021
0100
,  // measure 21
0230
0000
2300
0000
3020
0000
0000
1030
0100
0000
1000
0000
0010
0000
0000
1000
,  // measure 22
0100
0000
1000
0000
0010
0000
0000
0100
0001
0000
0100
0000
0010
0000
0000
0100
,  // measure 23
0001
0000
0100
0000
0010
0000
0000
1000
0100
0000
0010
0000
0001
0000
0000
1000
,  // measure 24
0010
0000
0000
1000
0000
0000
0001
0000
0100
0000
0001
0000
0100
0000
0001
0000
0100
0000
0010
0000
1000
0000
0010
0000
,  // measure 25
1000
0000
0000
0000
0010
0000
0000
0000
1000
0000
0000
0000
0010
0000
0000
0000
0000
0000
0100
0000
0000
0001
0000
0000
1000
0000
0000
0000
0000
0000
0100
0000
0000
0000
0000
0000
0010
0000
0000
0000
0000
0000
0100
0000
0000
1000
0000
0000
,  // measure 26
0002
0000
0000
1003
0100
0000
1000
0001
0100
0000
0010
0000
0100
0000
0001
1000
,  // measure 27
0200
0000
0000
0310
0100
0000
1000
0010
0100
0000
0001
0000
1000
0000
0001
0100
,  // measure 28
0020
0000
0000
0130
0001
0000
0010
0001
0100
0000
0010
0000
1000
0000
0000
1000
,  // measure 29
0001
0000
0010
0000
0011
0000
0000
0001
0100
0000
0001
0000
0011
0000
0000
0001
,  // measure 30
0100
0000
0001
0000
1001
0000
0000
0001
1000
0000
0100
0000
1001
0000
0000
1000
,  // measure 31
0001
0000
0100
0000
1010
0000
0000
1000
0100
0000
1000
0000
1010
0000
0000
1000
,  // measure 32
0100
0000
1000
0000
1100
0000
0000
0100
0010
0000
0001
0000
0011
0000
0001
0010
,  // measure 33
0100
0000
1000
0000
1020
0000
1030
0001
0020
0000
0031
1000
0020
0000
1030
0001
,  // measure 34
2002
3003
0000
0000
0201
0000
0301
1000
0200
0000
1300
0001
0200
0000
0301
1000
,  // measure 35
2002
3003
0000
0000
0210
0000
0310
1000
0200
0000
0310
0001
0200
0000
0310
1000
,  // measure 36
2200
0000
0000
3300
0000
0000
0000
0000
0000
0000
0000
0000
1000
0000
0000
0000
0001
0000
0000
0000
1000
0000
0000
0000
0001
0000
0000
0000
1000
0000
0000
0000
0001
0000
0000
0000
0100
0000
0000
0000
0010
0000
0000
0000
0100
0000
0000
0000
,  // measure 37
0010
0000
0000
0000
0100
0000
0000
0000
0010
0000
0000
0000
2000
0000
0000
0000
0000
0000
3100
0000
0000
0010
0000
0000
0210
0000
0000
0310
0000
0000
0002
0000
0000
0000
0000
0000
0103
0000
0000
0010
0000
0000
0210
0000
0000
0000
0000
0000
,  // measure 38
0320
0000
1030
0100
2100
3100
0020
0000
0031
0100
0202
0303
0110
0000
0000
0000
,  // measure 39
1010
0000
0000
0000
0000
0000
0010
0000
0000
0000
0000
0000
0202
0000
0000
0303
0000
0000
0102
0000
0103
0000
0000
0000
0010
0000
0000
0000
0100
0000
0000
0000
0010
0000
0000
0000
0100
0000
0000
0000
0010
0000
0000
0000
0100
0000
0000
0000
,  // measure 40
0001
0000
0000
0000
0001
0000
0000
0000
0001
0000
0000
0000
0001
0000
0000
0000
0001
0000
0000
0000
0001
0000
0000
0000
0010
0000
0000
0000
0000
0000
0001
0000
0000
0100
0000
0000
1000
0000
0000
0000
0000
0000
0100
0000
0000
0000
0000
0000
,  // measure 41
0010
0000
1000
0100
0002
0000
0103
0000
0010
0000
0001
1000
0010
0000
0100
0000
,  // measure 42
0010
0000
1000
0001
0020
0000
0031
0000
0100
0000
0001
0010
1000
0000
0010
0000
,  // measure 43
0100
0000
1000
0010
0002
0000
0013
0000
1000
0000
0001
1000
0000
0001
0000
1000
,  // measure 44
0001
0000
1000
0000
0001
0000
0100
0010
0100
0000
0001
0000
0010
0000
1000
0000
,  // measure 45
0001
0100
1000
0010
0001
1000
0100
0001
,  // measure 46
1000
0100
1000
0010
0100
0001
0010
0100
,  // measure 47
1000
0001
0010
0001
0100
1000
0100
0001
,  // measure 48
1000
0100
0010
0001
1000
0100
0001
0100
,  // measure 49
1000
0001
0100
0010
0001
1000
0100
0010
,  // measure 50
1000
0001
0010
0100
0001
1000
0010
0100
,  // measure 51
1000
0001
0200
0310
0020
1030
2000
3001
,  // measure 52
0002
0000
0013
0000
0020
0000
0130
0000
1000
0100
0000
1000
0001
0000
0100
0000
,  // measure 53
0001
0010
0000
0001
1000
0000
0010
0000
1000
0100
0000
1000
0001
0000
0010
0000
,  // measure 54
0001
0100
0000
0001
1000
0000
0010
0000
1000
0100
0000
0100
1000
0000
0010
0000
,  // measure 55
0100
0000
0000
0000
0001
0000
0000
0000
0000
0000
0000
0000
0001
0000
0000
0000
0100
0000
0000
0000
0000
0000
0000
0000
0010
0000
0000
0000
0000
0000
0000
0000
1000
0000
0000
0000
0000
0000
0000
1000
0000
0000
0000
0000
0001
0000
0000
0000
1000
0000
0000
0000
0000
0000
0000
1000
0000
0000
0000
0000
0001
0000
0000
0000
,  // measure 56
1000
0000
0000
0000
0001
0000
0000
0000
1000
0000
0000
0000
0001
0000
0000
0000
1000
0000
0000
0000
0001
0000
0000
0000
0100
0000
0000
0000
0000
0000
0001
0000
0000
0010
0000
0000
0100
0000
0000
0000
0000
0000
1000
0000
0000
0000
0000
0000
,  // measure 57
0010
0000
1000
0100
0010
0000
0001
0000
1000
0000
0010
0100
0001
0000
1000
0000
,  // measure 58
0001
0000
0010
0100
1000
0000
0001
0000
0100
0000
0010
1000
0100
0000
0010
0000
,  // measure 59
0001
0000
0100
0001
0010
0000
0100
0000
1000
0000
0001
0100
0010
0000
1000
0000
,  // measure 60
0001
0000
1000
0010
0100
0000
0100
0000
0002
0000
0000
0000
0000
0000
0000
0000
,  // measure 61
0000
0000
0000
0000
,  // measure 62
0000
0000
0000
0000
,  // measure 63
0000
0000
0000
0000
,  // measure 64
0000
0000
0000
0000
0000
0000
0000
0000
1003
0000
0000
1000
0001
0000
0001
0000
,  // measure 65
0001
0000
0001
0000
0002
0000
0103
0000
0010
0000
0000
0010
1000
0000
1000
0000
,  // measure 66
1000
0000
1000
0000
2000
0000
3100
0000
0110
0000
0000
0100
1100
0000
1000
0000
,  // measure 67
1010
0000
0010
0000
0110
0000
0100
0000
0101
0000
0000
0001
0011
0000
0100
0000
,  // measure 68
1010
0000
0001
0000
1100
0000
0010
0000
0110
0000
0010
1000
0001
0000
0001
0000
,  // measure 69
0001
0000
0001
0000
0002
0000
0013
0000
0100
0000
0100
0010
1000
0000
1000
0000
,  // measure 70
1000
0000
1000
0000
2000
0000
3010
0000
0110
0000
0000
0100
0010
0000
0010
0000
,  // measure 71
0010
0000
0010
0000
0020
0000
0130
0000
1000
0001
0000
0000
0000
0000
0001
1000
,  // measure 72
0000
0000
0000
0000
1000
0100
0000
0000
0000
0000
0000
0000
0000
0000
0000
0000
;

//---------------dance-single - DDRDAIKENKAI----------------
#NOTES:
     dance-single:
     DDRDAIKENKAI:
     Medium:
     6:
     0.416058,0.501004,0.437956,0.277372,0.149635,399.000000,339.000000,60.000000,38.000000,0.000000,0.000000,0.416058,0.501004,0.437956,0.277372,0.149635,399.000000,339.000000,60.000000,38.000000,0.000000,0.000000:
// measure 0
0000
0000
0000
0000
,  // measure 1
0000
0000
0000
0000
,  // measure 2
0000
0000
0000
0000
,  // measure 3
0000
0000
0000
0000
,  // measure 4
0000
0000
0000
0000
,  // measure 5
0000
0000
0000
0000
,  // measure 6
0100
0000
1001
0100
0000
1001
0010
0000
,  // measure 7
1001
0010
0000
1001
1000
0000
1010
0000
,  // measure 8
1001
1001
1000
0000
1000
0000
0001
0000
,  // measure 9
0001
0000
0100
0000
0100
0010
1000
0000
,  // measure 10
1000
0100
0010
0000
0010
0001
0100
0000
,  // measure 11
0100
0000
0001
0000
0010
0000
0000
0010
0100
0000
0000
0000
1000
0000
0000
1000
,  // measure 12
0001
0000
0000
0000
0100
0000
0000
0100
0010
0000
0000
0000
1000
0000
0000
1000
,  // measure 13
0001
0000
1000
0100
0001
0000
0001
0100
,  // measure 14
1000
0020
0230
0302
,  // measure 15
1003
0000
0100
0010
0001
0000
0001
0010
,  // measure 16
0100
2000
3010
0200
,  // measure 17
0301
0101
1100
0101
,  // measure 18
1100
1001
0110
1002
,  // measure 19
0103
1010
1100
0011
,  // measure 20
0101
0110
1001
0110
,  // measure 21
1001
0000
0000
0000
1000
0000
0000
0100
1000
0000
0000
0000
0001
0000
0000
0100
,  // measure 22
0001
0000
0000
0000
1000
0000
0000
0010
1000
0000
0000
0000
0001
0000
0000
0010
,  // measure 23
0001
0000
0000
0000
0100
0000
0000
0100
0010
0000
0000
0000
1000
0000
0000
1000
,  // measure 24
0001
0010
0010
0110
,  // measure 25
0110
0000
0010
0000
0010
0001
0100
0010
,  // measure 26
2000
0000
3001
0000
0001
1000
0010
0100
,  // measure 27
0002
0000
1003
0000
1000
0001
0100
0010
,  // measure 28
2000
0000
0000
0000
3100
0000
1000
0000
0010
0000
0100
0000
0001
0000
0000
0001
,  // measure 29
0010
0011
0011
1100
,  // measure 30
1100
1010
1010
0101
,  // measure 31
0101
1001
1010
1001
,  // measure 32
0011
1001
1100
1001
,  // measure 33
0101
1001
1001
1001
,  // measure 34
1010
1001
1001
1001
,  // measure 35
0101
1001
1001
1001
,  // measure 36
0011
1000
1000
1100
,  // measure 37
1100
0000
1000
0000
1010
0001
0000
0101
,  // measure 38
1000
0000
1100
0001
0000
0011
1000
0000
,  // measure 39
0010
0010
1001
1001
1000
0000
1000
0000
,  // measure 40
0001
0000
1000
0000
0001
0000
1000
0000
0001
0000
1000
0000
0100
0000
0000
0000
0000
0000
0010
0000
0000
0100
0000
0000
,  // measure 41
0010
0001
2000
0000
3010
0000
0100
0010
,  // measure 42
0100
0001
2000
0000
3100
0000
0010
0001
,  // measure 43
0100
0010
2000
0000
3100
0010
0100
0010
,  // measure 44
0001
0000
1000
0000
2000
0000
0000
0000
3001
0000
0000
0001
0100
0000
0000
0000
,  // measure 45
0010
0000
0000
0010
1000
0000
0000
0000
0100
0000
0000
0100
0010
0000
0000
0000
,  // measure 46
0001
0000
0000
0001
1000
0000
0000
0000
0010
0000
0000
0100
0001
0000
0000
0000
,  // measure 47
0010
0000
0000
0100
1000
0000
0000
0000
0010
0000
0000
1000
0100
0000
0000
0000
,  // measure 48
0010
0000
0000
0001
0100
0000
0000
0000
0001
0000
0000
1000
0100
0000
0000
0000
,  // measure 49
1000
0000
0000
0001
0100
0000
0000
0000
0001
0000
0000
1000
0010
0000
0000
0000
,  // measure 50
1000
0000
0000
0001
0010
0000
0000
0000
0100
0000
0000
0100
0010
0000
0000
0000
,  // measure 51
0001
0000
0000
0001
1000
0000
0000
0000
0002
0000
0000
0000
0023
0000
0000
0000
,  // measure 52
0230
0000
0000
0000
2300
0000
0000
0000
3001
0000
0000
0100
0010
0000
0010
0000
,  // measure 53
1000
0000
0000
0100
0010
0000
0010
0000
0001
0000
0000
1000
0010
0000
0010
0000
,  // measure 54
0100
0000
0000
0001
1000
0000
1000
0000
0100
0000
0000
0010
0001
0000
0001
0000
,  // measure 55
0100
0000
0000
0010
1000
0000
1000
0000
0001
0000
0000
0000
0001
0000
0000
0000
,  // measure 56
0001
1000
0001
1000
0001
1000
0002
0000
0000
0203
0000
0000
,  // measure 57
2300
3200
0302
0023
,  // measure 58
0230
2300
3020
0032
,  // measure 59
0023
2030
3200
0320
,  // measure 60
0032
0203
0302
0000
,  // measure 61
0000
0000
0000
0000
,  // measure 62
0000
0000
0000
0000
,  // measure 63
0000
0000
0000
0000
,  // measure 64
0000
0000
0000
0000
1003
0000
0010
0010
,  // measure 65
0010
0010
0020
0000
0130
0000
0001
0001
,  // measure 66
0001
0001
0002
0000
0103
0000
1000
1000
,  // measure 67
1000
1000
2000
0000
3010
0000
0001
0001
,  // measure 68
0001
0000
0001
0000
0002
0000
0000
0000
1003
0000
0000
1000
0001
0000
0000
0000
,  // measure 69
0010
0000
0010
0000
0010
0000
0000
0000
0100
0000
0000
0100
1000
0000
0000
0000
,  // measure 70
0001
0001
0001
0000
0100
0100
0000
0000
,  // measure 71
0010
0010
0000
0000
1000
0000
0000
0001
,  // measure 72
0000
1000
0000
0000
;

//---------------dance-single - DDRDAIKENKAI----------------
#NOTES:
     dance-single:
     DDRDAIKENKAI:
     Easy:
     4:
     0.310740,0.474635,0.372263,0.138686,0.000000,298.000000,247.000000,51.000000,19.000000,0.000000,0.000000,0.310740,0.474635,0.372263,0.138686,0.000000,298.000000,247.000000,51.000000,19.000000,0.000000,0.000000:
// measure 0
0000
0000
0000
0000
,  // measure 1
0000
0000
0000
0000
,  // measure 2
0000
0000
0000
0000
,  // measure 3
0000
0000
0000
0000
,  // measure 4
0000
0000
0000
0000
,  // measure 5
0000
0000
0000
0000
,  // measure 6
0100
0000
1001
0100
0000
1001
0100
0000
,  // measure 7
1001
0100
0000
1001
0100
0000
0100
0000
,  // measure 8
1001
1001
1000
0000
1000
0000
0001
0000
,  // measure 9
0001
1001
1000
1001
,  // measure 10
0001
0101
0100
0101
,  // measure 11
0001
0011
0010
0011
,  // measure 12
0001
1001
1000
1001
,  // measure 13
0001
0010
0001
0100
,  // measure 14
0010
1000
1000
0200
,  // measure 15
0300
0010
0100
1000
,  // measure 16
0010
0100
0100
0020
,  // measure 17
0030
1000
0001
1000
,  // measure 18
0001
0010
0001
0200
,  // measure 19
0300
0001
0010
0100
,  // measure 20
1000
0010
0100
0002
,  // measure 21
1003
0100
0100
0010
,  // measure 22
0010
0001
0001
1000
,  // measure 23
1000
0010
0010
0100
,  // measure 24
0100
0002
0000
2003
,  // measure 25
0000
3100
0100
0100
,  // measure 26
2000
3010
0010
0010
,  // measure 27
0200
0301
0001
0001
,  // measure 28
0020
0130
0010
0001
,  // measure 29
0100
0110
0110
1010
,  // measure 30
1010
1100
1100
0110
,  // measure 31
0110
0011
0011
0101
,  // measure 32
0101
0110
0110
1001
,  // measure 33
1001
1000
1000
1000
,  // measure 34
1001
0001
0001
0001
,  // measure 35
1001
0100
0100
0100
,  // measure 36
0110
0010
0010
0110
,  // measure 37
0110
0000
1000
0000
1001
0001
0000
1001
,  // measure 38
0100
0000
0110
0010
0000
0110
0100
0000
,  // measure 39
0100
0000
0110
0110
1000
0000
1000
0000
,  // measure 40
1001
1001
0001
0001
,  // measure 41
1000
2000
3100
0100
,  // measure 42
0010
0020
0031
0100
,  // measure 43
0001
0020
0130
0100
,  // measure 44
0100
1000
1000
0010
,  // measure 45
0001
0010
1000
0100
,  // measure 46
0010
0001
0100
1000
,  // measure 47
0100
0001
0010
0100
,  // measure 48
1000
0010
0100
0001
,  // measure 49
1000
0100
0010
0001
,  // measure 50
0100
0010
1000
0100
,  // measure 51
0010
0001
0020
0230
,  // measure 52
2300
3020
0130
0100
,  // measure 53
0001
1000
0100
0100
,  // measure 54
1000
0001
0010
0010
,  // measure 55
0100
0100
2000
0000
,  // measure 56
3002
0000
0103
0001
,  // measure 57
1000
0100
0010
0100
,  // measure 58
1000
0001
0100
0010
,  // measure 59
0100
0001
1000
0100
,  // measure 60
0010
0001
2000
0000
,  // measure 61
0000
0000
0000
0000
,  // measure 62
0000
0000
0000
0000
,  // measure 63
0000
0000
0000
0000
,  // measure 64
0000
0000
3001
0001
,  // measure 65
1000
1000
0100
0100
,  // measure 66
1000
1000
1001
1001
,  // measure 67
0110
0110
1001
1001
,  // measure 68
0110
0110
0100
0001
,  // measure 69
1000
0100
0010
0001
,  // measure 70
1000
0010
0100
0000
,  // measure 71
0010
0000
0000
0000
1000
0000
0000
0001
,  // measure 72
0000
1000
0000
0000
;
