#TITLE:鳥の歌;
#SUBTITLE:;
#ARTIST:Lia;
#TITLETRANSLIT:Tori no Uta;
#SUBTITLETRANSLIT:;
#ARTISTTRANSLIT:;
#GENRE:J-TRANCE;
#CREDIT:;
#MENUCOLOR:;
#NEWMETERSYSTEM:NO;
#BANNER:Tori no Uta.png;
#BACKGROUND:Tori no Uta-bg.png;
#LYRICSPATH:;
#CDTITLE:;
#MUSIC:Tori no Uta.ogg;
#OFFSET:-1.966;
#SAMPLESTART:67.600;
#SAMPLELENGTH:17.620;
#SELECTABLE:YES;
#LISTSORT:;
#BPMS:0.000=122.090;
#STOPS:;
#BGCHANGES:;
#ATTACKS:;

//---------------dance-single - DDRDAIKENKAI----------------
#NOTES:
     dance-single:
     DDRDAIKENKAI:
     Easy:
     3:
     0.172,0.195,0.008,0.225,0.000: // measure 1
0000
0000
0000
0000
,  // measure 2
0000
0000
0000
0000
,  // measure 3
0000
0000
0000
0000
,  // measure 4
0000
0000
0000
0000
,  // measure 5
2000
0000
3000
0000
,  // measure 6
0002
0000
0003
0000
,  // measure 7
0200
0000
0300
0000
,  // measure 8
0020
0000
0000
0030
,  // measure 9
1000
0000
1000
0000
,  // measure 10
0001
0000
0001
0000
,  // measure 11
0200
0000
0000
0000
,  // measure 12
0300
0000
0001
0000
,  // measure 13
0002
0000
0003
0000
,  // measure 14
1000
0000
0100
0000
,  // measure 15
2000
0000
0000
0000
,  // measure 16
0020
0000
0000
3030
,  // measure 17
0002
0000
0000
0000
,  // measure 18
0200
0000
0000
0000
,  // measure 19
0303
0000
0001
1000
,  // measure 20
0001
0000
1000
0100
,  // measure 21
1000
0000
0010
0000
,  // measure 22
0100
0000
0001
0010
,  // measure 23
0001
0000
0100
0000
,  // measure 24
0010
1000
0010
0000
,  // measure 25
2000
0000
3001
0001
,  // measure 26
0200
0000
0000
0001
,  // measure 27
0301
1000
0001
0000
,  // measure 28
0001
0001
1000
0100
,  // measure 29
2000
0000
3020
0000
,  // measure 30
0230
0000
0301
0001
,  // measure 31
1000
1000
2000
0000
,  // measure 32
3001
0001
0001
0100
,  // measure 33
0100
0010
1000
0001
,  // measure 34
1000
1002
0000
0003
,  // measure 35
1000
0100
0020
0000
,  // measure 36
0031
1000
0010
0100
,  // measure 37
0001
0010
0002
0000
,  // measure 38
1003
1000
1000
0001
,  // measure 39
0100
0010
2000
0000
,  // measure 40
3001
0010
0100
0010
,  // measure 41
0001
0100
0010
0000
,  // measure 42
1000
0100
1000
0010
,  // measure 43
0001
0010
2000
0000
,  // measure 44
3001
0010
0100
0010
,  // measure 45
0100
0010
0002
0000
,  // measure 46
1003
0001
0100
0001
,  // measure 47
0100
0010
2000
0000
,  // measure 48
3010
1000
0100
1000
,  // measure 49
0020
0000
0000
0000
,  // measure 50
2000
0000
3030
0001
,  // measure 51
0002
0000
0000
0000
,  // measure 52
0020
0000
0000
0000
,  // measure 53
0033
0000
0000
0000
;

//---------------dance-single - DDRDAIKENKAI----------------
#NOTES:
     dance-single:
     DDRDAIKENKAI:
     Challenge:
     9:
     0.569,0.629,0.050,0.250,0.484:
0000
0000
0000
0000
,
0000
0000
0000
0000
,
0000
0000
0000
0000
,
0000
0000
0000
0000
0000
0001
0100
0010
,
2000
0000
0000
3001
0010
0100
0010
0001
,
0200
0000
0000
0310
1000
0100
0010
0100
,
2000
0000
0000
3002
0000
0203
0300
0000
,
0001
0010
0100
1000
0001
0100
0010
1000
0100
0010
0001
0100
0010
1000
0010
1000
,
0100
0000
1000
0000
0100
0000
1000
0001
0000
0000
1000
0000
0001
0100
0001
0000
,
0100
0000
0001
0100
1000
0100
0001
0010
,
0100
0000
1000
0000
0100
0000
1000
0001
0000
0000
1000
0000
0010
0000
0100
0010
,
0100
0010
0100
0002
1000
1003
0100
0010
,
0100
0000
1000
0000
0001
0000
0100
0010
0000
0000
0100
0000
0001
0000
0010
0100
,
1000
0000
1000
0010
0001
0100
0001
0040
,
2030
0000
0001
0000
3001
0100
0000
0100
0010
0000
0010
1000
0000
1000
0001
1000
,
0001
1000
0000
0100
1000
0000
0100
0010
0000
0001
0100
0010
1000
0001
2000
0000
,
3001
0010
0000
0001
0100
0000
0010
0100
0000
0010
1000
0000
0010
0100
0000
0010
,
0100
0001
0100
0000
0010
1000
0000
0001
0100
0001
0100
0010
0000
0010
0100
0000
,
0120
0000
0000
1030
0001
0000
0001
1000
0001
0000
1000
0000
0100
0000
0010
0100
,
0010
0000
0000
0010
0001
0000
0100
0010
0100
0010
1000
0000
0001
0000
1000
0100
,
1000
0000
0000
1000
0001
0000
0100
0010
0100
0000
0010
0000
1000
0000
0001
0100
,
0001
0000
0010
0000
0002
0000
0013
0100
0010
0100
0000
0100
1000
0000
0001
0000
,
1001
0000
0000
1000
0001
0000
0100
0010
0100
0000
0010
0000
1000
0000
0001
0100
,
0001
0000
0000
0010
0001
0000
0100
0010
0100
0000
0001
0000
0100
0000
0010
0000
,
0110
0000
1020
0000
1030
0100
1000
0010
,
0100
0010
0100
0001
0010
0001
0100
0010
1000
0100
1000
0100
0010
0001
0010
0001
,
1000
0000
0100
0000
0010
0000
0001
1000
0000
0100
0010
0000
0100
0000
1000
0000
,
0001
0000
0010
0000
0100
0000
1000
0001
0000
0010
0001
0000
0100
0000
0010
0000
,
1000
0000
0010
0000
0100
0000
0001
0010
0000
0100
1000
0000
0001
0000
0100
0000
,
0001
0000
0100
0000
0010
0000
1000
0000
0100
0000
0000
1000
0001
0000
0100
0010
,
0100
0000
0010
0000
0100
0000
0001
1000
0000
0010
1000
0000
0100
0000
0001
0000
,
0100
0000
1000
0000
0001
0000
0010
0001
0000
1000
0100
0000
0010
0000
0001
0000
,
2000
0000
0010
0000
3010
0000
0100
0001
0000
0100
0010
0000
0100
0000
0004
0000
,
0013
0000
0000
0000
1100
0000
0002
0000
1000
0000
1003
0000
1000
0100
1000
0100
,
0020
0000
0000
0000
0130
0000
0100
0020
0000
0000
0130
0000
1000
0000
0100
0000
,
2000
0000
3010
0001
0010
1000
0100
0001
,
0200
0000
0000
0000
1300
0000
0010
0200
0000
0000
0310
0000
1000
0000
0001
0010
,
0100
1000
0100
0002
0000
0103
1000
0001
,
0020
0000
0000
0000
0031
0000
0001
2000
0000
0000
3001
0000
0100
0000
0010
0000
,
1000
0100
0001
1000
0010
0001
0100
1000
,
0001
0000
0000
0010
0000
0000
1000
0000
0000
0000
0001
0000
0010
0000
0001
0000
,
0100
0000
0010
0000
1000
0010
0000
0010
1000
0001
1000
0001
0100
0001
0100
0000
,
0120
0000
0000
0000
1030
0000
0001
0100
0001
0000
0010
0000
0100
0000
1000
0001
,
2000
0000
3010
0100
0010
0001
0010
1000
,
0200
0000
0000
0000
0301
0000
0100
1000
0100
0000
0010
0000
0100
0000
1000
0001
,
1000
0001
0100
2000
0000
3100
0001
1000
,
0010
0000
1000
0000
0100
0000
1000
0001
1000
0000
0010
0000
0100
0000
0001
0000
,
0200
0000
0310
1000
0001
0100
1000
0100
,
0002
0000
1000
0000
1003
0100
0000
1000
0001
0000
0100
0000
0010
1000
0000
0100
,
2000
0000
0010
0000
3010
0000
0100
0001
0000
0010
0000
0100
0010
0000
0001
1000
,
0001
1000
0000
1000
0100
1000
0000
1000
0001
1000
0100
0010
0100
0000
0100
0010
,
0100
0000
0100
1000
0001
0100
0010
0100
0001
1000
0001
1000
0010
0100
0010
0100
,
0001
0000
0000
0000
;

//---------------dance-single - DDRDAIKENKAI----------------
#NOTES:
     dance-single:
     DDRDAIKENKAI:
     Hard:
     6:
     0.400,0.390,0.017,0.542,0.004:
0000
0000
0000
0000
,
0000
0000
0000
0000
,
0000
0000
0000
0000
,
0000
0000
0000
0000
0000
0100
0010
0100
,
0002
0000
0000
0000
0003
1000
0100
1000
,
0020
0000
0000
0000
0030
1000
0001
0010
,
0200
0000
0000
1300
,
0002
0000
0000
0203
0000
0310
1000
0100
,
0020
0000
0031
1000
0020
0000
0000
0000
,
1030
0000
0001
0100
0001
0100
0010
1000
,
0020
0000
1030
0100
2000
0000
3001
0010
,
0100
0000
0010
0002
0000
0103
0010
1000
,
0020
0000
1030
0100
2000
0000
3001
0100
,
0010
0000
1000
0100
0010
0001
0100
0010
,
2000
0000
0000
0000
,
0020
0000
3030
0001
,
0002
0000
0000
0000
,
0200
0000
0000
0303
,
0020
0000
1030
1000
0100
0010
0001
0100
,
0001
0000
0010
0100
0000
0010
0001
1000
,
0100
0000
1000
0000
0001
0100
0010
1000
,
0010
0100
0002
0000
2003
0000
3200
0000
,
1300
0000
0001
0010
0100
0010
0001
1000
,
0100
1000
0001
0200
0000
0310
1000
0100
,
2000
0000
3001
0000
0001
0100
0010
1000
,
0020
0000
0230
0000
0301
0010
0100
0010
,
0001
1000
0001
1000
0020
0000
1030
0001
,
1000
0002
0203
2300
,
3020
0000
0031
0010
2000
0000
3100
1000
,
0200
0000
0310
0001
0100
1000
0000
0000
,
0200
0000
0301
0010
0002
0000
1003
1000
,
0010
0010
0100
0100
0001
0000
1000
0100
,
2000
0000
3001
0100
0010
1000
0100
0010
,
0001
0000
1002
2000
0003
3001
0100
0010
,
0200
0000
0310
1000
0020
0000
1030
0100
,
2000
0000
3001
0010
0100
1000
0001
1000
,
0200
0000
0310
0001
0200
0000
0310
1000
,
0100
1000
0010
0002
0000
0013
1000
0100
,
2000
0000
3001
0010
0200
0000
0310
0001
,
0100
0000
0010
0010
1000
1000
0001
0100
,
0010
0000
0000
1000
0000
0000
0200
0000
0000
0000
1300
0000
0010
0000
0100
0000
,
0002
0203
0320
2030
,
3002
0000
1003
0100
2000
0000
3001
0010
,
0100
0000
0010
0001
0100
1000
0100
0001
,
0200
0000
0310
1000
0200
0000
1300
0010
,
0100
0001
0010
0200
0000
1300
0001
0100
,
0020
0000
1030
0100
0020
0000
0031
0010
,
0100
0000
1000
0010
0001
0010
1000
0001
,
0020
0000
0032
0000
2003
0000
3100
1000
,
0002
0000
0203
0000
0310
1000
0200
0000
,
2300
0000
3002
0000
0013
0100
0010
0001
,
0200
0000
0310
1000
0100
1000
0001
1000
,
1001
0000
0000
0000
;

//---------------dance-single - DDRDAIKENKAI----------------
#NOTES:
     dance-single:
     DDRDAIKENKAI:
     Medium:
     4:
     0.249,0.282,0.025,0.183,0.000:
0000
0000
0000
0000
,
0000
0000
0000
0000
,
0000
0000
0000
0000
,
0000
0000
0000
0000
,
0000
0000
0000
0000
,
0000
0000
0000
0000
,
0000
0000
0000
0000
,
0000
0000
0000
2000
0000
3001
0100
0001
,
0200
0000
0310
1000
0020
0000
0000
0000
,
0030
0000
1000
0100
1000
0100
2000
0000
,
3002
0000
0103
0010
0200
0000
0000
0000
,
0300
0000
0000
0020
0000
1030
0010
1000
,
0020
0000
1030
0001
2000
0000
0000
0000
,
3000
0000
0001
0100
0001
0100
0001
0100
,
0002
0000
0000
0000
,
0020
0000
0033
1000
,
2000
0000
0000
0000
,
0200
0000
0000
0000
,
3300
0000
0000
0001
0100
0000
0010
1000
,
0010
0000
1000
0000
0100
0000
0010
0001
,
0010
0000
0001
0000
0100
0001
0100
0000
,
0010
1000
0100
0001
,
1000
0000
0001
0100
0001
0000
0100
0000
,
0010
0000
1000
0010
1000
0000
0100
0000
,
0010
0010
0001
0001
,
0100
0100
1000
1000
,
0010
1000
0010
1000
0020
0000
0000
0000
,
1030
0001
0100
0010
,
0100
0000
0001
1000
0001
0000
0000
0000
,
1000
0000
0100
0010
0100
0010
0000
0000
,
0001
0010
0001
0010
0002
0000
0003
0000
,
1000
0100
1000
0100
2000
0000
3000
0000
,
0010
0100
0001
1000
,
1001
2200
0000
3300
,
1001
0000
0001
0100
0001
0000
0100
0000
,
0010
0000
1000
0100
1000
0000
0010
0000
,
0100
0000
0001
0010
0001
0000
0100
0000
,
0010
0000
1000
0000
0010
0100
0010
0100
,
0010
0000
1000
0001
1000
0000
0001
0000
,
0100
0010
1000
0100
,
0010
0000
0001
0000
0100
0000
0001
0010
,
0001
0010
0100
1000
,
0001
0000
0100
0001
0100
0000
0010
0000
,
1000
0000
0100
0000
0010
0000
0001
0100
,
0001
0000
0010
0100
0010
0000
0001
0000
,
0100
0000
0010
0000
1000
0100
1000
0100
,
1000
0000
0010
0100
0010
0000
1000
0000
,
0001
0000
1000
0100
1000
0100
1000
0100
,
2000
0000
0000
0000
0000
0000
0000
0001
,
0002
0000
3003
0100
,
0200
0000
0000
0000
,
0020
0000
0000
0000
,
0330
0000
0000
0000
;

//---------------dance-single - DDRDAIKENKAI----------------
#NOTES:
     dance-single:
     DDRDAIKENKAI:
     Beginner:
     1:
     0.117,0.173,0.008,0.042,0.000:
0000
0000
0000
0000
,
0000
0000
0000
0000
,
0000
0000
0000
0000
,
0000
0000
0000
0000
,
0000
0000
0000
0000
,
0000
0000
0000
0000
,
0000
0000
0000
0000
,
0000
0000
0000
0000
,
1000
0000
0000
0000
,
0001
0000
0000
0000
,
0100
0000
0000
0000
,
0100
0000
0000
0000
,
0010
0000
0000
0000
,
0010
0000
0000
0000
,
2000
0000
0000
0000
,
3000
0000
0000
0001
,
0002
0000
0000
0000
,
0003
0000
0000
0000
,
0000
0100
0000
0100
,
0000
0010
0000
0010
,
0000
1000
0000
1000
,
0000
0001
0001
0001
,
0000
1000
0000
1000
,
0000
0010
0000
0010
,
0010
0000
1000
1000
,
1000
0000
0001
0001
,
0001
0001
0001
0000
,
1000
1000
1000
0000
,
0001
0000
0100
0000
,
0010
0000
0100
0000
,
0010
0010
0010
0000
,
1000
1000
1000
0000
,
0010
0000
1000
0000
,
0100
0200
0000
0300
,
1000
1000
1000
0000
,
0001
0001
0001
0000
,
0100
0100
0100
0000
,
0010
0010
0010
0000
,
1000
0000
0010
0000
,
0100
0100
0100
0000
,
0001
0001
0001
0000
,
1000
1000
1000
1000
,
1000
0000
0001
0000
,
0100
0100
0100
0000
,
0010
0010
0010
0000
,
1000
1000
1000
0000
,
0001
0000
0010
0000
,
0100
0100
0100
0000
,
2000
0000
0000
0000
,
3000
0000
0000
0001
,
0002
0000
0000
0000
,
0003
0000
0000
0000
,
1001
0000
0000
0000
;
