#TITLE:TORA TORA TORA;
#SUBTITLE:;
#ARTIST:DOMINO;
#TITLETRANSLIT:;
#SUBTITLETRANSLIT:;
#ARTISTTRANSLIT:;
#CREDIT:;
#BANNER:;
#BACKGROUND:;
#LYRICSPATH:;
#CDTITLE:CDTitle.png;
#MUSIC:TORA TORA TORA.ogg;
#OFFSET:-0.030;
#SAMPLESTART:43.600;
#SAMPLELENGTH:12.400;
#SELECTABLE:YES;
#DISPLAYBPM:155;
#BPMS:0.000=148.000,12.000=77.500,14.000=155.000;
#STOPS:49.000=0.774
;
#BGCHANGES:;

//---------------dance-single - ----------------
#NOTES:
     dance-single:
     :
     Easy:
     4:
     0.304,0.332,0.107,0.094,0.000:
0000
0000
0000
0000
,
0000
0000
0000
0000
,
0000
0000
0000
0000
,
0000
0000
1000
0001
,
1000
0001
0100
0010
,
1000
0001
1000
0100
,
0010
0001
1000
0010
,
0100
0001
0100
0010
,
0100
0010
0100
0100
,
0010
0010
1000
0001
,
1000
0001
1000
1000
,
0001
0001
1001
0001
,
1000
0110
1000
1000
,
2200
0000
3300
1000
,
0001
0100
0010
0110
,
0010
0010
1000
1000
,
0020
0030
0100
0100
,
2002
0000
3003
1000
,
0100
0010
0001
1001
,
1000
0010
0100
0000
,
0001
0010
0100
0000
,
1000
0100
1000
0000
,
0010
1000
0100
0000
,
1000
0010
0100
0000
,
0001
0010
0100
0000
,
1000
1000
0001
0001
,
1000
0001
1000
0001
,
1001
0001
0001
0000
,
0001
1000
0100
0010
,
0001
0001
0001
0000
,
0010
0100
1000
0010
,
0100
0100
0100
0000
,
0010
1000
0001
1000
,
0010
0010
0010
0000
,
1000
0010
0100
0001
,
1000
1000
0001
0001
,
1000
0001
1000
0001
,
0100
0100
0010
0010
,
0100
0010
0100
0010
,
1000
0010
0100
0001
,
1000
0100
0010
0001
,
1000
0001
0100
0010
,
1000
0001
1000
0001
,
2002
0000
0000
0000
,
0000
0000
0000
0000
,
0000
3003
0000
0000
0000
0000
0000
0000
0000
0000
0000
0000
0000
0000
0000
0000
0000
0000
0000
0000
0000
0000
0000
0000
0000
0000
0000
0000
0000
0000
0000
0000
0000
0000
0000
0000
0000
0000
0000
0000
0000
0000
0000
0000
0000
0000
0000
0000
0000
0000
0000
0000
0000
0000
0000
0000
0000
0000
0000
0000
0000
0000
0000
0000
0000
0000
0000
0000
0000
0000
0000
0000
0000
0000
0000
0000
0000
0000
0000
0000
0000
0000
0000
0000
0000
0000
0000
0000
0000
0000
0000
0000
0000
0000
0000
0000
0000
0000
0000
0000
0000
0000
0000
0000
0000
0000
0000
0000
0000
0000
0000
0000
0000
0000
0000
0000
0000
0000
0000
0000
0000
0000
0000
0000
0000
0000
0000
0000
0000
0000
0000
0000
0000
0000
0000
0000
0000
0000
0000
0000
0000
0000
0000
0000
0000
0000
0000
0000
0000
0000
0000
0000
0000
0000
0000
0000
0000
0000
0000
0000
0000
0000
0000
0000
0000
0000
0000
0000
0000
0000
0000
0000
0000
0000
0000
0000
0000
0000
0000
0000
0000
0000
0000
0000
0000
0000
0000
0000
0000
0000
0000
0000
;

//---------------dance-single - ----------------
#NOTES:
     dance-single:
     :
     Medium:
     6:
     0.425,0.422,0.067,0.054,0.013:
0000
0000
0000
0000
,
0000
0000
0000
0000
,
0000
0000
0000
0000
,
0000
0000
0010
1000
,
0001
1000
0100
0000
1000
0000
0010
0000
,
0100
0001
0010
0000
0001
0000
1000
0000
,
0010
1000
0100
0000
0010
0000
0100
0000
,
1000
0010
0100
0000
0001
0000
0010
0000
,
0001
1000
0010
0000
1000
0000
0010
0000
,
0100
0001
0010
0000
0100
0000
1000
0000
,
0010
1000
0100
0000
0010
0000
0001
0000
,
1000
0100
1000
0100
0010
0100
0010
0100
,
0010
0100
0000
0000
1000
0100
1000
0000
,
0010
0000
0000
0000
0010
0000
0000
0010
0000
0000
0100
0000
0000
0000
0001
0000
,
0000
1000
0000
0001
0000
1000
0100
0000
,
1000
0010
1000
0000
0001
1000
0001
0000
,
0010
0001
0010
0000
0100
0010
0100
0000
,
1000
0000
0000
0000
1000
0000
0000
1000
0000
0000
1000
0000
0000
0000
0010
0000
,
0000
0100
0000
0001
0000
1000
0001
0000
,
0100
0001
0100
0000
0010
1000
0010
0000
,
1000
0001
1000
0000
0100
1000
0100
0000
,
0010
0001
0010
0000
0001
1000
0001
0000
,
0010
0001
0010
0001
0100
0001
0100
0000
,
0010
1000
0010
0000
1000
0001
1000
0000
,
0100
1000
0100
0000
1000
0010
1000
0010
,
0000
1000
0001
1000
0000
1001
0000
0011
,
0000
0001
0100
0010
0000
2002
3003
0000
,
1000
0100
1000
0100
1000
0001
0000
1000
,
0000
0010
0100
0000
0001
1000
0001
0000
,
0010
0001
0010
0001
0010
0001
0000
1000
,
0000
0001
0000
0010
0000
0001
0000
0000
,
1000
0001
1000
0001
1000
0100
0000
0010
,
0000
0001
0100
0000
0001
0010
0001
0000
,
1000
0010
1000
0010
1000
0010
0000
0100
,
0000
0010
0000
0100
0000
0001
1000
0000
,
1001
0000
0010
0000
0100
0001
0010
0000
,
0100
0000
1000
0000
0010
1000
0100
0000
,
0010
0000
0001
0000
1000
0001
0100
0000
,
0010
0000
0100
0000
0001
1000
0100
0000
,
0010
0000
0100
0000
1000
0010
0100
0000
,
0001
0000
0010
0000
0100
1000
0001
0000
,
0100
0000
0001
0000
1000
0010
0100
0000
,
0010
0000
1000
0000
0001
1000
0100
0000
,
2200
0000
0000
0000
,
0000
0000
0000
0000
,
3300
0000
0000
0000
;

//---------------dance-single - ----------------
#NOTES:
     dance-single:
     :
     Hard:
     7:
     0.557,0.573,0.094,0.013,0.094:
0000
0000
0000
0000
,
0000
0000
0000
0000
,
0000
0000
0000
0000
,
0000
0000
0000
0000
0010
1000
0100
0010
,
0001
0000
1000
0000
0100
0010
0000
0000
0001
0000
1000
0000
0001
0000
0010
0000
,
0001
1000
0100
0010
0001
0010
0100
1000
,
0001
0000
0010
0000
0100
1000
0000
0000
0100
0000
1000
0000
0010
0000
0100
0000
,
0001
0010
0001
0100
0010
1000
0001
0100
,
0010
0000
0100
0000
0001
0010
0000
0000
0100
0000
1000
0000
0001
0000
0100
0000
,
1000
0100
0001
0010
0001
0100
0010
1000
,
0100
0000
0010
0000
0001
0100
0000
0000
0010
0000
0100
0000
0001
0000
1000
0000
,
0010
0000
1000
0000
0001
0100
0001
0100
0001
0000
0010
0000
0100
0000
1000
0000
,
0010
1000
0100
0000
0010
0001
1000
0100
,
0010
0000
0000
0000
0010
0000
0000
0010
0000
0000
0010
0000
0100
0000
0010
0000
,
0000
0010
0001
0100
0000
0100
0001
0000
,
1000
0001
1000
0001
0100
0001
0100
0001
,
0010
0001
0010
0001
0010
0001
0100
0010
,
1000
0000
0000
0000
1000
0000
0000
1000
0000
0000
1000
0000
0100
0000
0010
0000
,
0000
0010
0100
1000
0000
1000
0001
0000
,
0001
0100
0001
0100
0010
0100
0010
0000
,
1000
0100
1000
0100
0010
0100
0010
0000
,
0001
1000
0001
1000
0100
1000
0100
0000
,
1000
0001
1000
0001
0100
0001
0100
0000
,
0010
0100
0010
0100
0001
1000
0001
0000
,
0100
0010
0100
0010
1000
0001
1000
0000
,
0011
0000
1010
0000
0001
1000
0001
0000
,
1000
0100
1000
0100
0000
0100
1000
0000
,
0001
0010
0001
0010
0001
1000
0000
0001
,
0000
0001
1000
0010
0100
0001
1000
0000
,
0010
0100
0010
0100
0010
0100
0000
0110
,
0000
1010
0000
0011
0000
0110
0000
0000
,
0001
1000
0001
1000
0001
1000
0000
0010
,
0000
0010
0100
0001
0010
0100
1000
0000
,
0001
1000
0001
1000
0001
1000
0000
1001
,
0000
0010
0001
0100
0000
0100
0010
0000
,
1000
0000
0100
0000
1000
0000
0010
0000
0100
0000
0001
0000
0010
0001
0000
0000
,
0010
0001
0010
0100
0010
0001
0010
0100
,
1000
0000
0010
0000
0100
0000
0010
0000
1000
0000
0100
0000
1000
0010
0000
0000
,
1000
0010
0100
0010
1000
0010
0100
0001
,
0010
0000
0100
0000
1000
0000
0010
0000
0100
0000
0001
0000
1000
0100
0000
0000
,
1000
0010
1000
0010
1000
0100
1000
0100
,
0010
0000
0001
0000
1000
0000
0100
0000
0010
0000
0001
0000
1000
0100
0000
0000
,
1000
0000
0001
0000
0010
0000
0100
0000
1000
0000
0010
0000
1000
0001
1000
0001
,
0200
0000
0000
0000
,
0000
0000
0000
0000
,
0300
0000
0000
0000
;

//---------------dance-single - Optional Stepchart----------------
#NOTES:
     dance-single:
     Optional Stepchart:
     Challenge:
     10:
     0.840,0.814,0.482,0.161,0.636: // measure 1
0000
0000
0000
0000
,  // measure 2
0000
0000
0000
0000
,  // measure 3
0000
0000
0000
0000
,  // measure 4
0020
0000
0032
0000
2003
0000
3200
0300
0200
0000
2300
0000
3002
0000
2003
0000
3010
0000
0000
0000
1000
0000
0000
0000
0010
0000
0000
0000
0100
0000
0000
0000
,  // measure 5
0001
0010
0100
1000
0100
0010
0000
0000
0010
0001
0100
0010
1000
0001
1000
0010
,  // measure 6
0100
0001
0010
0001
0100
0010
1000
0100
1000
0000
0010
0000
0100
0000
0001
0000
,  // measure 7
0010
0100
1000
0100
0010
0001
0000
0000
0001
0100
0010
0100
0001
0010
0100
1000
,  // measure 8
0010
0100
0010
1000
0100
0010
0100
1000
0010
0000
0100
0000
0001
0000
0010
0000
,  // measure 9
0100
1000
0100
0010
0001
0100
0000
0000
0001
0010
0100
1000
0001
0100
0010
1000
,  // measure 10
0010
0100
0001
1000
0100
0010
0001
1000
0010
0000
1000
0000
0001
0000
0010
0000
,  // measure 11
0001
0100
0010
1000
0001
1000
0000
0000
0001
0010
0001
0100
0001
0010
0001
0100
,  // measure 12
0010
1000
0100
1000
0010
1000
0010
1000
0010
0000
1000
0000
0001
0000
0100
0000
,  // measure 13
0010
0000
0000
0000
0000
0000
0000
0000
1000
0000
0000
0000
0000
0000
0000
0000
1100
MM00
0000
0000
0000
0000
0000
0000
0000
0000
0000
0000
0000
0000
0000
0000
0001
0000
0000
0000
0000
0000
0000
0000
0010
0000
0000
0000
0000
0000
0000
0000
0001
0000
0000
0000
0000
0000
0000
0000
0010
0000
0000
0000
0000
0000
0000
0000
,  // measure 14
M021
0000
0M00
0000
010M
0000
0M00
0130
M000
0000
1000
0000
0001
0000
0100
0000
,  // measure 15
0000
0100
0001
0010
0000
0010
0100
0000
,  // measure 16
1000
0001
1000
0001
0010
0001
0010
0001
,  // measure 17
1000
0010
1000
0010
1000
0010
0100
0001
,  // measure 18
M201
0000
00M0
0000
001M
0000
00M0
0310
M000
0000
0010
0000
1000
0000
0100
0000
,  // measure 19
0000
0100
1000
0010
0000
0010
1000
0000
,  // measure 20
0001
0010
0100
1000
0010
1010
1010
0010
,  // measure 21
0100
0001
0010
0001
0100
0101
0101
1001
,  // measure 22
0001
0010
1000
0010
0001
1001
1001
0010
,  // measure 23
1000
0100
0010
0100
1000
0010
0100
0001
,  // measure 24
1001
0001
1000
0100
0010
1001
1001
0001
,  // measure 25
0010
1000
0010
0001
0100
0001
1000
0001
,  // measure 26
0011
0001
1001
0010
1100
0101
1100
0010
,  // measure 27
1001
0110
1001
0110
0010
1100
0101
0001
,  // measure 28
1001
0010
1000
0010
0100
0001
0010
0001
,  // measure 29
0100
0010
1000
0100
0001
0100
1100
0000
,  // measure 30
1001
0001
0100
0010
1000
0100
0010
1001
,  // measure 31
0001
0101
0100
0110
0010
1010
0010
0100
,  // measure 32
1001
0001
0010
0100
0010
0001
1000
0100
,  // measure 33
0010
0001
0010
0100
1000
0001
0011
0000
,  // measure 34
1010
0010
0100
0010
1000
0100
0010
2001
,  // measure 35
0001
3001
0010
1000
0010
0001
1000
0000
,  // measure 36
1001
0000
0001
0000
0010
0000
0001
0000
0100
0010
1000
0010
0100
0001
0000
0000
,  // measure 37
0001
0010
0100
1000
0001
0100
0010
1000
0100
0010
0001
1000
0010
0100
0001
0010
,  // measure 38
0100
0000
1000
0000
0001
0000
0100
0000
0001
0010
0001
0100
0010
1000
0000
0000
,  // measure 39
1000
0010
0100
0001
0010
0100
1000
0100
0010
0100
1000
0010
0100
0001
0010
0001
,  // measure 40
0100
0000
0010
0000
1000
0000
0100
0000
1000
0010
1000
0010
0100
0010
0000
0000
,  // measure 41
0100
0001
0010
0001
0100
0001
0010
0001
0100
0010
1000
0100
1000
0010
0100
0001
,  // measure 42
0010
0000
0100
0000
1000
0000
0010
0000
1000
0100
0010
0001
1000
0010
0000
0000
,  // measure 43
0100
0010
1000
0001
0100
0010
1000
0001
0010
0001
0100
0010
1000
0001
1000
0001
,  // measure 44
0020
0000
0000
0000
,  // measure 45
0000
0000
0000
0000
,  // measure 46
0030
0000
0000
0000
;

//---------------dance-single - Stays with Oni----------------
#NOTES:
     dance-single:
     Stays with Oni:
     Beginner:
     2:
     0.207,0.241,0.040,0.027,0.000:
0000
0000
0000
0000
,
0000
0000
0000
0000
,
0000
0000
0000
0000
,
0000
0000
0010
0010
,
0010
0000
0100
0100
,
0100
0000
0001
0001
,
0001
0000
1000
1000
,
1000
0000
0001
0000
,
1000
0000
0010
0000
,
0100
0000
0010
0000
,
1000
0000
0001
0000
,
1000
0000
1001
0000
,
0010
0000
1000
0000
,
0001
0001
0001
0000
,
0100
0100
0100
0000
,
1001
0000
0001
0000
,
0010
0000
0001
0000
,
1000
1000
1000
0000
,
0100
0100
0100
0000
,
1000
0000
0010
0000
,
0100
0000
0001
0000
,
1000
0000
0001
0000
,
0100
0000
0010
0000
,
1000
1000
1000
0000
,
0010
0010
0010
0000
,
0100
0000
0010
0000
,
1000
0000
0001
0000
,
0010
0010
0010
0000
,
0100
0100
0100
0000
,
0001
0001
0001
0000
,
1000
1000
1000
1000
,
1000
1000
1000
0000
,
0100
0100
0100
0000
,
1000
1000
1000
0000
,
0010
0010
0010
0000
,
1000
0000
0100
0000
,
0010
0000
0001
0000
,
0010
0000
0100
0000
,
1000
0000
0001
0000
,
0100
0100
0100
0000
,
0001
0001
0001
0000
,
1000
1000
1000
0000
,
0010
0010
0010
0000
,
2002
0000
0000
0000
,
0000
0000
0000
0000
,
0000
0000
3003
0000
0000
0000
0000
0000
0000
0000
0000
0000
0000
0000
0000
0000
0000
0000
0000
0000
0000
0000
0000
0000
0000
0000
0000
0000
0000
0000
0000
0000
0000
0000
0000
0000
0000
0000
0000
0000
0000
0000
0000
0000
0000
0000
0000
0000
0000
0000
0000
0000
0000
0000
0000
0000
0000
0000
0000
0000
0000
0000
0000
0000
0000
0000
0000
0000
0000
0000
0000
0000
0000
0000
0000
0000
0000
0000
0000
0000
0000
0000
0000
0000
0000
0000
0000
0000
0000
0000
0000
0000
0000
0000
0000
0000
0000
0000
0000
0000
0000
0000
0000
0000
0000
0000
0000
0000
0000
0000
0000
0000
0000
0000
0000
0000
0000
0000
0000
0000
0000
0000
0000
0000
0000
0000
0000
0000
0000
0000
0000
0000
0000
0000
0000
0000
0000
0000
0000
0000
0000
0000
0000
0000
0000
0000
0000
0000
0000
0000
0000
0000
0000
0000
0000
0000
0000
0000
0000
0000
0000
0000
0000
0000
0000
0000
0000
0000
0000
0000
0000
0000
0000
0000
0000
0000
0000
0000
0000
0000
0000
0000
0000
0000
0000
0000
0000
0000
0000
0000
0000
0000
;
