#TITLE:SO DEEP;
#SUBTITLE:~K.O.G.G3 MIX~;
#ARTIST:SILVERTEAR;
#TITLETRANSLIT:;
#SUBTITLETRANSLIT:;
#ARTISTTRANSLIT:;
#CREDIT:;
#BANNER:SO DEEP KOGG3 MIX-bn.png;
#BACKGROUND:SO DEEP KOGG3 MIX-bg.png;
#LYRICSPATH:;
#CDTITLE:CDTitle.png;
#MUSIC:SO DEEP ~K.O.G.G3 Mix~.ogg;
#OFFSET:-0.100;
#SAMPLESTART:50.200;
#SAMPLELENGTH:11.200;
#SELECTABLE:YES;
#BPMS:0.000=170.000;
#STOPS:;
#BGCHANGES:;

//---------------dance-single - ----------------
#NOTES:
     dance-single:
     :
     Hard:
     9:
     0.628,0.623,0.174,0.041,0.501: // measure 1
0000
0000
0000
0000
,  // measure 2
0000
0000
0000
0000
,  // measure 3
0010
0000
0010
0100
0001
0000
0101
0000
,  // measure 4
0010
0000
0010
0100
1000
0000
1100
0000
,  // measure 5
1000
0000
1000
0001
0010
0000
0011
0000
,  // measure 6
0001
0000
0001
1000
0010
0000
1010
0000
,  // measure 7
1000
0000
1000
0001
0100
0000
1001
0000
,  // measure 8
0001
0000
0001
1000
0010
0000
1001
0000
,  // measure 9
0100
0000
0100
0010
1000
0000
0110
0000
,  // measure 10
0110
0000
0110
1001
,  // measure 11
1000
0100
0000
0001
0000
0010
0000
0100
,  // measure 12
0000
1000
0000
0001
0000
0100
0000
0010
,  // measure 13
0000
1000
0000
0001
0000
1000
0000
0001
,  // measure 14
0000
1000
0000
0010
0000
1000
0000
0010
,  // measure 15
0000
1100
0000
0001
0000
0100
0000
0010
,  // measure 16
0000
0101
0000
0010
0000
1000
0000
0001
,  // measure 17
0000
1010
0000
0100
0000
0011
0000
1000
,  // measure 18
0000
0101
0000
0010
0000
1100
0000
0010
,  // measure 19
0100
0000
0001
0000
0000
1000
0000
0000
0100
0000
0000
1000
0000
0000
0001
0000
,  // measure 20
1000
0000
0000
0001
0000
0000
1000
0000
0100
0000
0000
1000
0000
0000
0001
0000
,  // measure 21
0000
0000
0010
0000
0000
0100
0000
0000
1000
0000
0000
0001
0000
0000
0010
0000
,  // measure 22
0000
0001
0000
0000
0100
0000
0000
0010
0000
0000
1000
0000
0100
0000
0010
0000
,  // measure 23
0001
0000
0010
0000
0000
0100
0000
0000
1000
0000
0000
0001
0000
0000
0100
0000
,  // measure 24
0010
0000
0000
1000
0000
0000
0010
0000
0100
0000
0000
0001
0000
0000
0100
0000
,  // measure 25
0000
0000
0010
0000
0000
1000
0000
0000
0001
0000
0000
0100
0000
0000
0010
0000
,  // measure 26
0000
1000
0000
0000
0100
0000
0000
0010
0000
0000
0001
0000
0010
0000
0100
0000
,  // measure 27
1000
0000
0001
0000
0000
1000
0100
0000
1000
0000
0000
0010
0000
0000
1000
0000
,  // measure 28
0001
0000
0010
0001
0000
0010
0001
0000
0100
0000
0010
1000
0000
1000
0100
1000
,  // measure 29
0000
0000
0001
0000
0000
1000
0000
0000
0010
0000
0000
0100
0000
0000
0001
0000
,  // measure 30
0000
0010
0000
0000
0100
0000
0000
1000
0000
0000
0010
0000
1000
0000
0100
0000
,  // measure 31
0010
0000
0001
0000
0000
1000
0001
0000
1000
0000
0000
0001
0000
0000
1000
0000
,  // measure 32
1000
0000
0010
0100
0000
0010
0100
0000
0010
0000
1000
0100
0000
1000
0100
1000
,  // measure 33
0000
0000
0001
0000
0000
0010
0000
0000
1000
0000
0000
0100
0000
0000
0010
0000
,  // measure 34
0000
0001
0000
0000
0010
0000
0000
0001
0000
0000
0100
0000
0010
0000
0200
0000
,  // measure 35
0020
0000
0000
0000
,  // measure 36
0000
0000
0000
0000
0330
0000
0000
0000
1000
0001
0000
1000
0001
0000
0000
1000
,  // measure 37
0000
0000
0010
0000
0100
0000
0001
0000
0010
0100
0000
0010
0100
0000
0000
1000
,  // measure 38
0000
0000
0001
0000
1000
0000
0010
0000
1000
0100
0000
1000
0100
0000
0000
0010
,  // measure 39
0000
0000
0001
0000
1000
0000
0001
0000
0100
0001
0000
0100
0001
0000
0000
0010
,  // measure 40
0000
0000
0001
0000
0100
0000
0010
0000
1000
0001
0000
1000
0001
0000
0000
1000
,  // measure 41
0000
0000
0010
0000
0100
0000
0010
0000
1000
0100
0000
1000
0100
0000
0000
0010
,  // measure 42
0000
0000
0001
0000
1000
0000
0010
0000
0100
0001
0000
0100
0001
0000
0000
0010
,  // measure 43
0000
0000
0001
0000
0100
0000
0010
0000
1000
0001
0000
1000
0001
0000
0000
1000
,  // measure 44
0000
0000
1000
0000
0100
0000
0010
0000
0001
0010
0000
0001
0010
0000
0100
0010
,  // measure 45
0000
0000
0100
0000
1000
0000
0010
0000
1000
0100
0000
1000
0100
0000
1000
0001
,  // measure 46
0000
0000
1000
0000
0010
0000
0100
0000
0001
0010
0000
0001
0010
0000
0001
0100
,  // measure 47
0000
0000
0001
0000
0010
0000
0001
0000
1000
0010
0000
1000
0010
0000
1000
0100
,  // measure 48
0000
0000
1000
0000
0010
0000
0100
0000
0001
1000
0000
0001
1000
0000
0001
0100
,  // measure 49
0000
0000
0001
0000
0010
0000
0100
0000
1000
0010
0000
1000
0010
0000
1000
0100
,  // measure 50
0000
0000
0010
0000
0001
0000
1000
0000
0001
0100
0000
0001
0100
0000
0001
0100
,  // measure 51
0000
0000
0010
0000
1000
0000
0100
0000
1000
0001
0000
1000
0001
0000
1000
0001
,  // measure 52
0000
0100
0010
1000
0001
1000
0000
0100
,  // measure 53
0000
0010
0001
0100
0000
0010
0000
1000
,  // measure 54
0000
0100
0010
0001
0000
1000
0000
0001
,  // measure 55
0000
1000
0100
0001
0000
0010
0000
0001
,  // measure 56
0000
1000
0100
0010
0000
0001
0000
1000
,  // measure 57
0000
0010
1000
0001
0000
0010
0000
0001
,  // measure 58
0000
0100
0010
1000
0000
0001
0000
1000
,  // measure 59
0000
0010
1000
0100
0000
0010
0000
0001
,  // measure 60
0000
0000
1000
0000
0100
0000
0010
0000
0001
0000
1000
0000
0001
0000
0000
0100
,  // measure 61
0000
0000
0010
0000
1000
0000
0100
0000
1000
0000
0010
0000
0100
0000
0000
0001
,  // measure 62
0000
0000
0010
0000
0100
0000
1000
0000
0100
0000
0010
0000
0001
0000
0000
1000
,  // measure 63
0000
0000
0001
0000
0010
0000
0001
0000
1000
0000
0100
0000
1000
0000
0000
0010
,  // measure 64
0000
0000
0100
0000
0001
0000
0010
0000
0001
0100
0000
0000
0001
0000
0000
1000
,  // measure 65
0000
0000
1000
0000
0100
0000
0010
0000
0001
0100
0000
0000
0001
0000
0000
1000
,  // measure 66
0000
0000
0100
0000
1000
0000
0001
0000
1000
0010
0000
0000
1000
0000
0000
0100
,  // measure 67
0000
0000
0010
0000
0001
0000
1000
0000
0000
0100
0000
0000
0010
0000
0000
0001
,  // measure 68
0000
0000
1000
0000
0001
0000
0100
0000
2002
0000
0000
3003
0000
0000
0000
0000
;

//---------------dance-single - ----------------
#NOTES:
     dance-single:
     :
     Medium:
     6:
     0.441,0.450,0.123,0.041,0.000: // measure 1
0000
0000
0000
0000
,  // measure 2
0000
0000
0000
0000
,  // measure 3
1000
1000
0001
1001
,  // measure 4
0001
0001
1000
1001
,  // measure 5
0010
0010
0100
0110
,  // measure 6
0100
0100
0010
0110
,  // measure 7
1000
0100
0001
1001
,  // measure 8
0001
0100
1000
1001
,  // measure 9
1000
0010
0001
1001
,  // measure 10
1001
0000
0110
1001
,  // measure 11
1000
0100
0000
0001
0000
0100
0000
1000
,  // measure 12
0000
0010
0000
0001
0000
0010
0000
1000
,  // measure 13
0000
0100
0000
0010
0000
0100
0000
0001
,  // measure 14
0000
0100
0000
0010
0000
0100
0000
1000
,  // measure 15
0000
0001
0000
1000
0000
0001
0000
1000
,  // measure 16
0000
0001
0000
0100
0000
0010
0000
1000
,  // measure 17
0000
0001
0000
0100
0000
0010
0000
1000
,  // measure 18
0000
0100
0000
0010
0000
0001
0000
1000
,  // measure 19
0100
0001
0010
0100
,  // measure 20
1000
0001
0100
1000
,  // measure 21
0001
1000
0100
0010
,  // measure 22
0001
0000
0100
0000
0010
0100
0010
0000
,  // measure 23
1000
0001
1000
0001
,  // measure 24
0010
1000
0100
0010
,  // measure 25
0001
1000
0010
1000
,  // measure 26
0100
0000
0010
0000
0001
1000
0001
0000
,  // measure 27
1000
0100
0010
0100
,  // measure 28
1000
0010
0100
0001
,  // measure 29
1000
0100
1000
0010
,  // measure 30
1000
0000
0100
0000
0010
0001
0100
0000
,  // measure 31
0010
1000
0001
0100
,  // measure 32
0010
0100
1000
0100
,  // measure 33
0010
0001
0100
0010
,  // measure 34
1000
0000
0001
0000
1000
0001
0100
0000
,  // measure 35
2002
0000
0000
0000
,  // measure 36
0000
3000
0000
0000
0003
0000
0000
0000
1000
0000
0000
0000
0100
0000
0000
0000
,  // measure 37
0010
0001
0100
0000
0010
0000
0100
0000
,  // measure 38
0001
0100
0010
0000
1000
0000
0100
0000
,  // measure 39
0001
0010
0100
0000
0010
0000
0001
0000
,  // measure 40
0100
0010
1000
0000
0001
0000
0010
0000
,  // measure 41
0100
1000
0001
0000
0010
0000
0001
0000
,  // measure 42
1000
0100
0010
0000
0001
0000
0100
0000
,  // measure 43
0010
1000
0001
0000
0100
0000
0010
0000
,  // measure 44
1000
0100
0010
0000
0001
0000
1000
0000
,  // measure 45
0001
1000
0001
0000
0010
0000
0100
0000
,  // measure 46
0010
0100
0010
0000
0100
0000
1000
0000
,  // measure 47
0001
1000
0001
0000
0100
0000
1000
0000
,  // measure 48
0001
0010
0001
0000
1000
0100
1000
0000
,  // measure 49
0001
0100
0001
0000
1000
0010
1000
0000
,  // measure 50
0001
0010
0001
0000
1000
0100
0010
0000
,  // measure 51
0001
0100
0010
0000
1000
0001
0100
0000
,  // measure 52
0001
1000
0100
0000
1000
0100
0000
0010
,  // measure 53
0000
0001
0000
0100
0000
0010
0000
1000
,  // measure 54
0000
0001
0000
0010
0000
0100
0000
1000
,  // measure 55
0000
0001
0000
0100
0000
0010
0000
1000
,  // measure 56
0000
0001
0100
0001
0000
1000
0000
0100
,  // measure 57
0000
0010
0000
0001
0000
1000
0000
0010
,  // measure 58
0000
0100
0000
0001
0000
1000
0000
0001
,  // measure 59
0000
0100
0000
0001
0000
1000
0000
0010
,  // measure 60
0000
0100
0010
0100
0000
0010
0000
0100
,  // measure 61
0000
1000
0000
0001
0000
0010
0000
0100
,  // measure 62
0000
1000
0000
0001
0000
1000
0000
0010
,  // measure 63
0000
0100
0000
0010
0000
1000
0000
0010
,  // measure 64
0000
0100
0001
0100
0001
0000
1000
0000
,  // measure 65
0100
0010
0001
0100
,  // measure 66
0010
1000
0001
0001
,  // measure 67
0010
0010
0100
0100
,  // measure 68
1000
0000
0000
0000
1000
0000
0000
0000
2002
0000
0000
3003
0000
0000
0000
0000
;

//---------------dance-single - ----------------
#NOTES:
     dance-single:
     :
     Easy:
     4:
     0.358,0.346,0.041,0.082,0.000: // measure 1
0000
0000
0000
0000
,  // measure 2
0000
0000
0000
0000
,  // measure 3
1000
1000
0001
0001
,  // measure 4
1000
0001
1000
0001
,  // measure 5
0100
0100
0010
0010
,  // measure 6
0100
0010
0100
0010
,  // measure 7
1000
0001
1000
0001
,  // measure 8
0100
0010
0100
0010
,  // measure 9
1000
0100
0010
0001
,  // measure 10
1001
0000
1001
0000
,  // measure 11
0000
1000
0000
0100
0000
1000
0000
0100
,  // measure 12
0000
0010
0000
0001
0000
0010
0000
0001
,  // measure 13
0000
1000
0000
0010
0000
1000
0000
0010
,  // measure 14
0000
0100
0000
0001
0000
0100
0000
0001
,  // measure 15
0000
1000
0000
0001
0000
1000
0000
0001
,  // measure 16
0000
0100
0000
0010
0000
0100
0000
0010
,  // measure 17
0000
0001
0000
0001
0000
0010
0000
0010
,  // measure 18
0000
0100
0000
0100
0000
1000
0000
1000
,  // measure 19
0001
0000
1000
0000
,  // measure 20
0001
0000
1000
0000
,  // measure 21
0200
0000
0000
0300
,  // measure 22
2000
0000
0000
3000
,  // measure 23
0001
0001
1000
1000
,  // measure 24
0010
0010
0100
0100
,  // measure 25
1000
0001
1000
0001
,  // measure 26
0100
0010
0100
0010
,  // measure 27
1001
0001
1000
0001
,  // measure 28
0010
0001
0010
0001
,  // measure 29
0100
0001
0100
0001
,  // measure 30
1000
0010
1000
0010
,  // measure 31
1000
0010
0100
0001
,  // measure 32
1000
0100
0010
0001
,  // measure 33
0010
0001
0100
0001
,  // measure 34
0010
0100
1000
0001
,  // measure 35
0200
0000
0000
0000
,  // measure 36
0000
0300
0001
1000
,  // measure 37
0001
0100
0010
1000
,  // measure 38
0100
0010
0100
1000
,  // measure 39
0010
0100
0001
0010
,  // measure 40
0100
1000
0001
0100
,  // measure 41
1000
0010
1000
0100
,  // measure 42
0001
0010
0001
0100
,  // measure 43
0010
1000
0100
0010
,  // measure 44
0001
1000
0001
0010
,  // measure 45
0001
0010
0100
1000
,  // measure 46
0100
1000
0001
0100
,  // measure 47
0001
0100
0010
1000
,  // measure 48
0010
1000
0001
1000
,  // measure 49
0010
0100
0001
1000
,  // measure 50
0001
0100
0010
1000
,  // measure 51
0100
0010
0001
1000
,  // measure 52
0100
0000
0010
0000
0000
0001
0000
1000
,  // measure 53
0000
0001
0000
1000
0000
0010
0000
0100
,  // measure 54
0000
0010
0000
0100
0000
0001
0000
1000
,  // measure 55
0000
0001
0000
1000
0000
0010
0000
0100
,  // measure 56
0000
0010
0000
0100
0000
0001
0000
0010
,  // measure 57
0000
0100
0000
1000
0000
0001
0000
1000
,  // measure 58
0000
0010
0000
0100
0000
0001
0000
1000
,  // measure 59
0000
0100
0000
0010
0000
0001
0000
1000
,  // measure 60
0000
0010
0000
1000
0000
0001
0000
1000
,  // measure 61
0000
0010
0000
0100
0000
0001
0000
1000
,  // measure 62
0000
0100
0000
1000
0000
0010
0000
1000
,  // measure 63
0000
0100
0000
1000
0000
0010
0000
0100
,  // measure 64
0000
0001
0000
1000
0002
0000
0000
0000
,  // measure 65
0000
0003
2000
0000
,  // measure 66
0000
3000
0200
0000
,  // measure 67
0000
0000
0000
0000
,  // measure 68
0000
0000
0000
0000
0300
0000
0000
0000
2002
0000
0000
3003
0000
0000
0000
0000
;

//---------------dance-single - Optional Stepchart----------------
#NOTES:
     dance-single:
     Optional Stepchart:
     Challenge:
     11:
     0.846,0.761,0.102,0.041,0.844: // measure 1
0000
0000
0000
0000
,  // measure 2
0000
0000
0000
0000
,  // measure 3
0001
0000
0000
1000
0001
0000
0100
0000
0010
0000
0000
0000
1001
0000
0000
0000
,  // measure 4
0100
0000
0000
0010
0100
0000
0001
0000
1000
0000
0000
0000
0110
0000
0000
0000
,  // measure 5
1000
0000
0000
1000
0100
0000
0010
0000
0001
0000
0000
0000
0110
0000
0000
0000
,  // measure 6
0001
0000
0000
0001
0010
0000
0100
0000
1000
0000
0000
0000
0110
0000
0000
0000
,  // measure 7
1000
0000
0000
0001
0100
0000
0010
0000
1000
0000
0000
0000
0110
0000
0000
0000
,  // measure 8
0001
0000
0000
1000
0010
0000
0100
0000
0001
0000
0000
0000
0110
0000
0000
0000
,  // measure 9
0100
0000
0000
0001
0010
0000
0100
0000
1000
0000
0000
0000
0110
0000
0000
0000
,  // measure 10
1001
0000
0000
0000
0110
0000
0001
0001
,  // measure 11
0001
1000
0100
1000
0001
1000
0100
1000
,  // measure 12
0010
1000
0001
1000
0010
1000
0100
1000
,  // measure 13
0001
0010
0100
1000
0001
1000
0100
0010
,  // measure 14
0001
1000
0010
1000
0001
1000
0100
0010
,  // measure 15
0001
0010
0001
0010
0100
0010
0001
0100
,  // measure 16
1000
0100
0001
0010
0100
1000
0010
1000
,  // measure 17
0100
0010
0001
1000
0010
0100
0001
0010
,  // measure 18
0100
1000
0001
1000
0010
0100
0001
1000
,  // measure 19
0001
0000
1000
0001
0000
1000
0001
0000
0100
0000
0010
0100
0000
0010
0100
0000
,  // measure 20
0010
0000
1000
0100
0000
1000
0100
0000
1000
0000
0001
0100
0000
0001
1000
0001
,  // measure 21
0000
0000
1000
0000
0000
0100
0000
0000
0010
0000
0000
0001
0000
0000
1000
0000
,  // measure 22
0000
0100
0000
0000
1000
0000
0000
0010
0000
0000
1000
0000
0100
0000
0010
0000
,  // measure 23
0001
0000
0010
0100
0000
0010
0100
0000
1000
0000
0100
1000
0000
0100
1000
0000
,  // measure 24
0100
0000
0010
0100
0000
0010
0100
0000
1000
0000
0100
1000
0000
0100
1000
0100
,  // measure 25
0000
0000
1000
0000
0000
0100
0000
0000
1000
0000
0000
0010
0000
0000
0001
0000
,  // measure 26
0000
1000
0000
0000
0010
0000
0000
0100
0000
0000
0001
0000
1000
0000
0010
0000
,  // measure 27
1000
0000
0010
0100
0000
0010
0100
0000
0001
0000
1000
0100
0000
1000
0100
0000
,  // measure 28
0010
0000
0001
0010
0000
0001
0010
0000
0100
0000
1000
0010
0000
1000
0010
1000
,  // measure 29
0010
0000
1000
0000
0010
0100
0000
0010
1000
0000
0010
0100
0000
0010
1000
0000
,  // measure 30
0100
1000
0000
0100
0010
0000
0100
1000
0000
0100
0010
0000
0100
0000
1000
0000
,  // measure 31
0001
0000
0100
0001
0000
0100
0001
0000
1000
0000
0100
0010
0000
0100
0010
0000
,  // measure 32
0001
0000
0010
0001
0000
0010
0001
0000
1000
0000
0100
1000
0000
0100
1000
0100
,  // measure 33
1000
0000
0010
0000
0100
0010
0000
0100
0001
0000
0100
0001
0000
0100
0010
0000
,  // measure 34
1000
0001
0000
1000
0010
0000
1000
0001
0000
1000
0010
0000
1000
0000
0200
0000
,  // measure 35
0020
0000
0000
0000
,  // measure 36
0000
0000
0000
0000
0001
0000
0330
0000
1000
0100
0000
0100
1000
0000
1000
0001
,  // measure 37
0000
0001
1000
0000
0010
0000
0010
0000
0010
1000
0000
1000
0001
0000
0001
0100
,  // measure 38
0000
0100
0010
0000
1000
0000
1000
0000
1000
0100
0000
0100
1000
0000
1000
0001
,  // measure 39
0000
0001
1000
0000
0010
0000
0010
0000
0010
1000
0000
1000
0001
0000
0001
0100
,  // measure 40
0000
0100
0010
0000
1000
0000
1000
0000
0001
0100
0000
0100
0001
0000
0001
1000
,  // measure 41
0000
1000
0001
0000
0010
0000
0010
0000
0010
0001
0000
0001
1000
0000
1000
0100
,  // measure 42
0000
0100
0010
0000
0001
0000
0001
0000
0001
0100
0000
0100
0001
0000
0001
1000
,  // measure 43
0000
1000
0001
0000
0010
0000
0010
0000
0010
0001
0000
0001
1000
0000
1000
0100
,  // measure 44
0000
0100
0010
0000
0001
0000
0001
0000
1000
0100
0000
1000
0100
0000
1000
0001
,  // measure 45
0000
1000
0001
0000
0100
0000
0010
0000
1000
0010
0000
1000
0010
0000
1000
0001
,  // measure 46
0000
1000
0001
0000
1000
0000
0001
0000
0100
0010
0000
0100
0010
0000
0100
0001
,  // measure 47
0000
0100
0001
0000
0100
0000
0010
0000
1000
0100
0000
1000
0100
0000
0010
0100
,  // measure 48
0000
0010
0100
0000
1000
0000
0100
0000
0010
0001
0000
0010
0001
0000
1000
0001
,  // measure 49
0000
1000
0001
0000
0010
0000
0100
0000
1000
0010
0000
1000
0010
0000
1000
0100
,  // measure 50
0000
1000
0100
0000
0010
0000
0001
0000
0010
0100
0000
0010
0100
0000
0010
0001
,  // measure 51
0000
0010
0001
0000
0100
0000
0010
0000
1000
0010
0000
1000
0010
0000
1000
0100
,  // measure 52
0000
1000
0100
0000
0010
0000
0001
0000
1000
0000
0100
0000
0001
0000
0100
0000
,  // measure 53
1000
0010
0001
0010
1000
0100
0010
0100
,  // measure 54
1000
0010
0100
0010
1000
0100
0010
0001
,  // measure 55
1000
0010
0100
0001
1000
0100
1000
0001
,  // measure 56
1000
0100
1000
0010
0001
0010
1000
0010
,  // measure 57
0001
0100
1000
0100
0001
0010
0100
0010
,  // measure 58
0001
0100
0010
0100
0001
0010
0100
1000
,  // measure 59
0001
0100
0010
1000
0001
0010
0001
1000
,  // measure 60
0001
0000
0010
0000
0001
0000
0100
0000
1000
0010
0000
1000
0010
0000
1000
0010
,  // measure 61
0000
1000
0010
0000
1000
0000
0100
0000
0010
0001
0000
0010
0001
0000
0010
0001
,  // measure 62
0000
0001
0100
0000
0010
0100
0010
0000
1000
0100
0000
1000
0100
0000
1000
0100
,  // measure 63
0000
1000
0100
0000
1000
0000
0001
0000
0100
0010
0000
0100
0010
0000
0100
0010
,  // measure 64
0000
0100
0010
0000
1000
0100
1000
0000
0001
0010
0000
0001
0010
0000
0001
0010
,  // measure 65
0000
0001
0010
0000
0001
0000
1000
0000
0100
0010
0000
0100
0010
0000
0001
1000
,  // measure 66
0000
0001
1000
0000
0001
0000
1000
0000
0100
1000
0000
0100
1000
0000
0100
1000
,  // measure 67
0000
0100
1000
0000
0001
0000
1000
0000
0010
1000
0000
0010
1000
0000
0010
1000
,  // measure 68
0000
0010
1000
0000
0001
0000
1000
0000
2002
0000
0000
3003
0000
0000
0000
0000
;

//---------------dance-single - Optional Stepchart----------------
#NOTES:
     dance-single:
     Optional Stepchart:
     Beginner:
     2:
     0.200,0.277,0.061,0.061,0.000: // measure 1
0000
0000
0000
0000
,  // measure 2
0000
0000
0000
0000
,  // measure 3
1000
0000
1000
0000
,  // measure 4
1000
0000
1000
0000
,  // measure 5
0100
0000
0100
0000
,  // measure 6
0100
0000
0100
0000
,  // measure 7
0001
0000
0001
0000
,  // measure 8
0001
0000
0001
0000
,  // measure 9
0010
0000
0010
0000
,  // measure 10
1001
0000
1001
1001
,  // measure 11
0000
0100
0000
0100
,  // measure 12
0000
0010
0000
0010
,  // measure 13
0000
1000
0000
1000
,  // measure 14
0000
0001
0000
0001
,  // measure 15
0000
1000
0000
0001
,  // measure 16
0000
1000
0000
0001
,  // measure 17
0000
0100
0000
0010
,  // measure 18
0000
0100
0000
0000
,  // measure 19
1001
0000
0100
0000
,  // measure 20
1000
0000
0001
0000
,  // measure 21
0010
0000
0010
0000
,  // measure 22
0010
0000
0010
0000
,  // measure 23
1000
0000
1000
0000
,  // measure 24
1000
0000
1000
0000
,  // measure 25
0001
0000
0001
0000
,  // measure 26
0001
0000
0001
0000
,  // measure 27
0100
0000
0010
0000
,  // measure 28
0100
0000
0010
0000
,  // measure 29
0001
0000
1000
0000
,  // measure 30
0001
0000
1000
0000
,  // measure 31
0010
0000
0100
0000
,  // measure 32
1000
0000
0001
0000
,  // measure 33
0100
0000
0010
0000
,  // measure 34
0001
0000
1000
0000
,  // measure 35
0100
0000
0000
0000
,  // measure 36
0000
0000
1000
0000
,  // measure 37
1000
0000
0001
0000
,  // measure 38
0001
0000
0010
0000
,  // measure 39
0010
0000
0100
0000
,  // measure 40
0100
0000
1000
0000
,  // measure 41
0100
0000
0010
0000
,  // measure 42
0001
0000
1000
0000
,  // measure 43
0010
0000
0100
0000
,  // measure 44
0001
0000
1000
0000
,  // measure 45
0010
0000
0001
0000
,  // measure 46
0100
0000
1000
0000
,  // measure 47
0010
0000
0001
0000
,  // measure 48
0100
0000
1000
0000
,  // measure 49
0100
0000
0001
0000
,  // measure 50
0010
0000
0100
0000
,  // measure 51
1000
0000
1000
0000
,  // measure 52
0001
0001
0000
0100
,  // measure 53
0000
0100
0000
0010
,  // measure 54
0000
0010
0000
0100
,  // measure 55
0000
0100
0000
1000
,  // measure 56
0000
1000
0000
0001
,  // measure 57
0000
0100
0000
0010
,  // measure 58
0000
0001
0000
1000
,  // measure 59
0000
0010
0000
0100
,  // measure 60
0000
0001
0000
1000
,  // measure 61
0000
0100
0000
1000
,  // measure 62
0000
0001
0000
0010
,  // measure 63
0000
0100
0000
1000
,  // measure 64
0000
0000
2002
0000
,  // measure 65
0000
3003
0020
0000
,  // measure 66
0000
0030
2000
0000
,  // measure 67
0000
0000
0000
0000
,  // measure 68
0000
0000
0000
0000
0000
0000
0000
0000
0000
0000
0000
0000
0000
0000
0000
0000
0000
0000
0000
0000
0000
0000
0000
0000
0000
0000
0000
0000
0000
0000
0000
0000
0000
0000
0000
0000
0000
0000
0000
0000
0000
0000
0000
0000
0000
0000
0000
0000
3000
0000
0000
0000
0000
0000
0000
0000
0000
0000
0000
0000
0000
0000
0000
0000
0000
0000
0000
0000
0000
0000
0000
0000
0000
0000
0000
0000
0000
0000
0000
0000
0000
0000
0000
0000
0000
0000
0000
0000
0000
0000
0000
0000
0000
0000
0000
0000
2002
0000
0000
0000
0000
0000
0000
0000
0000
0000
0000
0000
0000
0000
0000
0000
0000
0000
0000
0000
0000
0000
0000
0000
0000
0000
0000
0000
0000
0000
0000
0000
0000
0000
0000
0000
0000
0000
3003
0000
0000
0000
0000
0000
0000
0000
0000
0000
0000
0000
0000
0000
0000
0000
0000
0000
0000
0000
0000
0000
0000
0000
0000
0000
0000
0000
0000
0000
0000
0000
0000
0000
0000
0000
0000
0000
0000
0000
0000
0000
0000
0000
0000
0000
0000
0000
0000
0000
0000
0000
0000
0000
0000
0000
0000
0000
;
