#TITLE:One Night With Bazooka Belly Dancers;
#SUBTITLE:;
#ARTIST:Franz Tornado;
#TITLETRANSLIT:;
#SUBTITLETRANSLIT:;
#ARTISTTRANSLIT:;
#GENRE:;
#CREDIT:;
#MENUCOLOR:;
#BANNER:;
#BACKGROUND:;
#LYRICSPATH:;
#CDTITLE:;
#MUSIC:ONWBBD.ogg;
#OFFSET:-0.040;
#SAMPLESTART:12.000;
#SAMPLELENGTH:12.000;
#SELECTABLE:YES;
#LISTSORT:;
#BPMS:0.000=160.000,224.000=80.000,226.000=160.000,230.000=80.000,232.000=160.000,236.000=80.000,242.000=160.000,262.000=80.000,270.000=160.000;
#STOPS:;
#TICKCOUNT:0.000=2;
#BGCHANGES:;
#KEYSOUNDS:;
#ATTACKS:;

//---------------dance-single - DDRDAIKENKAI----------------
#NOTES:
     dance-single:
     DDRDAIKENKAI:
     Medium:
     6:
     0.409,0.470,0.140,0.280,0.000: // measure 1
0000
0000
0000
0000
,  // measure 2
0000
0000
0000
0000
,  // measure 3
0000
0000
0000
0000
,  // measure 4
0000
0000
0000
0000
,  // measure 5
0000
0000
0000
0000
,  // measure 6
0000
0000
0000
0000
,  // measure 7
0000
0000
0000
0000
,  // measure 8
0000
0000
0000
0000
,  // measure 9
1000
0000
0001
0000
0100
0010
1000
0000
,  // measure 10
0001
0000
1000
0000
0010
0100
0001
0000
,  // measure 11
1000
0000
0001
0000
0010
0100
1000
0000
,  // measure 12
0001
0000
1000
0000
0100
0010
0001
0000
,  // measure 13
1000
0000
0001
0000
0100
0100
0100
0000
,  // measure 14
0010
0000
1000
0000
0001
0001
0001
0000
,  // measure 15
0010
0000
0100
0000
1000
1000
1000
0000
,  // measure 16
2002
0000
0000
3003
,  // measure 17
0001
1000
0001
0100
,  // measure 18
0010
0000
1000
0000
0100
0100
0100
0000
,  // measure 19
1000
0010
0100
0001
,  // measure 20
2000
0000
0001
0000
3001
0000
0001
0100
,  // measure 21
0001
0000
1000
0100
1000
0000
0010
0100
,  // measure 22
0010
0000
1000
0001
1000
0000
0001
0100
,  // measure 23
0001
0000
1000
0001
1000
0000
1001
0000
,  // measure 24
0220
0000
0330
0000
,  // measure 25
1000
0001
0010
0100
,  // measure 26
1000
0001
0000
0000
1000
0000
0001
0100
,  // measure 27
0001
0000
0010
0100
0010
0000
0001
0000
,  // measure 28
0202
0000
0303
0000
,  // measure 29
0010
1000
0001
1000
,  // measure 30
0020
0100
0200
0330
,  // measure 31
2000
3000
0001
0100
,  // measure 32
0202
0000
0303
0000
,  // measure 33
0001
0010
0100
1000
,  // measure 34
0020
1000
2030
3000
,  // measure 35
0010
1000
0001
1000
,  // measure 36
0200
0000
0000
0000
0000
1000
1300
0000
,  // measure 37
0010
1000
0001
0010
,  // measure 38
0002
0100
0200
0303
,  // measure 39
0010
1000
0100
0010
,  // measure 40
2002
0000
3003
0000
,  // measure 41
0001
1000
0001
0000
1000
0001
1000
0000
,  // measure 42
0020
0000
0200
0330
,  // measure 43
1000
0100
0010
0000
0001
1000
0010
0000
,  // measure 44
0200
0000
0000
0000
0000
0010
0310
0000
,  // measure 45
1000
0100
1000
0001
,  // measure 46
2000
0001
0002
3003
,  // measure 47
0010
0100
0010
0001
,  // measure 48
1001
0110
1001
0000
,  // measure 49
0100
0000
0001
0000
1000
0010
1000
0000
,  // measure 50
0010
0000
1000
0000
0001
0100
0001
0000
,  // measure 51
1000
0000
0010
0000
0100
0001
0100
0000
,  // measure 52
0001
0000
0010
0000
0100
1000
0100
0000
,  // measure 53
1000
0010
1000
0000
0001
0100
0001
0000
,  // measure 54
1000
0001
1000
0000
0001
0100
0001
0000
,  // measure 55
1000
0100
1000
0000
0001
1000
0001
0000
,  // measure 56
0220
0000
0000
0330
,  // measure 57
0010
1000
0100
0010
0001
0000
1000
0000
,  // measure 58
0001
0100
0001
0000
0010
0100
1000
0001
,  // measure 59
1000
0000
1000
0000
0010
1000
0001
1000
,  // measure 60
0001
1000
0100
0010
0001
1000
0001
1000
,  // measure 61
0010
0100
0001
0000
2002
0000
0000
0000
,  // measure 62
3003
0000
0110
0010
,  // measure 63
1000
0000
0100
0000
0010
0100
0010
0000
,  // measure 64
0001
0000
1000
0100
1000
0000
0010
1000
,  // measure 65
0010
0000
0100
0001
0200
0000
0000
0000
,  // measure 66
0300
0000
0000
0000
0001
1000
0100
0010
,  // measure 67
0002
0003
2000
3000
0020
0030
0100
0010
,  // measure 68
0200
0300
1001
1001
,  // measure 69
0010
0100
0001
0000
0010
0001
0010
0000
,  // measure 70
0100
1000
0001
0000
1010
0000
1010
0000
,  // measure 71
0010
0100
0001
0000
1000
0001
1000
0001
,  // measure 72
1000
0001
1000
0000
0100
1000
0100
0000
,  // measure 73
0010
0100
0010
0000
0001
0010
0001
0000
,  // measure 74
1000
0001
0100
0000
0001
0100
0001
0000
,  // measure 75
0100
0010
0100
0000
1001
0000
0000
0000
,  // measure 76
0100
0010
0200
0000
0000
0000
0000
0000
,  // measure 77
0000
0300
0000
0000
;

//---------------dance-single - DDRDAIKENKAI----------------
#NOTES:
     dance-single:
     DDRDAIKENKAI:
     Hard:
     8:
     0.593,0.596,0.239,0.263,0.193: // measure 1
0000
0000
0000
0000
,  // measure 2
0000
0000
0000
0000
,  // measure 3
0000
0000
0000
0000
,  // measure 4
0000
0000
0000
0000
,  // measure 5
0001
0010
0100
1000
0001
0100
0010
1000
,  // measure 6
0010
0100
0001
1000
0200
0000
0300
0000
,  // measure 7
1000
0100
0010
0100
1000
0010
0100
0001
,  // measure 8
0010
0100
0010
0001
0200
0000
0300
0000
,  // measure 9
0010
1000
0000
0000
0010
1000
0000
0000
0010
0000
0100
0000
0001
0000
0000
0000
,  // measure 10
0010
0001
0000
0000
0010
0001
0000
0000
0100
0000
0001
0000
1000
0000
0000
0000
,  // measure 11
0100
1000
0000
0000
0100
1000
0000
0000
0010
0000
0100
0000
0001
0000
0000
0000
,  // measure 12
1000
0001
1000
0001
0100
0010
1000
0000
,  // measure 13
0001
0010
0001
0100
0010
1000
0100
0000
,  // measure 14
1000
0000
0010
0000
0001
0000
0010
0000
1000
0001
1000
0001
1000
0000
0000
0000
,  // measure 15
0010
0100
0001
0010
0100
1000
0001
0000
,  // measure 16
0110
0000
0000
0000
0000
0000
0000
0000
1000
0100
1000
0100
1000
0000
0000
0000
,  // measure 17
1001
1000
0100
0010
0001
1000
0100
0000
,  // measure 18
1000
0010
0100
0001
0010
0100
1000
0000
,  // measure 19
0001
1000
0100
0000
1000
0001
0100
0000
,  // measure 20
2001
0000
0001
0000
3001
0000
0010
0001
,  // measure 21
0100
0000
0010
1000
0100
0000
1000
0100
,  // measure 22
0010
0100
1000
0010
0100
0000
0001
0010
,  // measure 23
0100
0000
0010
0001
0100
0000
0110
0000
,  // measure 24
2002
0000
3003
0000
,  // measure 25
1001
0000
1010
0000
1001
1000
0001
0010
,  // measure 26
0001
0100
0001
1000
0001
1000
0010
1000
,  // measure 27
0100
0000
1000
0100
0001
0000
0001
0010
,  // measure 28
0001
0100
0010
1000
0100
0000
0000
0100
,  // measure 29
1000
0010
0100
0001
1000
0000
0001
0000
,  // measure 30
0020
0001
0032
0103
,  // measure 31
0101
0010
1010
1001
,  // measure 32
2200
0000
0000
3000
0300
0000
0000
0000
,  // measure 33
1000
0100
0010
0001
1000
0010
0100
0001
,  // measure 34
1000
0001
1000
0001
0200
0000
0010
0010
,  // measure 35
0310
1000
0010
0100
0010
1000
0100
0010
,  // measure 36
0200
0000
0010
0000
0000
1000
1300
0000
,  // measure 37
1000
0100
0010
0001
1000
0000
0001
0000
,  // measure 38
0101
0010
2002
3003
,  // measure 39
1000
0010
0100
0010
1000
0100
0010
0001
,  // measure 40
0202
0000
0303
0000
,  // measure 41
0001
1000
0001
1000
0100
1000
0100
1000
,  // measure 42
0010
1000
0001
0100
0020
0000
0100
0100
,  // measure 43
0130
0010
1000
0100
0010
0100
1000
0001
,  // measure 44
0200
0000
0000
0000
0000
0001
0301
0000
,  // measure 45
0010
0001
0100
0010
1000
0000
0100
0000
,  // measure 46
1100
0010
0022
0033
,  // measure 47
0100
0001
0010
0100
1000
0001
0010
0000
,  // measure 48
1001
0110
1001
0000
,  // measure 49
0001
1000
0000
0000
0001
1000
0000
0000
0010
0000
0100
0000
0001
0000
0000
0000
,  // measure 50
1000
0100
0000
0000
1000
0100
0000
0000
0010
0000
0001
0000
0100
0000
0000
0000
,  // measure 51
0010
1000
0000
0000
0010
1000
0000
0000
0010
0000
0100
0000
0001
0000
0000
0000
,  // measure 52
1000
0010
0100
0001
0010
0100
1000
0000
,  // measure 53
0001
0100
1000
0100
0001
1000
0002
0000
,  // measure 54
1003
0000
0010
0000
0100
0000
0001
0000
0010
0001
0010
0001
0200
0000
0000
0000
,  // measure 55
0310
1000
0100
0001
0100
1000
0001
0000
,  // measure 56
0110
0000
0000
0000
0000
0000
0000
0000
0001
1000
0001
1000
0001
0000
0000
0000
,  // measure 57
1000
0000
0000
1000
0100
0000
0000
0100
1000
0000
0001
0000
1000
0000
0001
0000
,  // measure 58
0010
0000
0010
0000
0010
0000
0000
0000
0100
0000
0000
1000
0001
0000
0000
0100
,  // measure 59
0102
0000
0100
0000
0103
0100
0010
1000
,  // measure 60
0001
1000
0000
0001
0000
1000
0000
0010
0000
0100
0000
0001
0000
0100
0000
0010
,  // measure 61
0000
1000
0000
0010
0000
0100
0001
0000
0202
0000
0000
0000
0000
0000
0000
0000
,  // measure 62
0000
0303
1001
1010
,  // measure 63
1001
0000
0011
0001
0100
0001
0010
0001
,  // measure 64
1000
0100
0010
0001
2000
0000
3001
1000
,  // measure 65
0200
0000
1300
0001
0100
0010
1000
0100
,  // measure 66
0010
0000
0000
0000
0000
0000
0010
0000
0100
1000
0001
1000
0010
0000
0100
0000
,  // measure 67
0002
0003
0100
0000
0010
0000
1000
0100
,  // measure 68
2200
0000
0000
3000
0300
0000
0000
0000
0001
0010
0000
0000
0001
0010
0000
0000
,  // measure 69
0001
0000
0100
0000
0010
0000
0000
0000
1000
0100
0000
0000
1000
0100
0000
0000
,  // measure 70
1000
0000
0001
0000
0100
0000
0000
0000
0010
0100
0000
0000
0010
0100
0000
0000
,  // measure 71
0010
1000
0001
0000
1000
0010
0100
0001
,  // measure 72
0010
0100
1000
0000
0001
1000
0001
0100
,  // measure 73
0010
1000
0002
0000
1003
0001
0100
0010
,  // measure 74
0100
0010
0100
0010
0200
0000
0000
0000
0301
0000
0010
0000
0100
0000
1000
0000
,  // measure 75
0100
0010
0001
0000
1001
0000
0000
0000
,  // measure 76
0010
0100
0010
0100
0020
0000
0000
0000
0000
0000
0000
0000
0000
0000
0000
0000
,  // measure 77
0000
0030
0000
0000
;

//---------------dance-single - DDRDAIKENKAI----------------
#NOTES:
     dance-single:
     DDRDAIKENKAI:
     Easy:
     4:
     0.337,0.345,0.107,0.239,0.000: // measure 1
0000
0000
0000
0000
,  // measure 2
0000
0000
0000
0000
,  // measure 3
0000
0000
0000
0000
,  // measure 4
0000
0000
0000
0000
,  // measure 5
1000
0100
0010
0001
,  // measure 6
0010
0100
2000
3000
,  // measure 7
0001
0010
0100
1000
,  // measure 8
0100
0010
0002
0003
,  // measure 9
1000
1000
1000
1000
,  // measure 10
0001
0001
0001
0001
,  // measure 11
0100
0100
0100
0100
,  // measure 12
0010
0010
0010
0010
,  // measure 13
1000
0010
1000
0010
,  // measure 14
0100
0001
0100
0001
,  // measure 15
0010
0001
0010
0001
,  // measure 16
2002
0000
0000
3003
,  // measure 17
1000
0010
1000
0100
,  // measure 18
0001
0010
0001
0100
,  // measure 19
1000
0010
0001
0010
,  // measure 20
2000
0100
3100
0100
,  // measure 21
0100
1000
1000
0001
,  // measure 22
0001
1000
0001
0010
,  // measure 23
0010
0001
0001
0001
,  // measure 24
0202
0000
0303
0000
,  // measure 25
0010
1000
0100
0010
,  // measure 26
0002
1000
1000
1003
,  // measure 27
0010
0100
0010
1000
,  // measure 28
0200
0000
0300
0000
,  // measure 29
1000
0010
0100
0001
,  // measure 30
0020
0100
0200
0330
,  // measure 31
2000
3000
0010
0100
,  // measure 32
0002
0000
0003
0000
,  // measure 33
1000
0010
0001
0100
,  // measure 34
2000
0000
3000
0000
,  // measure 35
0001
0010
1000
0100
,  // measure 36
0002
0000
0003
0000
,  // measure 37
0010
1000
0100
0010
,  // measure 38
0002
0000
0003
0000
,  // measure 39
0100
0001
0010
0100
,  // measure 40
2000
0000
3000
0000
,  // measure 41
0010
0100
0010
0100
,  // measure 42
0001
1000
0002
1000
,  // measure 43
1003
0100
0010
0001
,  // measure 44
0200
0000
0300
0000
,  // measure 45
0010
1000
0010
1000
,  // measure 46
0001
0010
0002
0100
,  // measure 47
0103
0010
0100
0010
,  // measure 48
1001
0110
1001
0000
,  // measure 49
0010
0010
1000
0001
,  // measure 50
1000
1000
0001
1000
,  // measure 51
0100
0100
1000
0001
,  // measure 52
0010
0010
0001
0100
,  // measure 53
0010
0010
1000
0001
,  // measure 54
0010
0010
0001
1000
,  // measure 55
0100
0100
1000
0001
,  // measure 56
2002
0000
0000
3003
,  // measure 57
1000
1000
0001
0010
,  // measure 58
0100
1000
0001
0001
,  // measure 59
1000
0010
0100
0001
,  // measure 60
0010
0100
1000
0001
,  // measure 61
0100
0010
2002
0000
,  // measure 62
3003
0000
1001
0010
,  // measure 63
1000
0100
0010
0000
,  // measure 64
0001
1000
1000
0001
,  // measure 65
0001
0100
0202
0000
,  // measure 66
0303
0000
0000
0000
0010
1000
0010
1000
,  // measure 67
0001
0000
1000
0000
0001
0000
0010
0001
,  // measure 68
0200
0300
0010
0010
,  // measure 69
0100
0001
0010
0010
,  // measure 70
0100
1000
0010
0010
,  // measure 71
1000
0001
0010
0010
,  // measure 72
0001
1000
0010
0010
,  // measure 73
1000
1100
1000
1000
,  // measure 74
0001
0101
0001
0001
,  // measure 75
0100
0110
1001
0000
,  // measure 76
0002
2000
0000
0000
,  // measure 77
0000
3003
0000
0000
;

//---------------dance-single - DDRDAIKENKAI----------------
#NOTES:
     dance-single:
     DDRDAIKENKAI:
     Challenge:
     11:
     0.928,1.000,0.165,0.494,0.860: // measure 1
0000
0000
0000
0000
,  // measure 2
0000
0000
0000
0000
,  // measure 3
0000
0000
0000
0000
,  // measure 4
0000
0000
0000
0000
,  // measure 5
0010
1000
0100
0010
0001
1000
0010
0100
,  // measure 6
0001
1000
0100
0010
0002
0100
0103
0000
,  // measure 7
0010
1000
0100
1000
0010
0100
0001
1000
,  // measure 8
0001
0000
1000
0000
0001
0010
0100
1000
0001
0000
1000
0000
0001
1000
0100
0010
,  // measure 9
0001
1000
0010
0100
0001
1000
0100
0010
0001
1000
0010
0100
0002
0000
0000
0000
,  // measure 10
1003
0010
0100
0001
0010
0001
0100
0010
1000
0100
0010
0100
2000
0000
0000
0000
,  // measure 11
3010
0100
0010
1000
0100
0010
0100
1000
0010
0100
0001
0010
0002
0000
0000
0000
,  // measure 12
0013
0001
0100
0010
1000
0100
0010
0100
1000
0010
1000
0100
2000
0000
0000
0000
,  // measure 13
3001
0100
0001
0010
0001
0100
0001
0010
0001
1000
0001
0100
0020
0000
0000
0000
,  // measure 14
1030
0100
1000
0010
1000
0001
1000
0010
1000
0001
1000
0010
0200
0000
0000
0000
,  // measure 15
0301
0010
0100
1000
0100
0010
0001
0010
0100
1000
0100
0010
0002
0000
0000
0000
,  // measure 16
1003
0010
1000
0010
1000
0010
1000
0010
0100
0001
0010
0001
0100
0000
0000
0000
,  // measure 17
0001
0010
0100
1000
0010
0100
0001
1000
,  // measure 18
0010
0100
0001
0010
0002
0100
0103
0000
,  // measure 19
0001
0100
1000
0100
0010
1000
0001
1000
,  // measure 20
0001
0100
0001
0010
0001
0100
0010
1000
0100
1000
0010
0100
0002
0000
0010
0000
,  // measure 21
0013
0100
0010
0001
1000
0001
1000
0001
,  // measure 22
1000
0010
0100
0001
1000
0100
0001
0100
,  // measure 23
0010
0000
0100
0000
1000
0000
0010
0000
1000
0000
0100
0000
0010
0100
1000
0001
,  // measure 24
0100
0010
1000
0010
0100
0001
1000
0010
0200
0000
0000
0000
0300
0000
0000
0000
,  // measure 25
1010
0000
0101
0000
0011
0001
0010
0001
,  // measure 26
1000
0100
0010
0001
1000
0010
0100
0001
,  // measure 27
0020
0000
0031
1000
0200
0000
1300
0001
,  // measure 28
1000
0010
1000
0010
1000
0100
1000
0100
1000
0001
1000
0001
0100
0001
0100
0001
,  // measure 29
0100
0010
0100
0001
1000
0001
0100
1000
,  // measure 30
0200
0001
0301
0100
0002
1003
1001
0000
,  // measure 31
1000
0100
1000
0001
1000
0001
1000
0010
,  // measure 32
2010
0001
0001
0001
0002
0000
3003
0000
,  // measure 33
1001
0001
1000
0100
0001
0100
1000
0010
,  // measure 34
1000
0000
0001
0000
0010
0000
0001
0000
0201
0000
0000
0000
0310
1000
0010
1000
,  // measure 35
0010
1000
0001
1000
0001
1000
0100
0010
,  // measure 36
0002
0000
0200
0000
0020
1000
1000
0333
,  // measure 37
0010
1000
0100
0010
0001
1000
0100
1000
,  // measure 38
1100
0000
0000
0000
0101
0000
0000
0000
0012
0000
0000
0000
1003
0010
1000
0010
,  // measure 39
1000
0010
0100
0001
0010
0100
1000
0001
,  // measure 40
1000
0000
0100
0000
0010
0001
0100
0010
1000
0100
1000
0001
0100
0000
0000
0000
,  // measure 41
0001
0100
1000
0100
0010
1000
0100
0010
,  // measure 42
0001
0000
1000
0000
0001
0000
1000
0000
2100
0000
0000
0000
3001
0010
0001
0010
,  // measure 43
0001
0010
0100
1000
0010
0100
0001
0010
,  // measure 44
0200
0000
2000
0000
0002
0010
0010
3303
,  // measure 45
1000
0100
0010
0001
1000
0010
0100
0001
,  // measure 46
0021
0000
0000
0000
0031
0000
0000
0000
0102
0000
0000
0000
1003
0100
1000
0100
,  // measure 47
1000
0010
0100
0001
0010
0100
1000
0001
,  // measure 48
2002
3003
0220
0330
2002
0000
3003
0000
,  // measure 49
0001
0010
0100
1000
0001
0010
0100
1000
0001
0100
0010
1000
0002
0000
0000
0000
,  // measure 50
1003
0100
0010
0001
1000
0100
0010
0001
1000
0010
0100
0001
2000
0000
0000
0000
,  // measure 51
3001
0100
0010
1000
0001
0010
0100
1000
0001
1000
0010
1000
0200
0000
0000
0000
,  // measure 52
1300
0010
1000
0100
1000
0010
1000
0001
0010
0001
0100
0010
2000
0000
0000
0000
,  // measure 53
3001
0010
0001
0100
0001
0010
0001
0100
0010
1000
0100
1000
0020
0000
0000
0000
,  // measure 54
1030
0100
1000
0010
1000
0100
1000
0010
0100
0001
0010
0001
0200
0000
0000
0000
,  // measure 55
0301
0010
0001
0100
0010
1000
0100
1000
0010
0100
0001
1000
0200
0000
0000
0000
,  // measure 56
1300
0100
0010
0001
1000
0010
0100
0001
0010
0001
0100
0010
1000
0000
0000
0000
,  // measure 57
1001
0001
1000
0010
0100
0001
0020
0000
0031
0000
0100
0000
0010
0000
1000
0000
,  // measure 58
0100
0000
0010
0000
0001
0000
0000
0000
1000
0010
0100
0001
0010
0100
2000
0000
,  // measure 59
0001
0000
0000
0000
0001
0000
0000
0000
3001
0000
0010
0000
0001
1000
0001
1000
,  // measure 60
0001
0100
0010
1000
0200
0000
1300
0010
0100
1000
0100
0010
2000
0000
3001
0010
,  // measure 61
0100
0010
0001
0100
0010
0000
0000
0000
2002
0000
0000
0000
0000
0000
0000
0000
,  // measure 62
0000
0000
3003
0000
1001
0001
1000
0001
,  // measure 63
1000
0010
1000
0010
0100
0001
0100
0001
,  // measure 64
0010
0001
0010
0100
2000
0000
3100
0010
,  // measure 65
0002
0000
0013
0100
1000
0010
0100
0001
,  // measure 66
0010
0000
0001
0000
1000
0000
0100
0000
0010
0001
1000
0010
0100
0001
0010
0100
,  // measure 67
1000
0001
0100
1000
0200
0001
0301
0000
0010
0001
0100
0010
1000
0001
1000
0001
,  // measure 68
0021
0001
0001
0001
0002
0000
0033
0000
0001
0010
0100
1000
0001
0100
0010
1000
,  // measure 69
0100
1000
0010
0100
0002
0000
0000
0000
1003
0100
1000
0010
1000
0100
1000
0010
,  // measure 70
0100
0001
0010
0001
0200
0000
0000
0000
0301
0010
0100
1000
0001
0100
0010
1000
,  // measure 71
0100
1000
0010
0100
0002
0000
0000
0000
1003
0010
0100
0001
0010
0100
1000
0100
,  // measure 72
0010
0100
1000
0010
0200
0000
0000
0000
0301
0010
0100
0010
0001
0010
0100
0010
,  // measure 73
0001
0100
0010
1000
0200
0000
0000
0000
1300
0100
0010
0100
1000
0100
0010
0100
,  // measure 74
1000
0010
0100
0001
0020
0000
0000
0000
0031
1000
0010
0100
0001
1000
0010
0100
,  // measure 75
0001
1000
0100
0010
0002
0000
0000
0000
1003
0001
0100
0001
1000
0001
0100
0001
,  // measure 76
0100
0010
1000
0001
0200
0000
0000
0000
0000
0000
0000
0000
0000
0000
0000
0000
,  // measure 77
0000
0300
0000
0000
;

//---------------dance-single - DDRDAIKENKAI----------------
#NOTES:
     dance-single:
     DDRDAIKENKAI:
     Beginner:
     2:
     0.203,0.282,0.099,0.181,0.000: // measure 1
0000
0000
0000
0000
,  // measure 2
0000
0000
0000
0000
,  // measure 3
0000
0000
0000
0000
,  // measure 4
0000
0000
0000
0000
,  // measure 5
1000
0000
0001
0000
,  // measure 6
1000
0000
0001
0000
,  // measure 7
1000
0000
0001
0000
,  // measure 8
2002
0000
3003
0000
,  // measure 9
0010
0000
0010
0000
,  // measure 10
0100
0000
0100
0000
,  // measure 11
0010
0000
0010
0000
,  // measure 12
0100
0000
0100
0000
,  // measure 13
0001
0000
0001
0000
,  // measure 14
1000
0000
1000
0000
,  // measure 15
0001
0000
0001
0000
,  // measure 16
2002
0000
3003
0000
,  // measure 17
0010
0000
0010
0000
,  // measure 18
0100
0000
0100
0000
,  // measure 19
0001
0000
1000
0000
,  // measure 20
2002
0000
3003
0000
,  // measure 21
1000
0000
1000
0000
,  // measure 22
0001
0000
0001
0000
,  // measure 23
0100
0000
0010
0000
,  // measure 24
0220
0000
0330
0000
,  // measure 25
1000
0000
1000
0000
,  // measure 26
0100
0100
0000
0000
,  // measure 27
0001
0000
0001
0000
,  // measure 28
0100
0000
0000
0000
,  // measure 29
0010
0000
1000
0000
,  // measure 30
0010
0000
0001
0000
,  // measure 31
1000
0000
0001
0000
,  // measure 32
2002
0000
3003
0000
,  // measure 33
0010
0000
0100
0000
,  // measure 34
0020
0000
0030
0000
,  // measure 35
1000
0000
0001
0000
,  // measure 36
2000
0000
3000
0000
,  // measure 37
0100
0000
0010
0000
,  // measure 38
0200
0000
0300
0000
,  // measure 39
0001
0000
1000
0000
,  // measure 40
0002
0000
0003
0000
,  // measure 41
0010
0000
1000
0000
,  // measure 42
0001
0000
1000
0000
,  // measure 43
0010
0000
0001
0000
,  // measure 44
2000
0000
3000
0000
,  // measure 45
0001
0000
0010
0000
,  // measure 46
0100
0000
1000
0000
,  // measure 47
0100
0000
0010
0000
,  // measure 48
2002
0000
3003
0000
,  // measure 49
0010
0000
0100
0000
,  // measure 50
0010
0000
0100
0000
,  // measure 51
0001
0000
1000
0000
,  // measure 52
0001
0000
1000
0000
,  // measure 53
0100
0000
0100
0000
,  // measure 54
0010
0000
0010
0000
,  // measure 55
1000
0000
0001
0000
,  // measure 56
2002
0000
3003
0000
,  // measure 57
0100
0000
1000
1000
,  // measure 58
1000
0000
0001
0000
,  // measure 59
0010
0010
0010
0000
,  // measure 60
1000
1000
1000
1000
,  // measure 61
1000
1000
2000
0000
,  // measure 62
3000
0000
0010
0000
,  // measure 63
0100
0000
0001
0000
,  // measure 64
1000
0000
0010
0000
,  // measure 65
0100
0000
0010
0000
,  // measure 66
1000
0000
0100
0000
,  // measure 67
0001
0000
1000
0000
,  // measure 68
0110
0000
1000
0000
,  // measure 69
1000
0000
0001
0000
,  // measure 70
0001
0000
0100
0000
,  // measure 71
0100
0000
0010
0000
,  // measure 72
0010
0000
1000
1000
,  // measure 73
1000
0000
0001
0001
,  // measure 74
0001
0000
0100
0100
,  // measure 75
0100
0000
0110
0110
,  // measure 76
0110
0220
0000
0000
,  // measure 77
0000
0330
0000
0000
;
