#TITLE:Negation;
#SUBTITLE:;
#ARTIST:Kita Khyber;
#TITLETRANSLIT:;
#SUBTITLETRANSLIT:;
#ARTISTTRANSLIT:;
#GENRE:TECHNO;
#CREDIT:Kita Khyber;
#BANNER:Negation.png;
#BACKGROUND:Negation-bg.png;
#LYRICSPATH:;
#CDTITLE:;
#MUSIC:Negation.ogg;
#OFFSET:-0.020;
#SAMPLESTART:78.560;
#SAMPLELENGTH:11.780;
#SELECTABLE:YES;
#BPMS:0.000=165.000,80.000=82.500,84.000=330.000,148.000=165.000,212.000=330.000,276.000=165.000;
#STOPS:;
#TIMESIGNATURES:0.000=4=4
;
#BGCHANGES:;
#KEYSOUNDS:;
#ATTACKS:;

//---------------dance-single - DDRDAIKENKAI----------------
#NOTES:
     dance-single:
     DDRDAIKENKAI:
     Challenge:
     10:
     0.816,0.879,0.107,0.268,0.306,497.000,10.000,25.000,0.000,0.000,0.000,-1.000,-1.000,0.816,0.879,0.107,0.268,0.306,497.000,10.000,25.000,0.000,0.000,0.000,-1.000,-1.000:
0000
0000
0000
0000
,
0000
0000
0000
0000
,
0000
0000
0000
0000
,
0000
0000
0000
0000
,
1000
0001
0100
0010
0100
0001
1000
0000
,
0010
0000
0100
0000
0001
0010
0001
0010
0001
0000
0100
0000
0010
0000
0000
0000
,
1000
0100
0010
0001
0010
0001
0100
0000
,
0010
0000
1000
0000
0100
0010
0100
0010
0100
0000
1000
0000
0010
0000
0000
0000
,
0100
0010
1000
0001
1000
0001
0100
0000
,
0001
0000
0010
0000
0001
0100
0001
0100
0001
0000
1000
0000
0100
0000
0000
0000
,
1000
0010
1000
0010
0100
0001
1000
0000
,
0001
0000
0010
0000
0100
0000
1000
0001
0000
1000
0001
0000
0100
0000
0010
0000
,
1000
0010
0100
0001
0010
0001
0100
0000
,
0010
0000
1000
0000
0100
0010
0100
0010
0100
0000
1000
0000
0010
0000
0000
0000
,
0200
0302
0023
0032
0100
0100
0103
0000
,
0010
0000
1000
0000
0001
0100
0001
0100
0001
0000
1000
0000
0100
0000
0000
0000
,
2000
0001
3002
0100
0103
0010
1000
0000
,
0010
0000
0100
0000
0001
0010
0001
0010
0001
0000
0100
0000
0010
0000
0000
0000
,
2000
3200
0320
0032
0100
0103
0001
0000
,
0010
0100
1000
0001
0000
0100
0010
0100
,
0002
0000
0000
0010
0000
0000
0013
0000
0200
0000
0000
1000
0000
0000
1300
0000
0002
0000
0000
0100
0000
0000
0103
0000
0020
0000
0000
1000
0000
0000
1030
0000
,
0001
0000
1000
0100
0000
1000
0100
0000
,
0010
0001
0100
0010
,
1000
0010
1000
0010
1000
0000
0100
0000
,
0010
0001
0010
0000
0100
0000
1000
0001
,
1000
0000
0010
1000
0000
0010
1000
0000
,
0100
1000
0010
0100
,
0001
0010
0001
0010
0001
0100
0001
0000
,
0100
0010
0100
0010
1000
0010
1000
0000
,
0100
0000
0010
0100
0000
0010
0100
0000
,
1000
0001
0010
0001
,
1000
0100
1000
0100
1000
0000
0010
0000
,
0100
0001
0100
0000
0010
0000
0100
0001
,
0100
0000
0001
0010
0000
0001
0010
0000
,
0100
1000
0001
0100
,
0010
1000
0010
1000
0001
1000
0001
0000
,
0100
0001
0100
0001
1000
0001
1000
0000
,
0100
1000
0001
0000
0101
0000
1010
0000
,
0010
0000
1000
0000
0100
0000
0000
0000
0010
0000
0000
0001
0100
0000
0001
0000
,
0010
0100
1000
0000
1010
0000
0101
0000
,
0001
0000
1000
0000
0100
0000
1000
0000
0001
0000
0000
0100
0010
0100
0010
0100
,
0010
1000
0001
0000
0011
0000
1100
0000
,
0001
0000
0010
0000
0100
0000
0000
0000
1100
0000
0000
0100
0010
0000
0100
0000
,
1000
0010
0100
0000
0101
0000
1010
0000
,
0001
0000
1000
0000
0100
0000
0010
0001
0000
0010
0100
0000
1000
0000
0001
0000
,
0100
0000
0010
0000
1000
0100
1000
0010
0100
0001
1000
0001
0000
0000
0000
0000
,
1000
0000
0001
0000
0010
0100
0000
1000
0000
0000
0100
0000
0010
0000
0001
0000
,
0100
0000
0010
0000
1000
0010
0100
0001
0100
0010
1000
0001
0000
0000
0000
0000
,
1000
0000
0001
0000
1000
0010
0000
1000
0000
0000
0001
0000
0100
0000
0010
0000
,
1000
0000
0100
0000
0010
0100
0010
0100
0010
0001
1000
0001
0000
0000
0000
0000
,
0100
0000
0010
0000
1000
0001
0000
1000
0000
0000
0001
0000
0100
0000
0010
0000
,
1000
0000
0001
0000
0100
0010
1000
0010
0100
0001
0100
0010
0000
0000
0000
0000
,
1000
0000
1000
0100
0000
0010
0002
0000
,
1003
0000
0001
0100
0000
0001
0100
0000
,
0010
1000
0100
1000
,
0010
0100
0010
0100
0010
0000
0100
0000
,
0001
1000
0001
0000
0100
0000
0001
0010
,
0001
0000
0010
0001
0000
0010
0001
0000
,
0010
0100
1000
0001
,
0100
0010
0100
0010
1000
0010
1000
0000
,
0001
0100
0001
0100
0001
0010
0001
0000
,
0010
0000
0100
0010
0000
0100
0010
0000
,
0100
1000
0010
0100
,
0001
1000
0001
1000
0001
0000
0100
0000
,
0010
1000
0010
0000
0100
0000
0001
0010
,
0001
0000
1000
0100
0000
1000
0100
0000
,
0010
0001
0010
0100
,
1000
0001
1000
0001
0100
0001
0100
0000
,
0010
0100
0010
0100
0010
1000
0010
0000
,
1000
0100
0001
0100
1000
0010
0001
0000
,
0010
0000
1000
0000
0100
1000
0100
1000
0100
0000
0010
0000
0001
0000
0000
0000
,
0020
0230
2300
3002
0100
0103
0010
0000
,
1000
0000
0001
0000
0100
0001
0100
0001
0010
0000
0100
0000
1000
0000
0000
0000
,
0100
0010
0001
0100
0010
1000
0001
0000
,
1000
0000
0010
0000
0100
0010
0100
0010
1000
0000
0001
0000
0100
0000
0000
0000
,
0002
0023
0032
0203
0010
0310
1000
0000
,
0001
0000
1000
0010
0000
0001
0010
0000
,
2002
0000
0000
0000
,
3003
0000
0000
0000
;

//---------------dance-single - DDRDAIKENKAI----------------
#NOTES:
     dance-single:
     DDRDAIKENKAI:
     Hard:
     9:
     0.685,0.837,0.097,0.107,0.070,428.000,9.000,10.000,0.000,0.000,0.000,-1.000,-1.000,0.685,0.837,0.097,0.107,0.070,428.000,9.000,10.000,0.000,0.000,0.000,-1.000,-1.000:
0000
0000
0000
0000
,
0000
0000
0000
0000
,
0000
0000
0000
0000
,
0000
0000
0000
0000
,
1000
0100
0010
0001
0010
0100
1000
0000
,
0001
0010
0100
1000
0100
0010
0001
0000
,
1000
0010
0100
0002
0010
0010
0013
0000
,
0001
0010
0100
1000
0010
0100
0001
0000
,
1000
0100
1000
0010
1000
0100
0010
0000
,
0001
0010
0001
0100
0001
0010
0100
0000
,
1000
0001
1000
0001
0100
0010
1000
0000
,
0001
1000
0010
0100
0000
0100
0002
0000
,
0013
0001
0100
0010
1000
0100
0010
0000
,
0100
1000
0010
0100
0001
0010
0100
0000
,
0010
0001
0010
0001
1000
0100
1000
0000
,
0001
0100
0001
0100
0010
1000
0100
0000
,
1000
0001
1000
0001
0010
0001
0100
0000
,
0001
1000
0001
1000
0010
1000
0100
0000
,
1000
0001
0100
0010
1000
0001
0100
0000
,
0010
0000
1000
0100
0000
0010
0002
0000
,
2003
0000
0000
0100
3000
0000
0100
0000
0020
0000
0000
0001
0030
0000
0001
0000
0200
0000
0000
0010
0300
0000
0010
0000
2000
0000
0000
0001
3000
0000
0001
0000
,
1000
0001
1000
0001
,
0100
0010
0100
0010
,
1000
0010
0100
0001
,
0100
0000
0010
0000
1000
0000
0001
0010
,
0001
0010
0100
1000
,
0001
0100
0010
1000
,
0010
0100
0001
0010
,
0001
0100
0001
0000
1000
0100
1000
0000
,
0001
0100
1000
0100
,
0001
0010
1000
0010
,
0001
0100
0010
1000
,
0100
0000
0010
0000
0100
0000
1000
0010
,
1000
0010
0100
0010
,
0100
0001
0010
0001
,
0100
0001
0100
0010
,
1000
0100
1000
0000
0010
0100
0010
0000
,
1000
0010
0100
0000
0101
0000
1100
0000
,
1000
0000
0100
0000
1000
0000
0000
0000
0100
0000
0000
0010
0001
0000
0010
0000
,
0100
1000
0001
0000
0101
0000
1010
0000
,
1000
0000
0010
0000
0100
0000
0001
0000
0100
0000
0000
0001
0010
0000
0100
0000
,
0010
0100
1000
0000
1010
0000
1001
0000
,
0001
0000
1000
0000
0001
0000
0000
0000
0100
0000
0000
0010
0100
0000
0001
0000
,
1000
0001
0100
0000
0101
0000
1010
0000
,
0010
0000
1000
0000
0100
0000
0010
0001
0000
0010
0100
0000
1000
0000
0001
0000
,
1000
0010
0100
0010
1000
0100
0010
0001
,
0010
0100
1000
0001
1000
0010
1000
0100
,
0010
0001
0100
1000
0100
0010
1000
0001
,
0100
0010
1000
0010
0100
0001
0100
0010
,
1000
0100
0010
0001
0010
0100
1000
0001
,
0100
0010
0100
0010
1000
0010
0100
0001
,
1000
0100
1000
0010
0100
0001
0010
0001
,
0100
0000
0010
1000
0000
1000
0001
0000
,
1000
0010
1000
0010
,
0100
0001
0100
0001
,
1000
0100
1000
0100
,
0010
0000
0001
0000
0010
0000
0001
0100
,
0001
0100
0001
0010
,
0001
0100
0010
1000
,
0100
1000
0010
0100
,
0001
1000
0001
0000
0100
0010
0100
0000
,
0010
0100
0010
0100
,
0001
1000
0001
1000
,
0100
0010
0100
0010
,
0001
0000
0010
0000
0001
0000
1000
0100
,
1000
0001
1000
0001
,
0100
0001
0100
0001
,
0010
0100
1000
0100
,
0010
0100
0010
0000
0001
0010
0001
0000
,
0010
0001
0100
0001
0100
0001
0010
0000
,
0010
0100
1000
0010
1000
0100
0010
0000
,
0001
0010
0100
2000
0001
0001
3001
0000
,
0100
0010
0100
0001
0010
0001
0100
0000
,
0010
1000
0100
1000
0010
0100
0001
0000
,
0010
0001
0100
0010
1000
0001
1000
0000
,
1000
0010
1000
0100
0010
0001
0100
0000
,
0001
0000
1000
0010
0000
0100
0001
0000
,
2002
0000
0000
0000
,
3003
0000
0000
0000
;

//---------------dance-single - DDRDAIKENKAI----------------
#NOTES:
     dance-single:
     DDRDAIKENKAI:
     Medium:
     7:
     0.477,0.502,0.021,0.064,0.000,303.000,2.000,6.000,0.000,0.000,0.000,-1.000,-1.000,0.477,0.502,0.021,0.064,0.000,303.000,2.000,6.000,0.000,0.000,0.000,-1.000,-1.000:
0000
0000
0000
0000
,
0000
0000
0000
0000
,
0000
0000
0000
0000
,
0000
0000
0000
0000
,
1000
0000
1000
0000
0001
0100
0001
0000
,
0010
0000
0010
0000
0100
1000
0100
0000
,
1000
0000
1000
0000
0010
0100
0010
0000
,
0100
0000
0100
0000
0001
1000
0001
0000
,
1000
0000
1000
0000
0001
0010
0001
0000
,
1000
0000
0001
0100
0001
0100
0001
0000
,
0010
0000
0010
0000
0001
1000
0001
0000
,
1000
0000
0010
0100
0000
0010
0100
0000
,
0010
1000
0010
0000
1000
0000
0100
0000
,
0010
0000
0001
0100
0001
0100
0001
0000
,
0010
0100
0010
0000
0100
0000
1000
0000
,
0010
0000
1000
0001
1000
0001
1000
0000
,
0010
0100
0010
0000
0100
0001
0100
0000
,
0001
0000
1000
0100
1000
0100
1000
0000
,
0001
0010
0001
0000
1000
0010
1000
0000
,
0001
0000
1000
0100
0000
0010
0001
0000
,
1002
0203
0320
2030
,
3001
0000
0100
0000
,
0001
0000
0010
0000
,
0100
0000
1000
0000
,
0010
1000
0010
1000
,
0100
0000
1000
0000
,
0010
0000
0100
0000
,
0001
0000
0010
0000
,
0001
1000
0001
1000
,
0100
0000
0010
0000
,
0001
0000
0010
0000
,
0100
0000
1000
0000
,
0010
0100
0010
0100
,
0001
0000
1000
0000
,
0001
0000
0100
0000
,
0010
0000
1000
0000
,
0010
0100
0010
0100
,
0001
0100
0001
0000
0010
0000
0001
0000
,
0100
0001
0100
0000
0010
0000
1000
0000
,
0100
0010
0100
0000
1000
0000
0010
0000
,
1000
0001
1000
0000
0010
0000
0100
0001
,
0100
0001
0100
0000
0001
0000
0010
0000
,
0100
1000
0100
0000
0010
0000
0001
0000
,
1000
0010
1000
0000
0100
0000
1000
0000
,
0001
0010
0001
0000
0100
0000
0001
0000
,
0001
1000
0001
1000
0001
0000
0100
0000
,
0010
0000
1000
0000
0100
1000
0100
0000
,
1000
0010
1000
0010
1000
0000
0010
0000
,
0100
0000
0001
0000
0010
0001
0010
0000
,
0001
0100
0001
0100
0001
0000
0100
0000
,
0010
1000
0100
0010
,
0100
0010
0100
0010
0100
0000
1000
0000
,
0001
0000
0001
0100
0000
0001
0100
0000
,
0001
1000
0001
0000
,
0100
0000
0010
0000
,
1000
0001
1000
0000
,
0001
0000
0100
0000
,
0010
0100
0010
0000
,
1000
0000
0001
0000
,
0100
0010
0100
0000
,
0001
0000
1000
0100
,
1000
0100
1000
0000
,
0100
0000
0010
0000
,
0001
0010
0001
0000
,
0100
0000
0010
0000
,
1000
0100
1000
0000
,
0010
0000
0100
0000
,
0001
1000
0001
1000
,
0100
1000
0100
0000
,
0010
0000
0010
0000
0001
0100
0001
0000
,
0010
0000
0100
1000
0100
1000
0100
0000
,
1000
0000
1000
0000
0010
0100
0010
0000
,
1000
0000
0001
0010
0001
0010
0001
0000
,
1000
0001
1000
0000
0001
0100
0001
0000
,
1000
0100
1000
0000
0010
0100
0010
0000
,
1000
0001
1000
0000
0100
1000
0100
0000
,
1000
0000
0001
0010
0000
0100
1000
0000
,
2002
0000
0000
0000
,
3003
0000
0000
0000
;

//---------------dance-single - DDRDAIKENKAI----------------
#NOTES:
     dance-single:
     DDRDAIKENKAI:
     Easy:
     4:
     0.350,0.335,0.011,0.193,0.000,209.000,1.000,18.000,0.000,0.000,0.000,-1.000,-1.000,0.350,0.335,0.011,0.193,0.000,209.000,1.000,18.000,0.000,0.000,0.000,-1.000,-1.000:
0000
0000
0000
0000
,
0000
0000
0000
0000
,
0000
0000
0000
0000
,
0000
0000
0000
0000
,
1000
1000
0001
0001
,
1000
0001
1000
0001
,
0100
0100
0010
0010
,
0100
0010
0100
0010
,
1000
1000
0010
0010
,
0100
0100
0001
0001
,
1000
0010
0100
0001
,
1000
0001
1000
0001
,
0100
0100
0010
0010
,
0010
0100
0010
0100
,
0001
0001
1000
1000
,
1000
0001
1000
0001
,
0100
0010
0100
0010
,
1000
0001
1000
0001
,
1000
0100
1000
0100
,
0010
0001
0010
0001
,
2002
0000
0000
3003
,
0001
0000
0100
0000
,
0001
0000
0100
0000
,
0010
0000
1000
0000
,
0010
0000
1000
0000
,
0001
0000
0010
0000
,
0001
0000
0010
0000
,
0100
0000
1000
0000
,
0100
0000
1000
0000
,
0001
0000
0100
0000
,
0001
0000
0100
0000
,
0010
0000
1000
0000
,
0010
0000
1000
0000
,
0001
0000
1000
0000
,
0001
0000
1000
0000
,
0010
0000
0100
0000
,
0010
0000
0100
0000
,
0001
0001
0001
1000
,
0100
0100
0100
1000
,
0010
0010
0010
0100
,
0010
0010
0010
1000
,
0100
0100
0100
0010
,
0001
0001
0001
1000
,
0010
0010
0010
0100
,
0001
0001
0001
1000
,
0002
0003
0200
0300
,
0002
0003
2000
3000
,
0020
0030
2000
3000
,
0002
0003
2000
3000
,
0200
0300
0020
0030
,
0002
0003
2000
3000
,
0002
0003
0200
0300
,
0020
0000
0000
0030
,
1000
0000
1000
0000
,
0001
0000
0001
0000
,
0100
0000
0100
0000
,
0010
0000
0010
0000
,
1000
0000
1000
0000
,
0001
0000
0001
0000
,
0100
0000
0100
0000
,
0010
0000
0010
0000
,
1000
0000
0001
0000
,
0100
0000
0010
0000
,
0100
0000
0010
0000
,
1000
0000
0001
0000
,
1000
0000
0010
0000
,
1000
0000
0010
0000
,
0100
0000
0001
0000
,
0100
0000
0001
0000
,
1000
1000
0001
0001
,
1000
0001
1000
0001
,
0100
0100
0010
0010
,
0100
0010
0100
0010
,
1000
0010
1000
0010
,
0100
0001
0100
0001
,
0010
0001
0010
0001
,
0010
0100
1000
0100
,
2000
0000
0000
0000
,
3000
0000
0000
0000
;

//---------------dance-single - DDRDAIKENKAI----------------
#NOTES:
     dance-single:
     DDRDAIKENKAI:
     Beginner:
     2:
     0.221,0.251,0.021,0.204,0.000,123.000,2.000,19.000,0.000,0.000,0.000,-1.000,-1.000,0.221,0.251,0.021,0.204,0.000,123.000,2.000,19.000,0.000,0.000,0.000,-1.000,-1.000: // measure 1
0000
0000
0000
0000
,  // measure 2
0000
0000
0000
0000
,  // measure 3
0000
0000
0000
0000
,  // measure 4
0000
0000
0000
0000
,  // measure 5
1000
0000
0000
0000
,  // measure 6
0001
0000
0000
0000
,  // measure 7
1000
0000
0000
0000
,  // measure 8
0001
0000
0000
0000
,  // measure 9
0100
0000
0100
0000
,  // measure 10
0100
0000
0100
0000
,  // measure 11
0010
0000
0010
0000
,  // measure 12
0010
0000
0010
0000
,  // measure 13
1000
0000
1000
0000
,  // measure 14
0001
0000
0001
0000
,  // measure 15
0100
0000
0100
0000
,  // measure 16
0010
0000
0010
0000
,  // measure 17
1000
0000
1000
0000
,  // measure 18
1000
0000
1000
0000
,  // measure 19
0001
0000
0001
0000
,  // measure 20
0001
0000
0001
0000
,  // measure 21
2002
0000
0000
3003
,  // measure 22
0001
0000
0000
0000
,  // measure 23
0001
0000
0000
0000
,  // measure 24
0100
0000
0000
0000
,  // measure 25
0100
0000
0000
0000
,  // measure 26
0010
0000
0000
0000
,  // measure 27
0010
0000
0000
0000
,  // measure 28
1000
0000
0000
0000
,  // measure 29
1000
0000
0000
0000
,  // measure 30
0001
0000
0000
0000
,  // measure 31
0100
0000
0000
0000
,  // measure 32
0001
0000
0000
0000
,  // measure 33
1000
0000
0000
0000
,  // measure 34
0001
0000
0000
0000
,  // measure 35
0100
0000
0000
0000
,  // measure 36
0001
0000
0000
0000
,  // measure 37
1000
0000
0000
0000
,  // measure 38
1001
0000
1000
0000
,  // measure 39
0001
0000
0100
0000
,  // measure 40
0001
0000
0010
0000
,  // measure 41
0100
0000
1000
0000
,  // measure 42
0010
0010
0010
0000
,  // measure 43
0100
0100
0100
0000
,  // measure 44
0001
0001
0001
0000
,  // measure 45
1000
1000
1000
0000
,  // measure 46
0001
0000
1000
0000
,  // measure 47
0001
0000
1000
0000
,  // measure 48
0010
0000
0100
0000
,  // measure 49
0010
0000
0100
0000
,  // measure 50
0001
0000
1000
0000
,  // measure 51
0001
0000
1000
0000
,  // measure 52
0100
0000
0010
0000
,  // measure 53
0100
0000
0010
0000
,  // measure 54
0002
0000
0003
0000
,  // measure 55
2000
0000
3000
0000
,  // measure 56
0200
0000
0300
0000
,  // measure 57
2000
0000
3000
0000
,  // measure 58
0020
0000
0030
0000
,  // measure 59
2000
0000
3000
0000
,  // measure 60
0200
0000
0300
0000
,  // measure 61
2000
0000
3000
0000
,  // measure 62
0002
0000
0003
0000
,  // measure 63
0200
0000
0300
0000
,  // measure 64
0020
0000
0030
0000
,  // measure 65
2000
0000
3000
0000
,  // measure 66
0002
0000
0003
0000
,  // measure 67
2000
0000
3000
0000
,  // measure 68
0200
0000
0300
0000
,  // measure 69
0020
0000
0030
0000
,  // measure 70
0001
0001
0001
0000
,  // measure 71
1000
1000
1000
0000
,  // measure 72
0010
0010
0010
0000
,  // measure 73
1000
1000
1000
0000
,  // measure 74
0001
0001
0001
0000
,  // measure 75
1000
1000
1000
0000
,  // measure 76
0100
0100
0100
0000
,  // measure 77
0010
0010
0010
0010
,  // measure 78
0020
0000
0000
0000
,  // measure 79
0030
0000
0000
0000
;
