#TITLE:Lonely;
#SUBTITLE:(Original Club Mix);
#ARTIST:Deep Spirit;
#TITLETRANSLIT:;
#SUBTITLETRANSLIT:;
#ARTISTTRANSLIT:;
#GENRE:;
#CREDIT:;
#MENUCOLOR:;
#BANNER:Lonely(OCM).png;
#BACKGROUND:Lonely(OCM)-bg.png;
#LYRICSPATH:Lonely (Original Club Mix).lrc;
#CDTITLE:CDTitle.png;
#MUSIC:Lonely (Original Club Mix).ogg;
#OFFSET:-0.010;
#SAMPLESTART:44.297;
#SAMPLELENGTH:14.300;
#SELECTABLE:YES;
#LISTSORT:;
#BPMS:0.000=141.000,40.000=70.500,74.000=141.000,105.014=141.000,138.000=70.500,142.000=141.000;
#STOPS:;
#TICKCOUNT:0.000=1;
#BGCHANGES:;
#KEYSOUNDS:;
#ATTACKS:;

//---------------dance-single - ----------------
#NOTES:
     dance-single:
     :
     Challenge:
     10:
     0.765,0.947,0.454,0.395,0.806: // measure 1
0000
0000
0000
0000
,  // measure 2
0000
0000
0000
0000
,  // measure 3
1000
0001
0100
0000
0001
1000
0100
0000
,  // measure 4
0010
0001
0100
0000
0010
1000
0001
0000
,  // measure 5
1000
0100
0001
0000
0001
0100
1000
0000
,  // measure 6
0100
0000
0010
0000
0001
0000
1000
0001
1000
0000
0001
0000
0100
0000
0010
0000
,  // measure 7
1000
0000
0100
0000
0010
0000
0001
0000
0010
0000
0100
0000
1000
0000
0001
0010
,  // measure 8
0100
0000
0010
0000
0001
0000
0100
0000
0010
0000
1000
0000
0100
0000
1000
0010
,  // measure 9
1000
0100
0010
0001
1000
0100
0010
0001
1000
0010
0100
0001
1000
0100
0010
0001
,  // measure 10
4000
3100
M400
0310
0M40
0031
00M4
1003
,  // measure 11
200M
0000
3200
2300
3M20
0000
0030
02M0
,  // measure 12
0302
0000
2003
000M
3002
0000
0203
0000
0320
0000
2030
0000
3002
M000
2003
0000
,  // measure 13
3020
0000
0230
03M2
2M03
0000
3000
M200
,  // measure 14
0320
0M00
0230
0000
2300
0000
3M20
0000
0230
0000
03M2
0000
0023
0000
M230
0000
,  // measure 15
1300
0000
0010
0000
1M00
0000
0001
0100
0001
0000
1000
0000
0100
0000
1000
0M00
0010
0000
0100
0000
0001
0000
1000
0100
1000
0000
0010
M000
0001
0000
0010
0000
,  // measure 16
1000
0000
M100
0000
0010
0000
0100
1000
0100
0000
1000
0000
M001
0000
0100
0000
0001
0M00
0010
0000
0001
0000
M100
0001
0100
0000
M010
0000
1000
0M00
0001
1000
,  // measure 17
00M1
0000
0010
0000
0001
00M0
1000
0100
1000
0000
0001
0000
M100
0000
0001
0000
1000
0M00
0010
0000
010M
0000
0010
1M00
0010
0000
0100
0000
001M
0000
1000
0000
,  // measure 18
0100
0000
M010
0000
010M
0000
1000
00M1
1000
0000
0100
0000
100M
0000
0001
0000
0M10
0000
0001
0000
1000
0000
0010
0100
0010
0000
1000
0000
0100
0000
M010
0001
,  // measure 19
0020
0000
0130
1000
0001
0100
0010
1000
0001
0000
0000
0000
0101
0000
0000
0000
,  // measure 20
0001
0010
0001
0100
0010
0000
0110
0000
,  // measure 21
0010
0100
0010
1000
0002
0000
0003
100M
,  // measure 22
0100
0010
0001
1000
0002
0000
1003
010M
,  // measure 23
1000
0001
1000
0010
1000
0000
1100
0M00
,  // measure 24
1000
0010
1000
0001
0010
0000
0011
00M0
,  // measure 25
0001
0010
0001
0100
0002
0000
0003
100M
,  // measure 26
0100
1000
0001
1000
0020
0000
0130
00M1
,  // measure 27
1000
0010
0100
0001
1001
000M
1100
0000
,  // measure 28
0010
M001
0101
0001
0010
0M00
1001
00M0
,  // measure 29
0100
1000
101M
1000
0M02
1000
1003
0M00
,  // measure 30
0001
1000
0010
M100
0002
0010
M013
0001
,  // measure 31
0010
010M
1000
0010
1M00
0001
1000
010M
,  // measure 32
M010
0000
010M
0000
M010
0000
0100
10MM
0100
0000
10M0
0M00
0001
M000
0100
000M
,  // measure 33
1000
00M0
0100
M000
00M1
0M00
100M
0M10
1000
0001
0010
0100
1000
0001
0010
0100
,  // measure 34
1000
0001
0010
0100
1000
0001
0010
0100
4000
0000
3010
0000
M040
0000
0130
0000
,  // measure 35
04M0
0301
0M04
1003
2002
0000
0000
3003
,  // measure 36
0004
4000
0000
0000
0000
0000
0000
0000
0000
0000
0000
0000
0000
0000
3003
0000
0001
0000
M000
0000
0001
0000
1000
0000
0100
0000
00M0
0000
1000
0000
0001
0000
,  // measure 37
0100
00M0
0001
1000
0100
0000
1M1M
0000
M1M1
0000
0001
0010
0100
M000
0010
M001
,  // measure 38
0100
M000
0010
100M
0100
0000
1MM1
0000
M11M
0000
0001
1000
0010
0M00
1000
0001
,  // measure 39
0010
0M00
0001
1000
0010
0000
1MM1
0000
M11M
0000
0001
1000
0100
0000
11MM
0000
,  // measure 40
1M1M
0000
1MM1
0000
MM11
0000
M1M1
0000
1MM1
0000
0010
1M0M
0010
000M
0100
M0M1
,  // measure 41
0100
000M
0010
1M0M
0010
0000
1MM1
0000
11MM
0000
1000
0MM1
1000
000M
0010
M10M
,  // measure 42
0010
000M
1000
0MM1
1000
0000
1MM1
0000
M1M1
0000
0001
M010
0M01
M000
0010
M10M
,  // measure 43
0010
0000
M00M
0000
0100
0000
10MM
0000
0100
000M
0000
0000
11MM
0000
0000
0000
101M
0000
0000
0000
0010
0000
0100
0000
0010
0000
0M00
0000
0010
0000
010M
0000
,  // measure 44
0010
1M00
0010
010M
M010
0100
M001
0010
0M01
00M0
100M
0010
010M
M000
01M0
0001
,  // measure 45
0M10
M000
001M
0100
10M0
0000
1M1M
0000
11MM
0000
0010
0001
0100
00M0
0100
0001
,  // measure 46
1000
0000
0000
00M0
0000
0000
1000
0000
0000
0010
0000
0000
0100
0000
0000
0000
0000
0000
M11M
0000
0000
0000
0000
0000
M1M1
0000
0000
0000
0000
0000
0010
0000
0000
1000
0000
0000
01M0
0000
0000
M000
000M
0000
0100
0000
0000
1000
0000
0000
,  // measure 47
0001
0M00
M000
00M0
0001
0000
0100
0000
0010
0000
0000
0000
M11M
0000
0000
0000
1MM1
0000
0000
0000
0010
0000
1000
0000
0100
0000
0000
0000
101M
0000
0000
0000
,  // measure 48
10M1
0000
0000
0000
0M11
0000
0000
0000
10M1
0000
0000
0000
110M
0000
0000
0000
1M01
0000
0000
0000
0010
0000
0100
0000
0001
M000
00M0
0M00
0001
0000
0010
0000
,  // measure 49
0100
000M
M000
00M0
0100
0000
1000
0000
0010
0M00
000M
0000
1000
00M0
0M01
0000
1000
00M0
0000
0M00
100M
0000
0010
0000
0100
000M
M000
00M0
0100
0000
00M1
0000
,  // measure 50
1M00
00M0
0000
000M
1000
00M0
0100
0000
M010
000M
0M00
0000
M010
0000
0M01
0000
10M0
0000
0M01
M000
0010
0000
010M
0000
10M0
0M00
0001
0000
M100
0000
0010
000M
,  // measure 51
1000
0000
0000
0000
0000
0000
0000
0000
0000
0000
0000
0000
010M
0000
0000
0000
0000
0000
0000
0000
0000
0000
0000
0000
1000
0000
0000
0000
0000
0000
0M00
0000
0000
0000
0000
0000
0010
0000
0000
0000
0000
0000
0000
0000
0000
0000
0000
0000
0100
0000
0000
0000
0000
0000
00M0
0000
0000
0000
0000
0000
M001
0000
0000
0000
0000
0000
0000
0000
0000
0000
0000
0000
0010
0000
0000
0000
0000
0000
0000
0000
0000
0000
0000
0000
010M
0000
0000
0000
0000
0000
0000
0000
0000
0000
0000
0000
1000
0000
0000
0000
0000
0000
0000
0000
0100
0000
0000
0000
0000
0000
0000
0000
0010
0000
0000
0000
0000
0000
0000
0000
0001
0000
0000
0000
0000
0000
0000
0000
0000
0000
0000
0000
0000
0000
0000
0000
0000
0000
0000
0000
0000
0000
0000
0000
1000
0000
0000
0000
0000
0000
0000
0000
0010
0000
0000
0000
0000
0000
0000
0000
0100
0000
0000
0000
0000
0000
0000
0000
0001
0000
0000
0000
0000
0000
0000
0000
0000
0000
0000
0000
0000
0000
0000
0000
0000
0000
0000
0000
0000
0000
0000
0000
,  // measure 52
1000
0001
0100
0010
0000
0000
1000
0001
1000
0001
0000
0000
1001
0000
0000
0100
0000
0000
1000
0000
0000
0001
0000
0000
,  // measure 53
0100
0000
0001
0000
1001
0000
0000
0000
1001
0000
0010
0000
1000
0000
0001
1000
,  // measure 54
0001
0010
0101
0000
0011
0010
0100
1000
,  // measure 55
0010
0100
0101
0000
1010
1000
1100
0100
,  // measure 56
1001
0010
0101
0000
1000
0100
0001
0100
,  // measure 57
1000
0000
0010
0000
1001
0000
0000
0000
0010
0000
0100
0000
0001
0000
1000
0100
,  // measure 58
1000
0001
0101
0000
0001
0010
1000
0010
,  // measure 59
0001
1000
1001
0000
M22M
0000
0000
0000
,  // measure 60
0000
0000
0330
0MM0
0000
0000
0000
0000
;

//---------------dance-single - ----------------
#NOTES:
     dance-single:
     :
     Hard:
     8:
     0.589,0.746,0.092,0.588,0.042:
0000
0000
0000
0000
,
0000
0000
0000
0000
,
1000
0001
1000
0000
0001
1000
0001
0000
,
0100
0001
0100
0000
0001
0100
0001
0000
,
1000
0010
1000
0000
0001
1000
0001
0000
,
0100
0001
0010
0001
0001
0010
0001
0100
,
0010
0000
0100
0000
0010
0000
0000
0000
1000
0000
0001
0000
1000
0000
0100
1000
,
0100
0000
1000
0000
0001
0000
0000
0000
0100
0000
0001
0000
0010
0000
0001
0100
,
0001
0010
1000
0010
0001
0010
1000
0001
,
2000
0100
3200
0010
0320
0001
0032
1000
,
2003
0000
3200
2300
3002
0000
0003
0020
,
0032
0203
0302
2003
3020
2030
3002
2003
,
3020
0000
0230
0302
2003
0000
3000
0200
,
0320
0230
2300
3002
2003
3020
2030
3200
,
0310
0001
0100
0000
0010
1000
0100
0000
2002
0000
0000
0000
3003
0000
1001
0000
,
1200
2300
3020
0230
0320
0230
0302
0203
,
0301
1000
0100
0000
1000
0001
0100
0000
2002
0000
0000
0000
3003
0000
0101
0000
,
0210
0010
0320
0100
0230
0002
0000
0000
,
0303
0000
0001
0010
0001
0010
0100
1000
0020
0000
0000
0000
1030
0000
0000
0000
,
0010
1000
0010
1000
0200
0000
1300
0000
,
0001
0100
0001
1000
0002
0000
0003
1000
,
0100
1000
0010
1000
0001
0000
0010
0100
,
0010
0001
0100
0010
2000
0000
3100
0000
,
1000
0001
0100
0001
0020
0000
0130
0000
,
0010
0001
0100
0010
2000
0000
3000
0100
,
1000
0010
1000
0001
2000
0000
3001
0100
,
0001
1000
0100
1000
1010
0000
1100
0000
,
1000
0010
1000
0100
0010
0000
0110
0000
,
0010
0001
0100
0001
2000
0000
3000
0001
,
0010
0100
1000
0001
2000
0000
3010
0100
,
0010
1000
0100
1000
0002
0100
0103
0001
,
0010
0100
1000
0010
0200
0001
0301
0010
,
1000
0000
0010
0000
0001
0000
1000
0001
1000
0000
0100
0000
1000
0000
0010
0000
,
0001
0010
1000
0100
2000
0001
3002
0100
,
0203
0010
0320
1000
2030
0001
0010
0001
,
0040
0000
0000
3030
1001
0100
0010
0100
,
1000
0100
0010
0001
1000
0010
0001
0010
,
1000
0010
0001
0010
1000
0010
0100
0010
,
1000
0010
0100
0010
1000
0010
1000
0001
,
0100
1000
0100
0001
1000
0010
0100
0010
,
1000
0010
0100
0010
0100
0001
0100
0010
,
0100
0001
0100
0010
1000
0001
0010
0100
,
1000
0001
0010
0100
1000
0001
1000
0001
,
1000
0001
1000
0001
0100
0010
0100
0001
,
0100
0010
0100
0001
1000
0001
0100
0001
,
1000
0001
0100
0001
1000
0100
0001
0100
,
1000
0100
0001
1000
0001
0100
0010
1000
,
0100
1000
0010
1000
0001
0010
1000
0010
,
0001
0010
1000
0010
0001
0100
1000
0100
,
0001
0100
1000
0100
1000
0010
0100
0001
,
1000
0100
0010
0001
2000
0100
3200
0010
,
0320
0001
0032
1000
1003
0001
0010
0100
,
1000
0001
0100
0000
0001
0010
0001
0100
,
0010
1000
0001
0000
1000
0100
1000
0010
,
0100
0001
1000
0000
0001
0001
1000
1000
,
0200
0000
1300
0000
0001
0100
0001
1000
,
0100
1000
0001
0000
1000
0010
1000
0100
,
0010
0100
1000
0000
0010
0100
0001
0010
,
0100
0010
0001
0000
2002
0000
0000
0000
,
0000
3003
0000
0000
;

//---------------dance-single - ----------------
#NOTES:
     dance-single:
     :
     Medium:
     6:
     0.455,0.423,0.092,0.344,0.000:
0000
0000
0000
0000
,
0000
0000
0000
0000
,
2000
0000
3100
0000
1000
0001
0100
0000
,
0002
0000
0103
0000
0001
1000
0100
0000
,
0010
0100
1000
0010
,
0100
0000
0000
0001
0001
0100
0001
0000
,
1000
0100
1000
0000
0010
0000
0100
0001
,
0100
0001
0100
0000
0010
0000
1000
0001
,
1000
0100
1000
0100
1000
0100
1000
0100
,
2000
3200
0320
0032
,
2003
0000
0100
0100
0200
0000
3300
0010
,
0001
0100
0001
1000
0001
0010
0100
1000
,
0020
0000
0100
0100
0200
0330
0000
0001
,
0010
0001
0010
0100
1000
0100
1000
0010
,
2000
0000
0001
0001
0002
0000
3003
0001
,
0100
0001
0010
0100
0010
0001
1000
0100
,
1000
0010
0100
0001
2000
0000
3000
0001
,
0010
0100
1000
0010
0002
0000
0000
0000
,
0003
0000
0101
1100
,
1000
0010
1000
0000
1100
0000
0101
0000
,
0001
0010
0001
0000
2000
0000
3010
0000
,
0010
0100
0010
0000
2000
0000
3100
0000
,
0010
0100
0010
0000
0001
0000
1100
0000
,
0001
0100
0010
0000
1000
0000
0101
0000
,
1000
0100
1000
0000
0002
0000
0103
0000
,
0010
1000
0100
0000
2000
0000
0010
0000
,
0010
3010
1001
0110
,
0001
1000
0100
0000
1001
0000
0110
0000
,
1000
0001
0100
0000
0020
0000
0130
0000
,
0010
1000
0100
0000
2000
0000
3001
0000
,
1000
0100
1000
0000
0002
0010
0013
0000
,
0001
0100
0010
0000
2000
0100
3100
0000
,
1000
0010
0100
0000
0001
1000
0001
1000
,
0001
1000
0001
1000
0002
0000
2003
0000
,
3002
2003
3200
0000
,
2000
0000
0000
3300
1000
0001
1000
0001
,
1000
0001
1000
0000
0010
0100
0010
0100
,
0010
0100
0010
0000
1000
0100
1000
0100
,
1000
0100
1000
0000
0001
0100
0001
0100
,
0001
0100
0001
0000
1000
0001
1000
0001
,
1000
0001
1000
0000
0100
0010
0100
0010
,
0100
0010
0100
0000
1000
0010
1000
0010
,
1000
0010
1000
0000
0001
0010
0001
0010
,
0002
0000
0003
0000
0001
0010
0001
0010
,
0001
0100
0001
0000
1000
0100
1000
0100
,
1000
0010
1000
0000
0010
0100
0010
0100
,
0010
0100
0001
0000
0100
0010
0100
0010
,
0100
0010
1000
0000
0001
0010
0001
0010
,
0100
1000
0001
0000
1000
0100
1000
0100
,
0010
0001
1000
0000
0010
0100
0010
0100
,
0010
0100
0010
0100
0002
0000
2003
0000
,
3002
0000
2003
0000
3010
0010
0000
0100
,
0010
0020
0030
0000
1000
1000
0000
0001
,
0001
1000
0100
0010
0001
0001
0000
1000
,
0001
0002
0003
0000
0020
0000
0230
0000
,
2300
0000
3002
0000
1003
1000
0100
0000
,
0010
0010
0100
0000
1000
1000
0001
0000
,
1000
0010
1000
0010
0100
0100
0001
0000
,
1000
1000
0001
0000
0220
0000
0000
0000
,
0000
0330
0000
0000
;

//---------------dance-single - ----------------
#NOTES:
     dance-single:
     :
     Beginner:
     1:
     0.192,0.299,0.050,0.260,0.000:
0000
0000
0000
0000
,
0000
0000
0000
0000
,
1000
0000
1000
0000
,
0001
0000
0001
0000
,
1000
0000
1000
0000
,
0001
0000
0100
0100
,
0100
0000
0100
0000
,
0010
0000
0010
0000
,
0100
0000
0100
0000
,
0001
0001
0001
0001
,
0002
0003
0200
0300
,
0020
0030
0200
0300
,
0002
0003
2000
3000
,
0200
0300
2000
3000
,
0020
0030
2002
3003
,
0002
0003
0200
0300
,
0020
0030
2002
3003
,
0200
0300
2000
3000
,
2002
3003
1000
0000
,
1000
0000
0001
0000
,
0001
0000
1000
0000
,
0100
0000
1000
0000
,
0001
0000
1000
0000
,
0001
0000
0100
0000
,
0001
0000
1000
0000
,
0010
0000
2002
0000
,
3003
0000
0100
0100
,
0000
0000
0001
0001
,
0000
0000
2000
0000
,
3000
0000
0002
0000
,
0003
0000
1000
1000
,
0000
0000
0010
0010
,
0000
0000
2000
0000
,
3000
0000
0002
0000
,
0003
0000
0220
0000
,
0000
0330
0001
0001
,
0001
0000
1000
1000
,
1000
0000
0010
0010
,
0010
0000
0100
0100
,
0100
0000
0001
0001
,
0001
0000
1000
1000
,
1000
0000
0100
0100
,
0100
0000
1000
1000
,
1000
1000
1000
0000
,
0010
0000
1000
0000
,
0001
0000
1000
0000
,
0010
0000
0100
0000
,
0001
0001
0001
0000
,
0010
0000
0001
0000
,
0100
0000
0010
0010
,
0010
0010
0020
0000
,
0030
0000
1000
0000
,
1000
0000
0100
0000
,
0100
0000
0001
0000
,
0001
0000
1000
1000
,
1000
0000
0010
0000
,
0010
0000
0001
0000
,
0001
0000
0010
0000
,
0010
0000
2002
0000
,
0000
3003
0000
0000
;

//---------------dance-single - ----------------
#NOTES:
     dance-single:
     :
     Easy:
     4:
     0.400,0.448,0.328,0.714,0.000:
0000
0000
0000
0000
,
0000
0000
0000
0000
,
2000
3100
2000
3100
,
0020
0130
0020
0130
,
2000
3100
2000
3100
,
2000
3000
0001
0001
,
0200
0301
0200
0301
,
0020
0031
0020
0031
,
2000
3002
2003
3002
,
0103
0100
0100
0100
,
0002
0000
0000
0003
2000
0000
3000
0000
,
0100
0100
0100
0100
1000
1000
1000
0000
,
0020
0030
0200
0300
0002
0000
0003
0000
,
1000
1000
1000
1000
0010
0010
0010
0000
,
0200
0300
0002
0003
2000
0000
3000
0000
,
0100
0100
1000
1000
0010
0100
0010
0000
,
2000
3000
0002
0003
0200
0000
0300
0000
,
0001
0010
0001
0010
0002
0000
0000
0000
,
0003
0000
2000
3100
,
1000
0001
2000
3100
,
0010
0100
2000
3000
,
0010
0100
0001
0101
,
1000
1100
2002
3003
,
0010
0100
0202
0303
,
1000
0100
2002
3003
,
0010
1000
0200
0000
,
1000
1300
2000
3100
,
0010
0100
2000
3100
,
0010
0001
0200
0310
,
1000
0100
2000
0010
,
0010
3010
0200
0301
,
0010
0100
0020
0031
,
1000
0001
0200
0320
,
2030
0000
3002
0000
2003
3000
2000
3000
,
2000
3000
2000
3000
0200
0000
0000
0000
,
2000
0000
0000
3300
0010
0000
1000
0000
,
0010
0110
0100
0001
,
0100
0101
0001
1000
,
0001
1001
1000
0001
,
1100
0101
1001
0010
,
1000
0100
1001
0010
,
0001
0100
0110
1000
,
0001
0100
0101
1100
,
0101
1100
1001
1000
,
0010
0100
0101
0010
,
0001
1000
1010
1000
,
0010
0100
0110
1000
,
0101
0110
0101
0001
,
1000
0001
0011
0001
,
1000
0010
2000
3002
,
0203
0310
2000
0001
,
0001
3001
2002
3003
,
2200
3300
0022
0033
,
0202
0303
2020
3030
,
0220
0330
1002
1000
,
2000
3003
2200
3300
,
2002
3003
0022
0033
,
0202
0303
2020
3030
,
0220
0330
2002
0000
,
0000
3003
0000
0000
;
