#TITLE:I Just Wanna See You;
#SUBTITLE:(feat. Vannah Rai);
#ARTIST:Quinton Jones;
#TITLETRANSLIT:;
#SUBTITLETRANSLIT:;
#ARTISTTRANSLIT:;
#GENRE:R&B;
#CREDIT:;
#MENUCOLOR:;
#NEWMETERSYSTEM:NO;
#BANNER:I Just Wanna See You (feat. Vannah Rai).png;
#BACKGROUND:I Just Wanna See You (feat. Vannah Rai)-bg.png;
#LYRICSPATH:;
#CDTITLE:CDTitle.png;
#MUSIC:I Just Wanna See You (feat. Vannah Rai).ogg;
#OFFSET:0.000;
#SAMPLESTART:40.000;
#SAMPLELENGTH:16.000;
#SELECTABLE:YES;
#LISTSORT:;
#BPMS:0.000=119.985;
#STOPS:;
#BGCHANGES:0.000=I Just Wanna See You (feat. Vannah Rai).avi=1.000=1=1=0,
240.000=I Just Wanna See You (feat. Vannah Rai)-bg.png=1.000=1=1=1,
99999=-nosongbg-=1.000=0=0=0 // don't automatically add -songbackground-
;
#ATTACKS:;

//---------------dance-single - DDRDAIKENKAI----------------
#NOTES:
     dance-single:
     DDRDAIKENKAI:
     Hard:
     7:
     0.538,0.517,0.098,0.398,0.159: // measure 1
0000
0000
0000
0000
,  // measure 2
0000
0000
0000
0000
,  // measure 3
0000
0000
0000
0000
,  // measure 4
0000
0000
0000
0000
,  // measure 5
1000
0100
1000
0100
0010
0010
0010
0000
,  // measure 6
0001
0000
0100
0000
0001
0000
0100
0000
0010
0000
0010
0000
0010
0000
0000
1000
,  // measure 7
0001
0100
0010
1000
0010
0010
0010
0100
,  // measure 8
0100
0001
0100
0001
1000
0010
1000
0020
,  // measure 9
0000
0000
0000
0000
0030
0000
1000
0000
0100
0000
0010
0000
0001
0000
0000
0001
,  // measure 10
1000
0000
0100
0000
1000
0000
0100
0000
1000
0000
0001
0000
0100
0000
0000
0100
,  // measure 11
0010
0000
1000
0000
0100
0000
0001
0000
0100
0000
1000
0000
0010
0000
0000
0010
,  // measure 12
0100
0001
0010
1000
0010
0001
0100
0000
,  // measure 13
0010
0000
1000
0000
0100
0000
0010
0000
0001
0000
0001
1000
0001
0000
0000
0000
,  // measure 14
1000
0000
0001
0000
0010
0000
0100
0000
1000
0000
1000
0001
1000
0000
0010
0000
,  // measure 15
0010
0000
1000
0000
1000
0000
0001
0100
0001
0000
0100
0010
0100
0000
0001
0000
,  // measure 16
0010
0000
0001
0000
0010
0000
0100
1000
0100
1000
0100
0000
0010
0000
0001
2000
,  // measure 17
0000
0000
3000
0001
0010
0100
2000
0000
,  // measure 18
3002
0000
1003
0100
0010
0001
0002
0000
,  // measure 19
2003
0000
3001
0100
0010
1000
0002
0000
,  // measure 20
2003
0000
3001
1000
0010
0100
0002
0000
,  // measure 21
1003
0001
0100
0010
2000
0000
3002
0000
,  // measure 22
0013
0100
1000
0100
0020
0001
0001
0031
,  // measure 23
0012
1003
2010
3001
,  // measure 24
0012
0000
1003
0000
2010
0100
0100
3100
,  // measure 25
0010
0001
0100
1000
0200
0000
0302
0000
,  // measure 26
0013
0000
1000
0000
0010
0000
0001
0000
2000
0000
0001
0000
0001
3000
0001
0000
,  // measure 27
0201
0310
2100
3010
,  // measure 28
0201
0000
0310
0010
0020
0100
0100
0130
,  // measure 29
0001
0010
0100
1000
0010
1000
0100
0010
,  // measure 30
0001
0100
0010
1000
0100
1000
0010
0200
,  // measure 31
0000
0000
0302
0000
0000
0000
0000
0000
1000
0000
0000
0003
0100
0000
0002
0000
,  // measure 32
0000
2003
0000
0000
0010
0100
0100
3100
,  // measure 33
0010
0100
0001
0010
1000
0010
0001
0100
,  // measure 34
0010
1000
0100
0001
0100
1000
0010
0200
,  // measure 35
0001
0302
1000
0000
2003
0000
3010
0100
,  // measure 36
0001
0010
0100
0000
0110
1000
1000
1000
,  // measure 37
1010
0000
0010
0000
0100
0000
0001
1000
0000
0001
1000
0000
0200
0000
0000
0000
,  // measure 38
0310
0000
0001
0000
0100
0000
0010
1000
0000
0010
1000
0000
0100
0000
0010
0000
,  // measure 39
0000
0000
0010
0000
0100
0000
1000
0010
0000
1000
0010
0000
0100
0000
0001
0000
,  // measure 40
0000
0000
0001
0000
0010
0000
1000
0010
0000
1000
0010
0000
0001
0000
0000
0000
,  // measure 41
0001
0000
0100
0000
0010
0000
1000
0100
0000
1000
0100
0000
2000
0000
0000
0000
,  // measure 42
3001
0000
0010
0000
0100
0000
1000
0010
0000
1000
0010
0000
2000
0000
0000
0000
,  // measure 43
3010
0000
1000
0000
0100
0000
0010
0001
0000
0010
0001
0000
1000
0000
0010
0000
,  // measure 44
1000
0000
0001
0000
0100
0000
0010
0100
0000
0010
0100
0000
0001
0000
1000
0000
,  // measure 45
0000
0001
0010
0100
1000
0010
0001
1000
,  // measure 46
0100
0001
1000
0010
1000
0100
0001
1000
,  // measure 47
0010
0001
0010
1000
0001
0100
1000
0010
,  // measure 48
1000
0100
1000
0010
0100
0001
0002
0000
,  // measure 49
0023
0000
0130
1000
0100
0010
0002
0000
,  // measure 50
1003
0000
0001
0100
0010
1000
0002
0000
,  // measure 51
1003
0000
0010
0100
0001
0010
0001
0000
,  // measure 52
0001
1000
0010
0001
0010
0100
0200
0000
,  // measure 53
0310
0000
1000
0000
0001
0000
0100
0010
0000
1000
0010
0000
0002
0000
0000
0000
,  // measure 54
0013
0000
1000
0000
0100
0000
0010
0100
0000
0010
0001
0000
1000
0000
0010
0000
,  // measure 55
2010
3001
1200
0310
,  // measure 56
0102
0000
1003
0010
0020
0000
0032
0000
,  // measure 57
0013
0000
1000
0000
0100
0000
0010
1000
0000
0010
0001
0000
0200
0000
0000
0000
,  // measure 58
0310
0000
1000
0000
0100
0000
0001
0100
0000
1000
0100
0000
0020
0000
0000
0000
,  // measure 59
0130
0000
1000
0000
0001
0000
0100
0010
0000
1000
0010
0000
0002
0000
0000
0000
,  // measure 60
0013
0000
1000
0000
0100
0000
0010
0001
0000
0010
0001
0000
0020
0000
0000
0000
,  // measure 61
0230
0000
0300
0000
;

//---------------dance-single - DDRDAIKENKAI----------------
#NOTES:
     dance-single:
     DDRDAIKENKAI:
     Medium:
     5:
     0.410,0.394,0.024,0.447,0.000: // measure 1
0000
0000
0000
0000
,  // measure 2
0000
0000
0000
0000
,  // measure 3
0000
0000
0000
0000
,  // measure 4
0000
0000
0000
0000
,  // measure 5
1000
0000
0001
0000
0100
0010
0100
0000
,  // measure 6
0001
0000
1000
0000
0010
0100
0010
0000
,  // measure 7
1000
0000
0100
0000
0001
0100
1000
0000
,  // measure 8
0001
0000
0010
0000
1000
0010
0001
0000
,  // measure 9
0001
0000
1000
0000
0010
1000
0100
0000
,  // measure 10
1000
0000
0001
0000
0010
0001
0100
0000
,  // measure 11
0010
0000
0001
0000
0010
1000
0100
0000
,  // measure 12
0010
0000
0001
0000
0010
0100
1000
0000
,  // measure 13
0010
0000
0010
0000
1000
0001
1000
0000
,  // measure 14
0100
0000
0100
0000
1000
0001
1000
0000
,  // measure 15
0010
0000
0001
0000
0100
1000
0100
0000
,  // measure 16
0001
0000
0010
0000
1000
0100
1000
0000
,  // measure 17
0200
0000
0310
0000
0001
0100
0010
0000
,  // measure 18
2000
0000
3010
0000
0100
0001
0010
0000
,  // measure 19
0002
0000
1003
0000
0001
0100
0010
0000
,  // measure 20
2000
0000
3010
0000
0100
0001
0010
0000
,  // measure 21
0100
1000
0010
0000
0100
0000
0001
0000
,  // measure 22
1000
0100
0010
0000
0001
0001
0001
0001
,  // measure 23
2000
3100
0002
0103
,  // measure 24
2000
0000
3010
0000
0002
0010
0013
0010
,  // measure 25
0001
0100
0001
0000
0010
0000
0001
0000
,  // measure 26
0100
0010
0100
0000
0001
0001
0001
0001
,  // measure 27
0002
0013
2000
3010
,  // measure 28
0002
0000
0103
0000
2000
0100
3100
0100
,  // measure 29
1000
0000
1000
0100
2000
0000
3002
0000
,  // measure 30
1003
0000
0001
0010
0002
0000
0203
0000
,  // measure 31
0310
0000
1000
0010
2000
0000
3002
0000
,  // measure 32
1003
0000
0001
0100
0002
0000
2003
0000
,  // measure 33
3200
0000
0310
0001
0020
0000
0230
0000
,  // measure 34
1300
0000
0001
0100
0002
0000
2003
0000
,  // measure 35
3010
0000
0100
0001
2000
0000
3020
0000
,  // measure 36
1030
0100
0010
0001
,  // measure 37
1000
0100
1000
0100
2000
0000
3010
0000
,  // measure 38
0100
0001
0100
0001
0200
0000
0301
0010
,  // measure 39
0000
0010
0001
0000
0100
0000
0010
1000
,  // measure 40
0000
1000
0100
0000
1000
0001
1000
0000
,  // measure 41
0001
0100
0001
0100
0020
0000
1030
0000
,  // measure 42
0100
0010
0100
0010
0002
0000
1003
0000
,  // measure 43
0100
1000
0100
1000
0200
0000
1300
1000
,  // measure 44
0010
0100
0010
0100
0020
0000
2030
0000
,  // measure 45
3000
0001
0010
0000
0100
0000
1000
0001
,  // measure 46
0000
0001
1000
0000
0010
0000
0100
0001
,  // measure 47
0000
0001
0010
0000
0100
0000
1000
0010
,  // measure 48
0000
0010
1000
0100
1000
0100
2000
0000
,  // measure 49
3001
0000
0010
0100
1000
0000
1002
0000
,  // measure 50
1003
0000
0100
0010
0001
0000
1002
0000
,  // measure 51
1003
0000
0001
0100
0010
0000
0120
0000
,  // measure 52
1030
0001
1000
0001
0100
0010
0200
0000
,  // measure 53
0301
0010
0100
0000
2000
0000
3001
0000
,  // measure 54
0100
0010
1000
0000
0200
0000
0310
0001
,  // measure 55
0020
0130
2000
3001
,  // measure 56
0200
0000
0310
1000
0020
0000
0230
0000
,  // measure 57
0301
0000
1000
0100
0020
0000
0032
0000
,  // measure 58
0103
0000
0001
0010
0200
0000
2300
0000
,  // measure 59
3010
0000
1000
0100
0020
0000
0032
0000
,  // measure 60
0103
0000
0001
0010
0200
0000
2300
0000
,  // measure 61
0200
0000
3300
0000
;

//---------------dance-single - DDRDAIKENKAI----------------
#NOTES:
     dance-single:
     DDRDAIKENKAI:
     Easy:
     3:
     0.258,0.246,0.016,0.285,0.000: // measure 1
0000
0000
0000
0000
,  // measure 2
0000
0000
0000
0000
,  // measure 3
0000
0000
0000
0000
,  // measure 4
0000
0000
0000
0000
,  // measure 5
1000
1000
1000
1000
,  // measure 6
0100
0100
0100
0100
,  // measure 7
0010
0010
0010
0010
,  // measure 8
0001
0001
0001
0002
,  // measure 9
0000
0003
0100
0100
,  // measure 10
0010
0010
0010
0010
,  // measure 11
1000
1000
1000
1000
,  // measure 12
0001
0001
0001
0001
,  // measure 13
0010
0100
0010
0100
,  // measure 14
1000
0001
1000
0001
,  // measure 15
0100
0010
0100
0010
,  // measure 16
1000
0001
1000
0001
,  // measure 17
2000
3000
0001
0001
,  // measure 18
0002
0003
0100
0100
,  // measure 19
0200
0300
0010
0010
,  // measure 20
0020
0030
1000
1000
,  // measure 21
1001
0001
0100
0100
,  // measure 22
0001
1000
0100
0100
,  // measure 23
0020
0030
0002
0003
,  // measure 24
2000
3000
0020
0030
,  // measure 25
0100
0001
1000
0100
,  // measure 26
0100
1000
0001
0100
,  // measure 27
0200
0300
0020
0030
,  // measure 28
2000
3000
0001
0001
,  // measure 29
2000
0000
0100
3100
,  // measure 30
0020
0000
0001
0031
,  // measure 31
0200
0000
0010
0310
,  // measure 32
2000
0000
0001
0001
,  // measure 33
3002
0000
0100
0103
,  // measure 34
0020
0000
1000
1030
,  // measure 35
0200
0000
0310
0000
,  // measure 36
0010
0010
0010
0000
,  // measure 37
0001
0100
0002
0003
,  // measure 38
1000
0100
2000
3000
,  // measure 39
0010
0010
0020
0030
,  // measure 40
0100
0100
0200
0300
,  // measure 41
0001
0010
0002
0003
,  // measure 42
1000
0100
2000
3000
,  // measure 43
0001
0100
0002
0003
,  // measure 44
1000
0010
1000
1000
,  // measure 45
0001
0001
1000
0100
,  // measure 46
1000
1000
0001
0100
,  // measure 47
0010
0010
0100
0001
,  // measure 48
1000
1000
0100
0200
,  // measure 49
0000
0300
0010
0010
,  // measure 50
0000
0001
1000
0001
,  // measure 51
0000
1000
0001
0100
,  // measure 52
0010
0010
0010
0010
,  // measure 53
0110
0100
0001
0001
,  // measure 54
0010
0100
1000
1000
,  // measure 55
0020
0030
2000
3000
,  // measure 56
0002
0003
0100
0100
,  // measure 57
0200
0000
0010
0310
,  // measure 58
2000
0000
0001
3001
,  // measure 59
0020
0000
0100
0130
,  // measure 60
2000
0000
0001
3001
,  // measure 61
0200
0000
0300
0000
;
