#TITLE:I Belong To You;
#SUBTITLE:;
#ARTIST:Martina Dry;
#TITLETRANSLIT:;
#SUBTITLETRANSLIT:;
#ARTISTTRANSLIT:;
#GENRE:;
#CREDIT:;
#MENUCOLOR:;
#METERTYPE:DDR;
#BANNER:I Belong To You.png;
#BACKGROUND:I Belong To You-bg.png;
#LYRICSPATH:;
#CDTITLE:CDTitle.png;
#MUSIC:I Belong To You.ogg;
#OFFSET:0.003;
#SAMPLESTART:48.000;
#SAMPLELENGTH:12.000;
#SELECTABLE:YES;
#LISTSORT:;
#BPMS:0.000=160.000;
#STOPS:;
#BGCHANGES:;
#ATTACKS:;

//---------------dance-single - ----------------
#NOTES:
     dance-single:
     :
     Hard:
     7:
     0.538,0.559,0.381,0.190,0.005:
0000
0000
0000
0000
,
0000
0000
0000
0000
,
0000
0000
0000
0000
,
0000
0000
0000
0000
,
0000
0000
0000
0000
,
0000
0000
0000
0000
,
0000
0000
0000
0000
,
0000
0000
0000
0000
1000
0001
0100
0010
,
0110
0000
0000
0000
0010
0100
0001
1000
,
0001
0000
0000
0000
0001
0010
0001
0010
,
0100
0010
0100
0010
0100
1000
0100
0010
,
0001
0000
0000
0000
1000
0001
0100
0010
,
1000
0000
0000
0000
0001
1000
0010
0100
,
0001
0000
0000
0000
1000
0001
1000
0001
,
1000
0010
0100
0001
0010
0001
0100
0010
,
1000
1010
1001
0101
,
0002
0010
0003
0010
0001
0100
0010
1000
,
0100
1100
1001
0101
,
0020
0100
0030
0100
0010
1000
0010
0100
,
0001
0011
0110
1100
,
0200
1000
0300
1000
0100
0010
0001
0100
,
0010
0110
1010
0011
,
0002
0100
0003
0100
0001
0010
0100
1000
,
0000
0000
0000
0000
1010
0000
0000
0000
1001
0000
0000
0000
0101
0000
0000
0001
,
0010
0001
0100
0010
1000
0100
1000
0000
,
1100
0000
0100
1000
0010
0100
0001
0010
,
0100
1000
0010
0000
0100
0001
0010
0000
,
2002
0000
0000
0000
0000
0000
3003
0001
,
1000
0000
1000
0001
0000
0001
0100
0000
,
0010
0000
0010
0100
0000
0100
0010
0000
,
1000
0100
1000
0000
0001
0100
0010
1000
,
0000
1010
1001
0101
,
1001
0000
0001
0010
0000
0010
0001
0000
,
0100
0000
0010
1000
0000
1000
0100
0000
,
1000
0000
0001
0100
0000
0100
0001
0000
,
0010
0100
1000
0100
0010
0001
0100
0000
,
0010
0000
0010
1000
0001
0000
0001
1000
,
0010
0000
0010
1000
0001
1000
0200
0000
,
0320
0000
0032
0000
0103
0010
1000
0000
,
0020
0230
0302
2003
,
3001
0000
0010
0001
0100
0010
1000
0000
,
0100
0000
1000
0010
0100
0001
0010
0000
,
0100
0000
1000
0010
0100
0001
1000
0000
,
1001
0000
0001
0100
0010
1000
0001
0000
,
1000
0000
1000
0100
0010
0000
0010
0100
,
1000
0000
1000
0100
0010
0001
0200
0000
,
0320
0000
2030
0000
3001
1000
0010
0000
,
1010
1001
0101
0110
,
0100
1000
0010
1000
1001
0000
0000
0000
,
0001
0010
0001
1000
0100
0000
0000
0000
,
1000
0010
1000
0001
0010
0001
1000
0001
,
0100
0010
1000
0001
1000
0000
0000
0000
,
0010
1000
0010
1000
0100
0000
0000
0000
,
0010
0001
0010
0001
0100
0000
0000
0000
,
0001
1000
0001
1000
0001
0100
0010
1000
,
0001
1000
0010
0100
0001
0000
0011
0000
,
1001
0000
1100
0000
1010
0000
1000
0100
,
0000
1000
0001
0000
0101
0000
0010
0000
,
0001
0000
0100
0001
0000
0101
0000
1001
,
0000
0100
1000
0000
2020
0000
0000
0000
,
0000
0000
3030
0001
0010
0000
0010
0001
,
0000
0001
0100
0000
0010
0000
0010
1000
,
0000
1000
0001
0000
1000
0000
0001
0010
,
0100
1000
0001
1000
0000
0000
0010
0000
,
1000
0000
0001
0000
0110
0000
0001
1000
,
0000
1000
0001
0000
0101
0000
0001
0010
,
0000
0010
0100
0000
1000
0000
1000
0010
,
0000
0010
1000
0000
0001
0010
0100
1000
,
0100
0010
0001
0000
1000
0000
1000
0010
,
0100
0000
0001
0010
0100
0000
1000
0010
,
0100
0001
0020
0000
0230
0000
2300
0000
,
3010
0100
0001
0000
0011
0000
1001
0000
,
1100
0110
0001
0000
;

//---------------dance-single - ----------------
#NOTES:
     dance-single:
     :
     Medium:
     6:
     0.385,0.427,0.263,0.009,0.000:
0000
0000
0000
0000
,
0000
0000
0000
0000
,
0000
0000
0000
0000
,
0000
0000
0000
0000
,
0000
0000
0000
0000
,
0000
0000
0000
0000
,
0000
0000
0000
0000
,
0000
0000
0000
0000
,
1001
0000
0000
0000
0001
1000
0010
0000
,
1010
0000
0000
0000
0010
1000
0001
0000
,
1000
0001
0100
0000
0001
1000
0100
0000
,
1000
0000
0000
0000
0001
0010
0001
0000
,
0100
0000
0000
0000
0010
1000
0010
0000
,
0100
0000
0000
0000
0001
1000
0001
0000
,
0100
0001
1000
0100
,
0010
0011
0011
0011
,
0001
0000
1000
0001
,
0100
0010
1000
0001
,
1000
0000
0001
0010
,
0001
0100
0010
0100
,
0001
0000
1000
0100
,
0010
0001
0010
0100
,
1000
0000
0000
0000
0010
0000
0100
0010
,
0000
1000
0001
1000
,
0001
1000
0100
0100
,
1000
0001
0100
0100
,
0001
0010
0001
0001
,
1000
0000
0001
0000
1000
0000
1000
0001
,
1000
0000
0100
1000
0000
0000
1000
0000
,
0001
0000
0100
0010
0000
0100
0010
0000
,
1000
0000
0001
0000
1000
0100
0000
1000
,
0000
0001
1000
0001
,
1001
0000
0001
1000
0000
0001
1000
0000
,
0010
0000
1000
0001
0000
0001
1000
0000
,
0010
0000
1000
0010
0000
0010
1000
0000
,
0100
0000
1000
0100
0000
0100
1000
0000
,
0001
0000
0000
0001
1000
0000
0000
1000
,
0001
0100
0010
1000
,
0001
0000
0000
0001
0010
0000
0000
0000
,
0011
1001
1100
0101
,
1001
0000
0001
1000
0000
1000
0010
0000
,
0100
0000
0010
0100
0000
0100
0001
0000
,
1000
0000
0001
0010
0000
0010
0001
0000
,
0100
0000
0010
1000
0000
1000
0001
0000
,
1000
0000
0000
1000
0001
0000
0000
0000
,
0001
0100
0010
1000
,
0001
1000
0100
0010
,
0011
1001
1100
0101
,
0000
0000
1001
0000
,
0001
1000
0001
0000
0101
0000
0000
0000
,
1000
0001
1000
0000
0100
0000
0010
0000
,
0001
1000
1001
0000
,
0010
0100
0010
0000
0110
0000
0000
0000
,
0100
0010
0100
0000
0110
0000
0000
0000
,
0001
1000
0001
0000
1000
0000
0100
0000
,
0010
0001
1000
1100
,
0110
0000
0011
0000
1001
0000
0001
1000
,
0000
1000
0001
0000
0100
0000
0010
0000
,
1000
0000
0001
0010
0000
0010
0000
0001
,
0000
0001
1000
0000
0200
0000
0000
0000
,
0000
0000
0300
0100
1000
0000
1000
0001
,
0000
0000
1000
0000
0001
0000
0000
0100
,
0000
0010
1000
0000
0001
0000
1000
0000
,
0100
0010
0000
0001
0000
0000
1000
0000
,
0010
0000
0100
0000
1001
0000
0001
0100
,
0000
0001
0100
0000
0010
0000
1000
0100
,
0000
1000
0100
0000
0010
0000
0100
0010
,
0000
0100
0010
0000
0001
0000
1000
0001
,
0000
1000
0001
0000
0100
0000
0010
0000
,
1000
0001
1000
0010
,
0100
0001
0010
0100
,
1000
0010
0110
1001
,
0110
1001
0100
0000
;

//---------------dance-single - ----------------
#NOTES:
     dance-single:
     :
     Easy:
     4:
     0.311,0.395,0.136,0.136,0.000:
0000
0000
0000
0000
,
0000
0000
0000
0000
,
0000
0000
0000
0000
,
0000
0000
0000
0000
,
0000
0000
0000
0000
,
0000
0000
0000
0000
,
0000
0000
0000
0000
,
0000
0000
0000
0000
,
1001
0000
1000
1000
,
1100
0000
0001
0001
,
0100
0001
0010
0100
,
1000
0000
0001
0100
,
0101
0000
1000
0001
,
1001
0000
0010
0010
,
1000
0100
0010
0001
,
1000
0001
0100
0010
,
1000
0000
0001
0000
,
1000
0001
0100
0010
,
0100
0000
0010
0000
,
0100
0010
1000
0001
,
1000
0000
0001
0000
,
1000
0100
0010
0001
,
1000
0000
0001
0000
,
1000
0001
1000
0001
,
0100
0010
0100
0010
,
1000
0001
1000
1000
,
0010
0100
0010
0100
,
0001
1000
0001
0001
,
1000
0100
0010
0001
,
1000
0001
0100
0010
,
0220
0000
0000
0000
0000
0000
0000
0330
,
0000
0001
0001
0001
,
1000
0100
0010
0001
,
0001
0010
0100
1000
,
1000
0010
0100
0001
,
0001
0100
0010
1000
,
0002
0003
0200
0300
,
0000
0010
1000
0001
,
2000
3000
0200
0300
,
0010
0100
0010
0100
,
1000
1000
0100
0010
,
0001
0001
0010
0100
,
1000
1000
0010
0100
,
0001
0001
0100
0010
,
2000
3000
0002
0003
,
0000
0100
0001
1000
,
0200
0300
2000
3000
,
0010
0100
0001
1000
,
0000
0000
1001
0000
,
0100
1000
1100
0000
,
0100
1000
0010
0100
,
0001
0010
0001
0000
,
0010
0001
0011
0000
,
0001
0100
0101
0000
,
0001
0100
0010
1000
,
0100
0010
0001
1000
,
1000
1000
0001
1000
,
0001
1000
0100
0000
,
1000
0100
1000
0010
,
1000
0001
0200
0000
,
0000
0000
0000
0300
0001
0000
0000
0000
,
1000
0000
0100
0000
,
1000
0000
0001
0000
,
0100
0000
1001
1001
,
1001
1001
0110
0010
,
0100
0010
1000
0001
,
1000
0001
1000
0100
,
0010
0001
0001
0010
,
0100
1000
0002
0003
,
0020
0030
0000
0100
,
1000
0100
0020
0030
,
0002
0003
1000
0001
,
1000
1001
0001
0000
;
