#TITLE:Hey Momma/Hit The Road Jack;
#SUBTITLE:;
#ARTIST:Pentatonix;
#TITLETRANSLIT:;
#SUBTITLETRANSLIT:;
#ARTISTTRANSLIT:;
#GENRE:;
#CREDIT:;
#MENUCOLOR:;
#NEWMETERSYSTEM:NO;
#BANNER:Hey Momma-Hit The Road Jack.png;
#BACKGROUND:Hey Momma-Hit The Road Jack-bg.png;
#LYRICSPATH:;
#CDTITLE:CDTitle.png;
#MUSIC:Hey Momma-Hit The Road Jack.ogg;
#OFFSET:0.000;
#SAMPLESTART:28.075;
#SAMPLELENGTH:16.360;
#SELECTABLE:YES;
#LISTSORT:;
#BPMS:0.000=101.506;
#STOPS:;
#BGCHANGES:12.000=Hey Momma-Hit The Road Jack.avi=1.000=1=0=0,
212.000=Hey Momma-Hit The Road Jack-bg.png=1.000=0=0=1,
99999=-nosongbg-=1.000=0=0=0 // don't automatically add -songbackground-
;
#ATTACKS:;

//---------------dance-single - DDRDAIKENKAI----------------
#NOTES:
     dance-single:
     DDRDAIKENKAI:
     Hard:
     9:
     0.754,0.739,0.697,0.572,0.596: // measure 1
0000
0000
0000
0000
,  // measure 2
0000
0000
0000
0000
,  // measure 3
0000
0000
0000
0000
,  // measure 4
0000
0000
0000
0000
,  // measure 5
2001
0000
3001
0000
1000
1000
0000
0000
0001
0010
0001
0010
0100
1000
0100
1000
,  // measure 6
0001
0000
0001
0000
0100
0000
0100
0000
0010
1000
0010
0000
0220
0000
0000
0000
,  // measure 7
0330
0000
1000
0000
0001
0001
0000
1000
0010
1000
0010
1000
0001
0100
0001
0100
,  // measure 8
0010
0000
0010
0000
1000
0000
1000
0001
0100
0001
0100
0000
0202
0000
0303
0000
,  // measure 9
0011
0000
0001
0100
0000
0010
1000
0000
0001
1000
0100
0010
0001
0100
0010
0000
,  // measure 10
1000
0000
0001
0010
0000
0100
1000
0000
0001
1000
0100
0010
0001
0100
0010
0000
,  // measure 11
1000
0000
0001
0010
0000
1000
0010
0000
0001
0000
1000
0100
0000
0001
0100
0000
,  // measure 12
1100
0000
0000
1100
0000
0000
0011
0000
0000
0011
0000
0000
0101
0000
0000
0020
0000
0000
2030
0000
0000
3100
0000
0010
,  // measure 13
0002
0000
0000
1003
0000
0000
2000
0000
0000
3001
0000
0000
0100
0000
0100
0010
0000
0000
1000
0000
0000
0100
0000
0000
,  // measure 14
0020
0000
0000
0032
0000
0000
0023
0000
0000
0230
0000
0000
0320
0000
0000
0230
0000
0000
2300
0000
0000
3001
0000
0001
,  // measure 15
2000
0000
0000
3001
0000
0000
0002
0000
0000
1003
0000
0000
0100
0000
0100
0010
0000
0000
0001
0000
0000
0100
0000
0000
,  // measure 16
0110
0000
0010
0000
1020
0000
0000
0000
1030
0001
1000
0001
0100
0010
0100
0010
,  // measure 17
1000
0000
1010
0000
0010
0100
0000
0010
1000
0100
1000
0000
1000
0001
0010
0000
,  // measure 18
0021
0000
0000
0031
0000
0000
0102
0000
0000
0103
0000
0000
0210
0000
0000
0310
0000
0000
2001
0000
0000
3001
0000
1000
,  // measure 19
0100
0000
1100
0000
0100
0010
0000
0010
0001
0100
0001
0000
0010
0000
0100
0000
,  // measure 20
1000
0000
0000
1100
0000
0000
0001
0000
0000
0101
0000
0000
1020
0000
0000
1030
0000
0100
0000
0000
0100
1000
0000
0000
,  // measure 21
0001
0000
0000
0101
0000
0000
1000
0000
0000
1100
0000
0000
0012
0000
0000
1003
0000
0100
0000
0000
0100
1000
0000
0000
,  // measure 22
0010
0000
0000
0101
0000
0000
0010
0000
0000
1100
0000
0000
1002
0000
0000
1003
0000
0010
0000
0000
0010
1000
0000
0000
,  // measure 23
1001
0000
0000
1001
0000
0000
0101
0000
0000
0101
0000
0000
0001
0000
0001
0010
0000
0010
0100
0000
0100
2000
0000
0000
,  // measure 24
3010
0000
1000
0100
0000
0000
1000
0000
0001
0100
0000
0010
0100
0000
0010
1000
0000
0000
1002
0000
0000
0000
0000
1003
,  // measure 25
0100
0000
0100
0010
0000
0000
0100
0000
0100
1000
0000
0001
0010
0000
0100
1000
0000
0000
1010
0000
0000
0110
0000
0000
,  // measure 26
1001
0000
0000
0000
0000
0011
0000
0000
0101
0000
0000
0000
1020
0000
1030
0000
0000
0100
1000
0000
0100
0010
0000
0000
,  // measure 27
0110
0200
2300
3020
0032
0023
2030
3100
,  // measure 28
1100
0000
1000
0001
0000
0001
0100
0000
0100
0001
0000
0001
0010
0000
0001
0100
0000
0000
0102
0000
0000
0103
0000
0000
,  // measure 29
0002
0000
0000
0023
0000
0000
0130
0000
0100
1000
0000
0000
1010
0000
0000
0001
0000
0000
0101
0000
0000
0110
0000
0000
,  // measure 30
1001
0000
0000
0000
0000
1010
0000
0000
1100
0000
0000
0000
0110
0000
0000
0000
0000
1000
0001
0000
0001
1000
0000
0000
,  // measure 31
1001
0000
0000
2000
0000
0000
3200
0000
0000
2300
0000
0000
3020
0000
0000
0230
0000
0000
0302
0000
0000
0020
0003
0000
,  // measure 32
0230
1000
0010
0010
1000
1000
0010
0010
,  // measure 33
0302
0000
0000
0100
0000
0000
1000
0000
0000
1000
0000
0000
0010
0000
0000
0010
0000
0000
0100
0000
0000
0103
0000
0100
,  // measure 34
0010
0000
0000
1000
0000
1000
0100
0000
0000
0010
0000
0010
0001
0000
0000
0100
0000
0100
0010
0000
0000
1000
0000
1000
,  // measure 35
0010
0000
0010
1000
0000
1000
0001
0000
0001
0100
0000
0100
0010
0000
0010
1000
0100
1000
0100
0010
0100
1000
0000
0000
,  // measure 36
1001
0000
0001
0010
0002
0000
1003
0000
0001
1000
0001
0100
0020
0000
1030
0100
,  // measure 37
1100
0000
0000
0000
0000
0000
0100
0000
0000
0010
0000
0000
0001
0000
0000
0000
0000
0000
2001
0000
0000
0000
0000
0000
3001
0000
0000
0000
0001
0000
0010
0000
0100
0000
1000
0000
0002
0000
0000
0000
0000
0000
0103
0000
0000
0000
0000
0000
,  // measure 38
0110
0000
1000
0100
1100
1000
0100
1000
1010
0000
0010
0100
0110
0000
0010
0100
,  // measure 39
0101
0000
0000
0101
0000
0000
1001
0000
0000
1001
0000
0000
1100
0000
1000
0100
0000
1000
0100
1000
0100
0010
0001
0010
,  // measure 40
0001
0000
0000
0101
0000
0000
0000
0000
0000
0101
0000
0000
0001
0000
0001
0010
0000
0000
0100
0000
0000
1000
0000
0000
,  // measure 41
0020
0000
0000
0032
0000
0000
0023
0000
0000
2030
0000
0000
3020
0000
0000
2030
0000
0000
3002
0000
0000
1003
0000
0100
,  // measure 42
1000
0000
0000
1010
0000
0000
0000
0000
0000
0110
0000
0000
0100
0000
0100
0001
0000
0000
0010
0000
0000
0001
0000
0000
,  // measure 43
1001
0000
0000
1000
0000
0000
2010
0000
0000
0010
0000
0000
3001
0000
0001
0000
0001
0000
1000
0000
0100
0000
0010
0000
,  // measure 44
1001
0000
1001
0000
0001
0100
0000
0010
1000
0100
1000
0000
0010
0100
0010
0000
,  // measure 45
0210
0000
0310
0000
1020
0000
1030
0000
2001
0000
3001
0000
0201
0000
0301
0010
,  // measure 46
0110
0000
0110
0000
0100
1000
0000
1000
0100
0010
0001
0000
0100
0010
1000
0000
,  // measure 47
0001
0000
0000
0101
0000
0000
1000
0000
0000
1100
0000
0000
0021
0000
0000
0031
0000
0100
0000
0000
0100
0010
0000
0000
,  // measure 48
1000
0000
0000
1100
0000
0000
0001
0000
0000
0011
0000
0000
2010
0000
0000
3010
0000
0100
0000
0000
0100
0001
0000
0000
,  // measure 49
0010
0000
0000
0011
0000
0000
0001
0000
0000
0101
0000
0000
0210
0000
0000
0310
0000
0100
0000
0000
0100
0001
0000
0000
,  // measure 50
0011
0000
0000
0011
0000
0000
1100
0000
0000
1100
0000
0000
0110
0000
0100
0010
0000
0100
1000
0000
0100
0001
0000
0100
,  // measure 51
2000
0000
3001
0010
0001
0010
0001
0000
1000
0100
1000
0200
1000
0000
1300
0000
,  // measure 52
0000
1000
0001
0010
0001
0010
0001
0100
0001
1000
0001
1000
0001
0100
0001
0100
,  // measure 53
0000
0000
0020
1030
0010
0100
0002
0003
0100
0001
0200
0320
1000
0000
2000
3030
,  // measure 54
1001
0000
0000
0000
0000
0000
0001
0001
;

//---------------dance-single - DDRDAIKENKAI----------------
#NOTES:
     dance-single:
     DDRDAIKENKAI:
     Medium:
     5:
     0.362,0.380,0.118,0.306,0.047:
0000
0000
0000
0000
,
0000
0000
0000
0000
,
0000
0000
0000
0000
,
0000
0000
0000
0000
,
1000
0001
0100
0000
0010
1000
0100
0000
,
1000
1000
0100
0100
0010
0010
0002
0000
,
0003
1000
0100
0000
0010
0001
0100
0000
,
0010
0010
1000
1000
0001
0100
0020
0000
,
1030
0000
0000
1000
0000
0000
1000
0000
0100
0000
0000
0010
0000
0000
0001
0000
,
0010
0000
0000
0010
0000
0000
0010
0000
0001
0000
0000
0100
0000
0000
0010
0000
,
1000
0000
0000
1000
0000
0000
0100
0000
0001
0000
0000
0001
0000
0000
0100
0000
,
1000
0001
1000
0001
2002
3003
0000
0001
,
0001
0000
0000
0000
0000
0000
1000
0000
0000
0000
0000
0000
0100
0000
0000
0000
0000
0010
0000
0000
0000
0010
0000
0000
,
0001
0001
0100
0100
0010
0010
1000
1000
,
0001
0000
0000
0000
0000
0000
1000
0000
0000
0000
0000
0000
0010
0000
0000
0000
0000
0100
0000
0000
0000
0100
0000
0000
,
0010
0000
0120
0000
1030
0001
1000
0001
,
0100
0100
0010
0000
1000
0100
0001
0000
,
0100
1000
0010
0100
0001
0010
0001
0000
,
1000
1000
0001
0000
0100
0001
0010
0000
,
0001
0001
1000
1000
0200
0000
0320
0030
,
0001
0001
1000
1000
0020
0000
0230
0300
,
0001
0001
1000
1000
0020
0000
2030
3000
,
0001
0001
1000
1000
2002
0000
0000
3003
,
0001
0000
1000
0100
0010
0001
0100
0000
,
0010
1000
0100
0010
0001
0100
1000
0000
,
1200
0000
0000
0000
0000
0001
0000
0000
0301
0000
0000
0000
2002
0000
0000
0000
0000
0000
3003
0000
0000
0000
0000
0000
,
2000
0000
0000
0000
0001
0001
0001
3001
,
1000
0000
0001
0000
0100
0100
0010
0000
,
1000
1000
0010
0010
0100
0100
0001
0000
,
1001
0000
0000
0000
0000
0001
0000
0000
1000
0000
0000
0000
1001
0000
0000
0000
0000
0000
1000
0000
0000
0001
0000
0000
,
2002
0000
0000
0000
0000
3003
0000
0000
0000
0000
0000
0000
0000
0000
0000
0000
0000
0000
0000
0000
0000
0000
0000
0000
,
2000
0000
0000
0000
,
3002
0000
0000
0003
,
0200
0010
0010
0010
,
0310
0010
0010
0010
0220
0000
0000
0000
,
0330
0010
1000
0000
0100
0100
0010
0000
,
0110
0010
0001
0000
1000
0100
0001
0000
,
0100
1000
0010
1000
0100
1000
0010
1000
,
0002
0000
0023
0000
0230
0000
0000
1000
,
2300
0000
3001
0000
0100
0100
0010
0000
,
0100
0100
0001
0001
1000
1000
0010
0010
,
2000
0000
3001
0000
0100
0100
0010
0000
,
0110
0000
1010
0000
1000
1000
1000
1000
,
0001
0000
1001
0000
0001
0010
0100
0000
,
1000
0010
1000
0100
0010
0001
1000
0000
,
1000
0001
0100
0000
0010
1000
0100
0000
,
1000
1000
0001
0001
0200
0000
0320
0030
,
1000
1000
0100
0100
0020
0000
0032
0003
,
0100
0100
0010
0010
2000
0000
3002
0003
,
0010
0100
2000
0000
3001
0001
1000
1000
,
2002
0000
3003
0000
0000
0000
0100
0200
,
0300
0000
0000
0000
0000
0000
0010
0010
,
0000
1000
0000
0001
0000
1000
0000
0010
,
0110
0000
0000
0000
0000
0000
0100
0100
;

//---------------dance-single - DDRDAIKENKAI----------------
#NOTES:
     dance-single:
     DDRDAIKENKAI:
     Easy:
     3:
     0.259,0.317,0.212,0.266,0.000:
0000
0000
0000
0000
,
0000
0000
0000
0000
,
0000
0000
0000
0000
,
0000
0000
0000
0000
,
1001
1000
0001
0100
,
0010
0000
0100
0000
0010
0010
0020
0000
,
0030
0100
0001
1000
,
0100
0000
0010
0000
0001
0001
0002
0000
,
1003
0000
1000
0000
0100
0100
0100
0000
,
1000
0000
0001
0000
0100
0100
0100
0000
,
0010
0010
0100
0100
,
0010
1000
2002
3003
,
0001
1000
0100
0010
,
0002
0003
2000
3000
0002
0003
1000
0000
,
1000
0010
0100
0001
,
1000
1000
0001
0001
,
2002
3003
0010
0010
,
2000
3000
0200
0300
0020
0030
0001
0000
,
1000
1000
0001
0001
,
1001
1001
0200
0300
,
1001
1001
0020
0030
,
1001
1001
2000
3000
,
1001
1001
0001
0001
,
2002
3003
0100
0000
,
0010
0001
0100
0010
,
0110
0000
0110
0000
,
1001
0000
0002
0000
,
1003
1000
0001
0001
,
1000
0001
1000
0001
,
1001
0000
1001
0000
,
0110
0000
0000
0000
,
0200
0000
0000
0300
,
0020
0000
0000
0030
,
2000
0000
0000
3000
,
0001
0001
0001
0001
0002
0000
0003
0000
,
2002
0000
3003
0000
0000
0000
0000
1000
,
2000
0000
0000
3000
0000
0000
0000
0001
,
0001
0001
0001
0001
,
0100
0100
0100
0100
0200
0000
0000
0000
,
0300
0010
0000
0010
0000
0010
0000
0010
,
0000
1000
0000
1000
0000
1000
0000
1000
,
0000
0100
0000
0100
0000
0100
0000
0100
,
0100
0000
1000
0000
0001
0001
0001
0001
,
0001
0010
0002
0103
,
0020
0030
2000
3000
0002
0003
0100
0000
,
0100
0001
1000
0100
,
0110
0110
0020
0030
,
0110
0110
0200
0300
,
0110
0110
0002
0003
,
0110
0000
0110
0000
0010
0010
0010
0010
,
0020
0000
0030
0000
0000
0000
1000
1000
,
0000
0000
0000
0000
0000
0000
0001
0001
,
0000
0000
0000
0000
0000
0000
1000
1000
,
0000
0000
0000
0000
0000
0000
0001
0001
;
