#TITLE:Hot Limit;
#SUBTITLE:;
#ARTIST:T.M.Revolution;
#TITLETRANSLIT:;
#SUBTITLETRANSLIT:;
#ARTISTTRANSLIT:;
#GENRE:J-POP;
#CREDIT:;
#MENUCOLOR:;
#NEWMETERSYSTEM:NO;
#BANNER:Hot Limit.png;
#BACKGROUND:Hot Limit-bg.png;
#LYRICSPATH:;
#CDTITLE:;
#MUSIC:Hot Limit.ogg;
#OFFSET:-1.747;
#SAMPLESTART:15.635;
#SAMPLELENGTH:14.600;
#SELECTABLE:YES;
#LISTSORT:;
#BPMS:0.000=138.000;
#STOPS:;
#BGCHANGES:0.000=Hot Limit.avi=1.000=0=1=0,
214.000=Hot Limit-bg.png=1.000=0=0=1,
99999=-nosongbg-=1.000=0=0=0 // don't automatically add -songbackground-
;
#ATTACKS:;

//---------------dance-single - DDRDAIKENKAI----------------
#NOTES:
     dance-single:
     DDRDAIKENKAI:
     Challenge:
     10:
     0.781,0.908,0.374,0.187,0.800:
0000
0000
0000
0000
,
0000
0000
0000
0000
,
0000
0000
0000
0000
,
0000
0000
0000
0000
,
0001
0010
0100
1000
0001
0010
0100
1000
0001
0100
0010
1000
0001
0100
0010
1000
,
0100
0000
0001
0000
0100
0000
1000
0000
0100
0001
0000
0100
0000
0000
1000
0000
,
0100
1000
0010
0100
0001
1000
0010
0100
0001
1000
0100
0010
0001
1000
0100
0010
,
0001
1000
0001
1000
0001
1000
0001
1000
0001
1000
0001
1000
0001
1000
0001
1000
,
0001
0010
0001
0000
1000
0000
0001
0000
0100
0000
0001
2000
0000
0000
3010
0000
,
1000
0100
1000
0000
0001
0000
1000
0000
0010
0000
1000
0200
0000
0000
0310
0000
,
0001
0100
0001
0000
0010
0000
0100
0000
1000
0000
0010
0000
0001
0000
0010
0000
,
1000
0100
1000
0000
0010
0000
0100
0001
1000
0001
0000
0000
2002
0000
3003
0000
,
1000
0100
1000
0000
0001
0000
0010
0000
0100
0000
1000
0002
0000
0000
1003
0000
,
0001
0100
0001
0000
1000
0000
0010
0000
0100
0000
0001
1000
0000
0000
0000
0000
,
0001
0010
0001
0000
0100
0000
0010
0000
1000
0000
0100
0000
0001
0000
0100
0000
,
1000
0001
1000
0000
0110
0000
1001
0001
,
1000
0010
0000
0000
0110
0000
0000
0101
0000
0000
1001
0000
0100
0000
0100
0000
,
0000
1100
0000
0000
0011
0000
0000
1001
0000
0000
1010
0000
2001
0000
0000
0000
,
3001
1000
0000
0000
1010
0000
0000
0011
0000
0000
1100
0000
0001
0000
0001
0000
,
0000
1001
0000
0000
1010
0000
0000
0011
0000
0000
0110
0000
1002
0000
0000
0000
,
1003
0000
1000
0000
0001
0000
0001
0000
0100
0000
0010
1000
0000
0000
0001
0010
,
0001
0000
0001
0000
1000
0000
1000
0000
0010
0000
0100
0001
0000
0000
1000
0100
,
0010
0000
0010
0000
0100
0000
0100
0000
0010
0000
0001
0100
0000
0000
0010
1000
,
0100
0000
0000
0001
0000
0000
0010
0000
1000
0000
0000
0000
1001
0000
0001
0000
,
1000
0000
1000
0000
0001
0000
0001
0000
0100
0000
0010
1000
0000
0000
0001
1000
,
0001
0000
0001
0000
1000
0000
1000
0000
0010
0000
0100
0001
0000
0000
1000
0001
,
0100
0000
0100
0000
0010
0000
0010
0000
1000
0000
0001
0100
0000
0000
0001
1000
,
0010
0000
0000
0001
0000
0000
0100
0000
1000
0000
0001
0000
1001
0000
1000
0001
,
1000
0000
0000
1000
0001
0000
0100
0010
0100
0000
0000
0100
0001
0000
0010
0000
,
0110
0000
0000
0010
0001
0000
0100
1000
0100
0000
0000
0100
0001
0000
1000
0100
,
1000
0000
0000
1000
0001
0000
0100
0010
1000
0000
0000
1000
0010
0000
0100
0001
,
0010
0000
0000
0010
0100
0000
0000
0100
1000
0001
0000
0000
1001
0000
0001
1000
,
0001
0000
0000
0001
0010
0000
0010
0100
1000
0000
0000
1000
0010
0000
0010
1000
,
0001
0000
0000
0001
0010
0000
0010
0001
0100
0001
0000
0000
0101
0000
0001
0000
,
1000
0000
0000
1000
0100
0000
1000
0000
0001
0000
0000
0001
0100
0000
0010
1000
,
0010
0000
0000
1000
0100
0000
0010
0000
0001
0000
0000
0100
0010
0000
1000
0001
,
0011
0000
0000
1100
0000
0000
1010
0000
0101
0000
1001
0000
1100
0000
1001
0000
,
1000
0001
1000
0000
0010
0000
0100
0000
0001
0000
1000
0002
0000
0000
1003
0000
,
0100
1000
0100
0000
1000
0000
0010
0000
0100
0000
0001
0020
0000
0000
0130
0000
,
1000
0010
1000
0000
0100
0000
0010
0000
0001
0000
0100
0000
1000
0000
0100
0000
,
0001
0010
0001
0000
0100
0000
0010
1000
0100
0010
0000
0000
0220
0000
0330
0000
,
0010
0001
0010
0000
0100
0000
0010
0000
0001
0000
0100
0020
0000
0000
1030
0000
,
0100
0010
0100
0000
1000
0000
0100
0000
0010
0000
0100
2000
0000
0000
3001
0000
,
1000
0010
1000
0000
0001
0000
1000
0000
0010
0000
0100
0000
0001
0000
0100
0000
,
1000
0100
0001
0000
1001
0000
0110
0010
,
1000
0100
1000
0010
0100
0001
0010
0100
1000
0010
1000
0100
0010
0001
0100
0010
,
1000
0100
0001
0100
1000
0010
0001
0010
1000
0001
1000
0000
2002
0000
3003
0000
,
1000
0001
0010
0001
0100
0010
1000
0100
0010
0001
0010
0100
1000
0010
0100
0001
,
0010
0100
0010
0001
0010
1000
0010
0001
0100
0010
1000
0000
2002
0000
3003
0000
,
1000
0001
1000
0010
0100
0001
0100
0010
1000
0100
0010
0001
0010
0100
1000
0010
,
0100
0001
0010
0100
1000
0010
1000
0100
0010
0001
0100
0010
1000
0100
0010
0001
,
0200
0000
0000
0000
,
0301
1000
0001
1000
0001
1000
0001
1000
0001
1000
0001
1000
0001
1000
0001
1000
;

//---------------dance-single - DDRDAIKENKAI----------------
#NOTES:
     dance-single:
     DDRDAIKENKAI:
     Hard:
     8:
     0.530,0.523,0.135,0.270,0.229: // measure 1
0000
0000
0000
0000
,  // measure 2
0000
0000
0000
0000
,  // measure 3
0000
0000
0000
0000
,  // measure 4
0000
0000
0000
0000
,  // measure 5
0001
1000
0010
0100
,  // measure 6
0001
0000
1000
0000
0100
0000
1000
0001
,  // measure 7
0010
0001
0100
0010
,  // measure 8
1000
0001
0100
0010
1000
0001
0100
0010
,  // measure 9
0110
0000
0000
0000
1001
0000
0000
0000
0010
0000
1000
0100
0000
0000
1000
0000
,  // measure 10
0001
0000
0010
0000
0001
0000
1000
0000
0100
0000
1000
0001
0000
0000
0000
0000
,  // measure 11
0100
0010
0100
0010
1000
0100
0001
0100
,  // measure 12
0010
0000
0001
0000
0010
0000
0100
2000
0000
0001
0000
0000
3001
0000
0000
0000
,  // measure 13
0100
0000
0010
0000
0100
0000
0010
0000
1000
0000
1000
0100
0000
0000
0010
0000
,  // measure 14
0001
0000
0100
0000
0001
0000
0100
0000
0010
0000
0010
1000
0000
0000
0000
0000
,  // measure 15
0001
0010
1000
0010
0001
0100
1000
0100
,  // measure 16
0010
1000
0001
0000
2002
0000
3003
0000
,  // measure 17
1000
0000
0100
0000
1000
0001
0000
0000
0010
0000
0100
0000
0010
0001
0000
0000
,  // measure 18
1000
0000
0100
0000
1000
0001
0000
0000
0010
0000
1000
0000
0010
0000
0001
0000
,  // measure 19
0100
0000
0010
0000
1000
0010
0000
0000
0100
0000
0001
0000
0100
0010
0000
0000
,  // measure 20
1000
0000
0001
0000
1000
0100
0000
0000
1000
0000
0010
0000
0001
0000
0010
0000
,  // measure 21
0100
0000
0010
0000
0100
0000
0001
0000
1000
0000
0100
1000
0000
0000
0001
0000
,  // measure 22
0010
0000
1000
0000
0010
0000
0001
0000
0010
0000
0100
1000
0000
0000
0001
0000
,  // measure 23
0100
0000
0010
0000
0100
0000
0001
0000
1000
0000
0010
1000
0000
0000
0010
0000
,  // measure 24
0100
0000
0000
0001
0000
0000
1000
0000
0100
0000
0000
0000
0110
0000
0000
0000
,  // measure 25
0010
0000
0001
0000
0010
0000
0100
0000
0010
0000
0001
0100
0000
0000
0010
0000
,  // measure 26
1000
0000
0100
0000
0010
0000
0100
0000
1000
0000
0001
0100
0000
0000
0010
0000
,  // measure 27
1000
0000
0100
0000
1000
0000
0001
0000
1000
0000
0100
0010
0000
0000
0001
0000
,  // measure 28
0100
0000
0000
0010
0000
0000
1000
0000
0100
0000
0000
0000
1100
0000
0000
0000
,  // measure 29
0020
0000
0000
0031
0000
0000
0100
0000
0020
0000
0000
1030
0000
0000
0100
0000
,  // measure 30
0020
0000
0000
0130
0000
0000
1000
0000
0002
0000
0000
0000
0003
0000
1000
0000
,  // measure 31
2000
0000
0000
3001
0000
0000
0100
0000
0020
0000
0000
0000
1030
0000
0100
0000
,  // measure 32
0020
0000
0032
0000
0203
0000
0300
0010
,  // measure 33
2000
0000
0000
3001
0000
0000
0010
0000
0200
0000
0000
1300
0000
0000
0010
0000
,  // measure 34
0200
0000
0000
0301
0000
0000
1000
0000
0100
0000
0000
0000
0110
0000
0010
0000
,  // measure 35
0020
0000
0000
0001
0032
0000
0003
1000
,  // measure 36
0200
0000
0000
2300
0000
0000
3001
0000
0100
0000
0000
0000
0010
0000
1000
0000
,  // measure 37
1001
0000
0000
1001
0000
0000
1001
0000
2002
0000
0000
0000
3003
0000
0000
0000
,  // measure 38
0110
0000
0000
0000
1001
0000
0000
0000
1000
0000
0001
1000
0000
0000
0100
0000
,  // measure 39
0010
0000
0001
0000
0100
0000
0010
0000
1000
0000
0100
0010
0000
0000
0000
0000
,  // measure 40
0100
1000
0100
1000
0001
0100
0001
0100
,  // measure 41
0010
0000
1000
0000
0001
0000
0100
0020
0000
0100
0000
0000
0130
0000
0000
0000
,  // measure 42
0100
0000
0001
0000
0100
0000
0001
0000
1000
0000
0010
0100
0000
0000
0001
0000
,  // measure 43
1000
0000
0100
0000
1000
0000
0100
0000
0010
0000
0001
0100
0000
0000
0000
0000
,  // measure 44
0010
1000
0100
0010
0001
0010
0100
1000
,  // measure 45
0010
1000
0001
0000
2002
0000
3003
0000
,  // measure 46
0100
0000
0001
0000
0100
1000
0000
0000
0010
0000
0001
0000
0010
1000
0000
0000
,  // measure 47
0100
0000
0001
0000
0100
1000
0000
0000
0010
0000
0100
0000
0001
0000
0100
0000
,  // measure 48
0010
0000
1000
0000
0100
1000
0000
0000
0001
0000
0010
0000
0001
0100
0000
0000
,  // measure 49
0010
0000
1000
0000
0100
0010
0000
0000
0001
0000
0001
0000
0100
0000
0010
0000
,  // measure 50
1000
0000
0100
0000
0001
0010
0000
0000
0001
0000
0100
0000
1000
0010
0000
0000
,  // measure 51
0001
0000
0010
0000
1000
0100
0000
0000
1000
0000
0010
0000
0001
0000
1000
0000
,  // measure 52
0200
0000
0000
0000
,  // measure 53
0020
0000
0000
0000
0000
0000
0000
0000
0000
0000
0000
0000
0000
0000
0000
0330
;

//---------------dance-single - DDRDAIKENKAI----------------
#NOTES:
     dance-single:
     DDRDAIKENKAI:
     Medium:
     6:
     0.413,0.413,0.114,0.104,0.021:
0000
0000
0000
0000
,
0000
0000
0000
0000
,
0000
0000
0000
0000
,
0000
0000
0000
0000
,
0100
0001
0100
0001
,
1000
0000
0100
0000
1000
0000
0100
0010
,
0001
0100
0010
1000
,
0002
1000
1000
1003
,
0110
0000
1001
0000
1000
0100
0010
0000
,
0110
0000
1001
0000
0001
0010
0100
0000
,
0010
0001
0010
0000
0001
0100
0001
0000
,
1000
0010
0100
0001
1000
0000
0000
0000
,
0001
0001
0001
0000
1000
0100
0001
0000
,
0100
0100
0100
0000
1000
0010
0001
0000
,
0010
1000
0100
0000
0010
0001
0100
0000
,
0010
1000
0001
0000
2002
0000
3003
0000
,
0001
1000
0100
0000
1000
0001
0100
0000
,
0010
1000
0100
0000
0010
0001
0100
0001
,
0100
0001
0010
0000
0100
1000
0010
0000
,
0100
0010
1000
0000
0001
1000
0001
1000
,
0010
0100
0010
0000
0100
0001
0100
0000
,
0001
0010
0001
0000
0010
0100
0010
0000
,
0100
1000
0100
0000
1000
0010
1000
0000
,
0100
0000
0000
1000
0000
0000
0001
0000
0100
0000
0000
0000
0000
0000
0000
0000
,
0010
0100
0010
0000
1000
0001
0100
0000
,
0010
0100
0010
0000
0100
0001
1000
0000
,
0100
0010
0100
0000
1000
0001
0100
0000
,
0010
0000
0000
1000
0000
0000
0100
0000
1000
0000
0000
0000
0000
0000
0000
0000
,
0100
0000
1000
0000
0001
0100
1000
0000
,
0100
0000
0001
0000
1000
0100
0001
0000
,
0100
0000
1000
0000
0010
1000
0100
0000
,
0010
0001
0100
0000
0110
0000
0000
0010
,
0100
0000
0001
0000
1000
0010
0001
0000
,
0010
0000
1000
0000
0001
0010
1000
0000
,
0020
0000
0000
0000
0000
0000
0001
0000
0001
0030
0000
0000
0000
0000
0100
0000
,
0100
0000
0000
0010
0000
0000
1000
0000
0100
0000
0000
0000
0000
0000
0010
0000
,
0100
0000
0000
1000
0000
0000
0002
0000
2000
0000
0000
0000
3003
0000
0000
0000
,
0110
0000
1001
0000
1000
0100
0010
0000
,
0110
0000
1001
0000
0001
0010
0100
0000
,
0010
0001
0010
0000
0001
0100
0001
0000
,
1000
0010
0100
0001
1000
0000
0000
0000
,
0001
0001
0001
0000
1000
0100
0001
0000
,
0100
0100
0100
0000
1000
0010
0001
0000
,
0010
1000
0100
0000
0010
0001
0100
0000
,
0010
1000
0001
0000
2002
0000
3003
0000
,
0001
0100
0001
0000
1000
0100
1000
0000
,
0010
0100
0010
0000
1000
0001
1000
0001
,
0100
0001
0100
0000
0010
0100
0010
0000
,
1000
0010
1000
0000
0100
0010
0100
0010
,
0001
0100
1000
0000
1000
0100
0001
0000
,
0001
0010
1000
0000
1000
0010
0001
1000
,
0200
0000
0000
0000
,
0020
0000
0000
0000
0000
0000
0000
0000
0000
0000
0000
0000
0000
0000
0000
0330
;

//---------------dance-single - ----------------
#NOTES:
     dance-single:
     :
     Beginner:
     1:
     0.180,0.220,0.073,0.042,0.000:
0000
0000
0000
0000
,
0000
0000
0000
0000
,
0000
0000
0000
0000
,
0000
0000
0000
0000
,
1000
0000
0000
0000
,
0100
0000
0010
0000
,
0001
0000
0000
0000
,
2002
0000
3003
0000
,
0001
0000
0001
0000
,
1000
0000
1000
0000
,
0100
0000
0100
0000
,
0010
0010
0010
0000
,
0001
0000
0001
0000
,
0010
0000
0010
0000
,
0100
0000
0100
0000
,
1000
1000
1000
0000
,
0001
0000
0001
0000
,
0100
0000
0100
0000
,
0010
0000
0010
0000
,
1000
0000
1000
1000
,
0000
0001
0000
1000
,
0000
0001
0000
1000
,
0000
0010
0000
0100
,
0000
0010
0010
0000
,
0100
0100
0000
0001
,
0000
1000
0000
0001
,
0000
1000
0000
0001
,
0001
0001
0001
0000
,
0100
0100
0100
0000
,
0010
0010
0010
0000
,
1000
0000
0001
0000
,
1000
1000
1000
0000
,
0010
0010
0010
0000
,
0100
0100
0100
0000
,
0001
0000
1000
0000
,
0001
0001
0001
0000
,
1000
1000
1000
0000
,
1001
0000
0110
0000
,
0100
0100
0100
0000
,
0010
0010
0010
0000
,
1000
1000
1000
0000
,
1001
0000
0110
0000
,
0100
0100
0100
0000
,
0001
0001
0001
0000
,
1000
0000
1001
0000
,
0001
0001
0000
1000
,
0000
0010
0000
0100
,
0000
0001
0000
1000
,
0000
0100
0000
0010
,
0010
0000
0001
0000
,
0100
0000
0010
0000
,
0220
0000
0000
0000
,
0000
0000
0000
0000
0000
0000
0000
0000
0000
0000
0000
0000
0000
0000
0000
0330
;

//---------------dance-single - DDRDAIKENKAI----------------
#NOTES:
     dance-single:
     DDRDAIKENKAI:
     Easy:
     3:
     0.227,0.303,0.042,0.062,0.000:
0000
0000
0000
0000
,
0000
0000
0000
0000
,
0000
0000
0000
0000
,
0000
0000
0000
0000
,
1000
1000
1000
1000
,
0100
0100
0100
0100
,
0010
0010
0010
0010
,
2002
0000
3003
0000
,
0001
0001
0100
0000
,
0010
0010
1000
0000
,
0100
0100
0001
0001
,
0100
1000
0001
0000
,
0010
0010
0001
0000
,
1000
1000
0100
0000
,
0010
0010
0001
0001
,
1000
1000
2002
3003
,
1000
0000
0001
0000
,
0100
0000
0010
0010
,
1000
0000
0010
0000
,
0100
0000
0001
0001
,
1000
0100
1000
0000
,
0001
0100
0001
0000
,
0100
0010
0100
0000
,
0001
1000
0001
0000
,
1000
0100
0010
0000
,
0001
0100
0010
0000
,
1000
0100
0010
0000
,
0001
0100
0010
0000
,
1000
0000
0001
0000
,
1000
0001
1000
0000
,
0010
0000
0100
0000
,
0001
1000
0001
0000
,
1000
0000
0001
0000
,
0100
0010
0100
0000
,
0001
0000
1000
0000
,
0100
0010
0100
0000
,
1000
0001
1001
0000
,
0100
0100
0010
0010
,
0100
0100
0010
0010
,
1000
1000
0001
0001
,
1000
0001
1000
0000
,
0001
0001
0010
0010
,
0100
0100
1000
1000
,
0100
0100
0010
0010
,
0001
0001
1001
0000
,
0100
0000
0010
0000
,
0100
0000
0001
1000
,
0100
0000
0010
0000
,
0100
0000
0010
0001
,
1000
0000
0001
0000
,
1000
0000
0001
0001
,
0200
0000
0000
0000
,
0020
0000
0000
0000
0000
0000
0000
0000
0000
0000
0000
0000
0000
0000
0000
0330
;
