#TITLE:Dream Position;
#SUBTITLE:~Theme of Chun-Li~;
#ARTIST:深澤 秀行;
#TITLETRANSLIT:;
#SUBTITLETRANSLIT:;
#ARTISTTRANSLIT:Hideyuki Fukusawa;
#GENRE:VIDEO GAME SOUNDTRACK;
#CREDIT:Ultimate Marvel Vs. Capcom 3;
#MENUCOLOR:;
#NEWMETERSYSTEM:NO;
#BANNER:Dream Position.png;
#BACKGROUND:Dream Position-bg.png;
#LYRICSPATH:;
#CDTITLE:CDTitle.png;
#MUSIC:Dream Position.ogg;
#OFFSET:-3.021;
#SAMPLESTART:26.600;
#SAMPLELENGTH:12.000;
#SELECTABLE:YES;
#LISTSORT:;
#BPMS:0.000=159.980,111.000=319.960,112.000=159.980,143.000=319.960,144.000=159.980;
#STOPS:111.000=0.188
,143.000=0.188
;
#DISPLAYBPM:160.000;
#BGCHANGES:;
#ATTACKS:;

//---------------dance-single - DDRDAIKENKAI----------------
#NOTES:
     dance-single:
     DDRDAIKENKAI:
     Hard:
     9:
     0.660,0.730,0.162,0.561,0.318: // measure 1
0000
0000
0000
0000
,  // measure 2
0000
0000
0000
0000
,  // measure 3
0000
0000
0000
0000
,  // measure 4
0000
0000
0000
0000
,  // measure 5
0010
1000
0100
0001
0100
1000
0100
0010
,  // measure 6
0001
0100
0010
0100
1000
0100
0010
0100
,  // measure 7
0001
0010
0100
1000
0010
1000
0100
0010
,  // measure 8
0001
0100
0010
1000
0200
1000
2300
0000
,  // measure 9
3002
0000
0000
1003
0002
0000
1003
0001
,  // measure 10
0200
0000
0000
0310
0100
0000
0010
1000
,  // measure 11
0001
0000
0001
1000
0001
0000
0001
1000
0001
0000
0100
0000
0010
0000
1000
0000
,  // measure 12
0020
0000
0000
1030
0010
0000
1020
0000
,  // measure 13
2030
0000
0000
3100
0020
0000
0031
0010
,  // measure 14
0200
0000
0310
0100
1000
0000
0001
0100
,  // measure 15
0010
0000
0010
1000
0010
0000
0010
1000
0010
0000
1000
0000
0100
0000
0010
0000
,  // measure 16
0002
0000
1003
0100
1000
0000
1100
0000
,  // measure 17
1002
0000
1003
0001
0200
0000
0301
0010
,  // measure 18
0100
1000
0100
0000
0010
0000
0001
0000
0100
0000
0000
0000
0010
0000
1000
0000
,  // measure 19
0001
0000
0001
1000
0001
0000
0001
1000
0001
0000
0100
0000
0010
0000
1000
0000
,  // measure 20
0002
0000
0000
0013
0001
0000
0012
0000
,  // measure 21
0020
0003
0000
0000
2030
0000
3002
0000
0000
0000
0203
0000
1300
0000
0001
0000
,  // measure 22
0200
0000
0310
0100
0010
0000
0100
0001
,  // measure 23
1000
0000
1000
0100
1000
0000
1000
0100
1000
0000
0010
0000
0100
0000
0001
0000
,  // measure 24
0101
0000
0001
0010
0001
0010
0001
0010
0001
0010
0001
0010
0002
0000
0003
0000
,  // measure 25
0102
0000
0013
0100
2000
0000
3100
0010
,  // measure 26
0002
0000
0000
0013
0100
0000
1000
0000
0010
0000
0001
0000
0010
0000
1000
0000
,  // measure 27
0200
0000
0310
0001
0200
0000
0310
1000
,  // measure 28
0200
0000
0000
1300
0001
0000
0100
0000
0010
0000
0110
0000
1001
0000
0000
0000
,  // measure 29
0102
0000
0013
0100
2000
0000
3100
0010
,  // measure 30
0002
0000
0000
0103
0010
0000
1000
0000
0100
0000
0010
0000
0001
0000
0010
0000
,  // measure 31
0200
2300
3020
0032
,  // measure 32
0013
1000
0100
0010
0001
0000
0100
0001
0010
0100
1000
0000
0010
0100
0010
0000
,  // measure 33
0120
0000
0130
0001
2000
0000
3100
1000
,  // measure 34
0002
0000
0000
0013
0100
0000
1000
0000
0010
0000
1000
0000
0100
0000
0010
0000
,  // measure 35
0002
0000
0103
0010
2000
0000
3100
0010
,  // measure 36
0002
0000
0000
1003
0010
0000
0100
0000
0010
0000
0110
0000
1001
0000
0000
0000
,  // measure 37
0102
0000
0013
0100
2000
0000
3010
1000
,  // measure 38
0002
0000
0000
0013
0001
0000
1000
0000
0100
0000
1000
0000
0010
0000
0001
0000
,  // measure 39
0020
2030
3200
0302
,  // measure 40
0103
1000
0100
1000
0001
0100
0001
0100
0010
1000
0010
1000
0100
1000
0001
0100
,  // measure 41
0002
0000
1000
0010
0000
0000
1000
0000
,  // measure 42
0103
0000
0000
0000
1000
0000
0100
0000
0000
0000
0100
0000
1000
0100
0000
0000
,  // measure 43
0100
0000
0010
0100
0000
0000
1000
0000
,  // measure 44
0100
0000
0010
0001
2002
0000
3003
0000
,  // measure 45
0110
0000
0000
0010
1000
0000
0001
0000
0100
0000
0000
0100
0001
0000
1000
0000
,  // measure 46
0010
0100
0010
0100
0001
0000
1000
0000
0001
0100
0001
0100
0010
1000
0001
0000
,  // measure 47
0010
0000
0000
0010
0001
0000
1000
0000
0100
0000
0000
0100
1000
0000
0001
0000
,  // measure 48
1000
0100
1000
0100
0010
0000
0001
0000
0100
0001
0100
0001
0010
0100
1000
0000
,  // measure 49
0010
0000
0000
0010
1000
0000
0001
0000
0100
0000
0000
0100
0001
0000
1000
0000
,  // measure 50
0001
0010
0001
0010
0100
0000
1000
0000
0001
0100
0001
0100
0010
1000
0100
0000
,  // measure 51
0010
0000
0000
0010
0001
0000
0010
0000
0100
0000
0000
0100
1000
0000
0001
0000
,  // measure 52
0100
0010
0100
0010
1000
0000
0001
0000
0020
0000
0001
0000
0032
0000
0000
0000
,  // measure 53
1003
0000
0000
0000
;

//---------------dance-single - DDRDAIKENKAI----------------
#NOTES:
     dance-single:
     DDRDAIKENKAI:
     Medium:
     6:
     0.470,0.477,0.097,0.518,0.097: // measure 1
0000
0000
0000
0000
,  // measure 2
0000
0000
0000
0000
,  // measure 3
0000
0000
0000
0000
,  // measure 4
0000
0000
0000
0000
,  // measure 5
2000
0000
3200
0000
0320
0000
0031
0100
,  // measure 6
2000
0000
3200
0000
0302
0000
0013
0100
,  // measure 7
2000
0000
3020
0000
0230
0000
0301
0010
,  // measure 8
2000
0000
3010
0001
0200
0000
0320
0000
,  // measure 9
1030
0000
0000
0001
0000
0000
0001
0000
0100
0000
0000
0000
0010
0000
0000
0000
,  // measure 10
0100
0000
0000
0001
0000
0000
1000
0000
0100
0000
0000
0000
2000
0000
0000
0000
,  // measure 11
3001
0000
0000
0100
0000
0000
0100
0000
0010
0000
0000
0000
1000
0000
0000
0000
,  // measure 12
0100
0000
0000
0010
0000
0000
0010
0000
0100
0000
0000
0000
2000
0000
0000
0000
,  // measure 13
3001
0000
0000
0100
0000
0000
0100
0000
0010
0000
0000
0000
1000
0000
0000
0000
,  // measure 14
0001
0000
0000
0010
0000
0000
0010
0000
0100
0000
0000
0000
1000
0000
0000
0000
,  // measure 15
0010
0000
0000
1000
0000
0000
0001
0000
0010
0000
0000
0001
0000
0000
1000
0000
,  // measure 16
0010
0000
0000
1000
0000
0000
0100
0000
1000
0000
0000
0000
0010
0000
0000
0000
,  // measure 17
0120
0000
0000
0130
0000
0000
0001
0000
1000
0000
0000
0000
0100
0000
0000
0000
,  // measure 18
1000
0000
0000
0010
0000
0000
0100
0000
0001
0000
0000
0000
2000
0000
0000
0000
,  // measure 19
3100
0000
0000
0010
0000
0000
0100
0000
1000
0000
0000
0000
0010
0000
0000
0000
,  // measure 20
0100
0000
0000
0001
0000
0000
1000
0000
0001
0000
0000
0000
2000
0000
0000
0000
,  // measure 21
3100
0000
0000
0010
0000
0000
0001
0000
1000
0000
0000
0000
0001
0000
0000
0000
,  // measure 22
1000
0000
0000
0010
0000
0000
0100
0000
0001
0000
0000
0000
2000
0000
0000
0000
,  // measure 23
3001
0000
0000
0010
0000
0000
0001
0000
1000
0000
0000
0100
0000
0000
1000
0000
,  // measure 24
0020
0000
0130
0001
1000
0000
0110
0000
,  // measure 25
1002
0000
0013
0001
0010
0000
0100
0010
,  // measure 26
0100
0000
1000
0001
0100
0010
1000
0000
,  // measure 27
0100
0000
1000
0010
1000
0000
0001
0010
,  // measure 28
0001
0000
0100
0010
1000
0001
1000
0000
,  // measure 29
2001
0000
3001
0010
0100
0000
1000
0001
,  // measure 30
0100
0000
0010
1000
0010
0100
0001
0000
,  // measure 31
0200
0302
2003
3100
,  // measure 32
0110
0000
0000
0011
0000
0000
1100
0000
,  // measure 33
1002
0000
1003
0100
1000
0000
0001
0010
,  // measure 34
0001
0000
0100
0010
1000
0100
1000
0000
,  // measure 35
0001
0000
1000
0010
1000
0000
0001
0100
,  // measure 36
0001
0000
0010
0001
1000
0100
0010
0000
,  // measure 37
0210
0000
0310
0001
0100
0000
0010
1000
,  // measure 38
0100
0000
0010
0001
0010
0100
1000
0000
,  // measure 39
0200
2300
3002
0103
,  // measure 40
0001
1000
0001
1000
0010
0100
0010
1000
,  // measure 41
0200
0000
0000
1000
0000
0000
0000
0000
,  // measure 42
1000
0000
0000
0000
0000
0000
1000
0000
0000
0000
1000
0000
0000
1000
0000
0000
,  // measure 43
1300
0000
0000
1000
0000
0000
0000
0000
,  // measure 44
1000
0000
0000
0100
1000
0100
0010
0001
,  // measure 45
2000
3002
0203
0320
,  // measure 46
1030
0100
0001
0000
0001
0010
1000
0000
,  // measure 47
0002
0203
0320
2030
,  // measure 48
3001
0010
1000
0000
1000
0100
0001
0000
,  // measure 49
2000
3200
0320
0032
,  // measure 50
1003
0010
0001
0000
0001
0100
1000
0000
,  // measure 51
0002
0023
0230
2300
,  // measure 52
3001
0100
1000
0000
0200
0001
0302
0000
,  // measure 53
1003
0000
0000
0000
;

//---------------dance-single - DDRDAIKENAI----------------
#NOTES:
     dance-single:
     DDRDAIKENAI:
     Easy:
     3:
     0.275,0.337,0.119,0.302,0.000: // measure 1
0000
0000
0000
0000
,  // measure 2
0000
0000
0000
0000
,  // measure 3
0000
0000
0000
0000
,  // measure 4
0000
0000
0000
0000
,  // measure 5
1000
0001
1000
0001
,  // measure 6
0100
1000
0100
0001
,  // measure 7
1000
0001
1000
0001
,  // measure 8
0010
1000
0020
0032
,  // measure 9
2003
0000
3002
0000
,  // measure 10
0100
0100
0103
0000
,  // measure 11
0010
0000
1000
0000
,  // measure 12
0001
0000
1000
0000
,  // measure 13
0200
0000
0320
0000
,  // measure 14
0001
0001
0031
0000
,  // measure 15
0100
0000
0010
0000
,  // measure 16
1000
0000
0001
0000
,  // measure 17
0210
0000
0320
0000
,  // measure 18
1000
1000
1030
0000
,  // measure 19
0001
0000
1000
0000
,  // measure 20
0100
0000
0010
0000
,  // measure 21
0002
0000
2003
0000
,  // measure 22
0010
0010
3010
0000
,  // measure 23
0100
0000
0001
0000
,  // measure 24
1000
0100
0020
0030
,  // measure 25
0210
0000
0320
0000
,  // measure 26
0031
1000
0010
0100
,  // measure 27
0002
0000
0023
0000
,  // measure 28
0130
1000
0001
1001
,  // measure 29
1002
0000
0203
0000
,  // measure 30
0310
1000
0100
0010
,  // measure 31
0100
1000
0010
1000
,  // measure 32
1001
0000
0000
0110
0000
0000
1001
0000
,  // measure 33
1002
0000
0203
0000
,  // measure 34
0310
1000
0100
0010
,  // measure 35
0200
0000
2300
0000
,  // measure 36
3010
0100
0010
0110
,  // measure 37
0120
0000
0230
0000
,  // measure 38
0301
1000
0100
0010
,  // measure 39
0100
1000
0010
0001
,  // measure 40
1000
0100
0001
0010
,  // measure 41
2000
0000
0000
0000
,  // measure 42
0000
0000
0000
0000
,  // measure 43
3000
0000
0000
0000
,  // measure 44
0000
0000
2002
3003
,  // measure 45
0001
0001
1000
1000
,  // measure 46
0010
0100
0010
0100
,  // measure 47
0001
0001
1000
1000
,  // measure 48
0100
0010
0100
0010
,  // measure 49
0100
0100
1000
1000
,  // measure 50
0001
0010
0001
0010
,  // measure 51
0100
0100
0010
0010
,  // measure 52
0001
1000
0002
2003
,  // measure 53
3001
0000
0000
0000
;
