#TITLE:Dokudenpa;
#SUBTITLE:;
#ARTIST:Sharpnelsound;
#TITLETRANSLIT:;
#SUBTITLETRANSLIT:;
#ARTISTTRANSLIT:;
#GENRE:;
#CREDIT:;
#MENUCOLOR:;
#BANNER:;
#BACKGROUND:;
#LYRICSPATH:;
#CDTITLE:;
#MUSIC:Dokudenpa.ogg;
#OFFSET:-1.900;
#SAMPLESTART:75.140;
#SAMPLELENGTH:12.000;
#SELECTABLE:YES;
#LISTSORT:;
#BPMS:0.000=190.000,104.000=47.500,120.000=95.000,152.000=190.000;
#STOPS:;
#TICKCOUNT:0.000=2,164.500=1;
#BGCHANGES:;
#KEYSOUNDS:;
#ATTACKS:;

//---------------dance-single - ----------------
#NOTES:
     dance-single:
     :
     Challenge:
     9:
     0.854,1.000,0.152,1.000,0.498: // measure 1
0000
0000
0000
0000
,  // measure 2
0000
0000
0000
0100
,  // measure 3
0100
0001
0000
1000
0000
0001
0000
0100
,  // measure 4
0000
0010
0000
1000
0000
0001
0010
0001
,  // measure 5
0000
1000
0000
0010
0000
1000
0000
0001
,  // measure 6
0000
0100
0000
0010
0000
1000
0100
1000
,  // measure 7
0000
0010
0000
1000
0000
0001
0000
0010
,  // measure 8
0000
0001
0000
1000
0000
0001
0100
0001
,  // measure 9
0000
0010
0000
1000
0000
0010
0000
0001
,  // measure 10
0000
0100
0000
0010
0000
1000
0001
1000
,  // measure 11
0010
0000
0200
0000
0001
0000
0000
0301
0000
0000
0010
0000
0001
0000
0100
0000
,  // measure 12
0010
0000
2000
0000
0100
0000
0000
3100
0000
0000
1000
0000
0010
0000
0100
0000
,  // measure 13
0001
0000
0020
0000
0100
0000
0000
0130
0000
0000
0010
0000
0001
0000
0100
0000
,  // measure 14
0020
0100
0000
1000
,  // measure 15
1030
0000
0200
0000
1000
0000
0000
1300
0000
0000
0010
0000
0100
0000
0001
0000
,  // measure 16
0010
0000
0002
0000
0100
0000
0000
0103
0000
0000
0001
0000
0010
0000
0100
0000
,  // measure 17
1000
0000
0002
0000
0100
0000
0000
0103
0000
0000
0010
0000
1000
0000
0100
0000
,  // measure 18
0020
0001
0000
0100
,  // measure 19
0031
0000
1000
0000
0001
0100
0000
0001
0000
0000
1000
0000
0100
0000
1000
0000
,  // measure 20
0010
0000
0100
0000
0001
1000
0000
0001
0000
0000
0100
0000
0010
0000
1000
0000
,  // measure 21
0100
0000
0010
0000
0100
1000
0000
0010
0000
0000
0100
0000
0001
0000
0010
0000
,  // measure 22
0001
0000
0020
0000
0001
0000
0000
0031
0000
0000
0001
0000
1000
0000
0001
0000
,  // measure 23
0100
0000
0010
0000
1000
0001
0000
1000
0000
0000
0010
0000
0100
0000
0001
0000
,  // measure 24
0010
0000
0100
0000
1000
0010
0000
1000
0000
0000
0100
0000
0010
0000
0001
0000
,  // measure 25
0100
0000
0010
0000
1000
0001
0000
1000
0000
0000
0010
0000
0100
0000
0001
0000
,  // measure 26
0010
0000
0010
0000
0010
0000
0000
0001
0010
0000
0001
0000
0100
0000
0010
0000
,  // measure 27
2000
0000
0000
0000
0002
0003
0000
0000
3002
0003
0000
0000
0200
0300
0002
0003
0200
0300
0000
0000
0020
0030
0000
0000
2000
3000
0000
0000
0002
0003
0000
0000
2000
3000
0020
0030
0200
0300
0000
0000
0020
0030
0000
0000
2000
3000
0000
0000
0020
0030
2000
3000
0002
0003
2000
3000
0020
0030
0000
0000
2000
3000
0000
0000
,  // measure 28
0200
0000
0000
0000
0320
0030
0002
0003
0020
0030
0000
0000
0200
0300
0020
0030
0002
0003
0200
0300
0020
0030
2000
3000
0002
0003
0000
0000
2000
3000
0000
0000
0200
0000
0000
0000
0320
0030
0000
0000
0002
0003
0000
0000
2000
3000
0000
0000
0020
0030
0000
0000
2000
3000
0002
0003
2000
3000
0000
0000
0020
0030
0000
0000
,  // measure 29
0200
0000
0000
0000
0302
0003
0000
0000
0002
0003
0000
0000
0200
0300
0000
0000
0002
0003
0000
0000
0020
0030
0002
0003
0200
0300
0020
0030
2000
3000
0200
0300
0020
0000
0000
0000
0032
0003
0000
0000
2000
3000
0000
0000
0002
0003
0000
0000
0020
0030
0000
0000
2000
3000
0000
0000
0020
0030
0000
0000
0002
0003
0000
0000
,  // measure 30
0200
0300
0000
0000
0020
0030
0000
0000
2000
3000
0000
0000
0002
0003
0000
0000
0200
0300
0000
0000
0020
0030
0000
0000
2000
3000
0000
0000
0002
0003
0000
0000
0200
0000
0000
0000
0320
0030
0000
0000
0020
0030
0000
0000
2000
3000
0000
0000
0002
0003
0000
0000
2000
3000
0200
0300
0020
0032
0023
0032
0023
0030
0200
0300
,  // measure 31
1000
0000
1000
0000
0101
0000
0000
0010
1000
0000
1000
0000
0101
0000
0000
0000
,  // measure 32
0100
0000
0100
0000
1001
0000
0000
0010
0100
0000
0100
0000
1001
0000
0000
0000
,  // measure 33
0001
0000
0001
0000
1010
0000
0000
0100
0001
0000
0001
0000
1010
0000
0000
0000
,  // measure 34
0010
0000
0010
0000
1001
0000
0000
0100
0010
0000
0010
0000
1001
0001
1000
0001
,  // measure 35
0100
0000
0000
0010
0000
0000
1000
0000
0000
0100
0000
0000
1001
0000
0000
0100
0000
0000
0010
0000
0000
0100
0000
0000
1000
0000
0000
0010
0000
0000
0100
0000
0000
0001
0000
0000
0110
0000
0000
0001
0000
0000
1000
0000
0010
0000
0100
0000
,  // measure 36
0001
1000
0001
0100
0110
0001
0100
0001
0010
0100
1000
0010
1100
0010
1000
0100
,  // measure 37
0010
0001
1000
0000
0101
1000
0001
0010
0001
1000
0100
0000
1001
0010
0100
0001
,  // measure 38
0010
0000
0001
0000
0100
0000
0010
0000
1000
0000
0100
0000
0010
0000
0001
0000
1000
0000
0000
1000
0000
0000
0001
0000
0010
0000
0001
0000
0101
0000
0000
0000
,  // measure 39
2000
3001
0200
0301
2000
3010
2000
3002
,  // measure 40
2003
3100
2000
3001
0020
0031
2000
3001
,  // measure 41
2000
3200
0320
0130
2000
3001
0020
0130
,  // measure 42
2000
3020
2030
3002
0023
0031
2000
3010
,  // measure 43
2000
3100
0020
0230
2300
3001
0020
0230
,  // measure 44
0320
0032
0203
0320
2030
3100
0002
0103
,  // measure 45
2000
3010
0200
0301
0020
1030
0020
0031
,  // measure 46
2000
3001
0020
0230
0320
0031
0200
0310
,  // measure 47
2000
3100
0020
0130
2000
3010
0002
0023
,  // measure 48
2030
3100
0020
0130
2000
3100
0002
0103
,  // measure 49
2000
3001
0020
0130
2000
3001
0200
2300
,  // measure 50
3020
0031
0020
1030
0200
0310
0200
1300
,  // measure 51
0002
0013
0200
1300
0002
0103
0002
0023
,  // measure 52
0032
0103
0020
1030
0200
0310
0200
1300
,  // measure 53
0200
0310
0002
1003
0200
0301
0020
0230
,  // measure 54
1300
1000
0001
0001
0100
0010
1000
0100
,  // measure 55
1001
0000
0000
0000
;

//---------------dance-single - ----------------
#NOTES:
     dance-single:
     :
     Hard:
     8:
     0.576,1.000,0.009,0.294,0.356: // measure 1
0000
0000
0000
0000
,  // measure 2
0000
0000
0000
1000
,  // measure 3
1000
0001
0000
1000
0000
0010
0000
0100
,  // measure 4
0000
0001
0000
1000
0000
0001
0000
1000
,  // measure 5
0000
0010
0000
1000
0000
0100
0000
1000
,  // measure 6
0000
0001
0000
0010
0000
0001
0000
0100
,  // measure 7
0000
0001
0000
0010
0000
0100
0000
1000
,  // measure 8
0000
0001
0000
1000
0000
0010
0000
0100
,  // measure 9
0000
0001
0000
1000
0000
0100
0000
0020
,  // measure 10
0000
0001
0000
0001
0000
0001
0030
0001
,  // measure 11
0010
0000
0001
0000
0100
0000
0000
0001
0000
0000
0100
0000
0001
0000
0000
0000
,  // measure 12
1000
0000
0010
0000
1000
0000
0000
0010
0000
0000
1000
0000
0100
0000
0000
0000
,  // measure 13
1000
0000
0001
0000
0100
0000
0000
0001
0000
0000
1000
0000
0100
0000
0000
0000
,  // measure 14
1000
0000
0000
0000
1000
0000
0000
1000
0000
0000
0001
0000
0100
0000
0000
0000
,  // measure 15
0010
0000
1000
0000
0010
0000
0000
1000
0000
0000
0010
0000
0100
0000
0000
0000
,  // measure 16
0010
0000
0100
0000
0001
0000
0000
0100
0000
0000
0001
0000
0010
0000
0000
0000
,  // measure 17
0001
0000
0010
0000
0001
0000
0000
0010
0000
0000
0100
0000
0010
0000
0000
0000
,  // measure 18
0100
0000
1000
0000
0100
0000
0000
1000
0000
0000
0010
0000
1000
0000
0000
0000
,  // measure 19
0010
0000
0100
0000
0010
0000
0000
1000
0000
0000
0001
0000
0100
0000
0001
0000
,  // measure 20
0010
0000
0001
0000
0100
0000
0000
0010
0000
0000
1000
0000
0100
0000
1000
0000
,  // measure 21
0010
0000
1000
0000
0100
0000
0000
0010
0000
0000
0100
0000
1000
0000
0010
0000
,  // measure 22
1000
0000
0001
0000
1000
0000
0000
0001
0000
0000
1000
0000
0001
0000
1000
0000
,  // measure 23
0001
0000
0100
0000
0001
0000
0000
0100
0000
0000
0001
0000
0010
0000
0100
0000
,  // measure 24
1000
0000
0100
0000
1000
0000
0000
0100
0000
0000
1000
0000
0100
0000
1000
0000
,  // measure 25
0010
0000
1000
0000
0010
0000
0000
1000
0000
0000
0010
0000
1000
0000
0001
0000
,  // measure 26
0010
0000
0001
0000
0010
0000
0000
0010
0000
0000
0001
0000
0100
0000
0010
0000
,  // measure 27
1000
0000
0001
0000
0001
0000
0100
0001
0100
0000
0010
0000
1000
0000
0010
0000
1000
0100
1000
0000
0100
0000
0010
0000
0001
0010
0001
1000
0001
0000
1000
0000
,  // measure 28
0100
0000
1000
0010
1000
0000
0010
0100
0010
0100
0010
1000
0001
0000
1000
0000
0100
0000
0010
0000
0010
0000
0001
0000
1000
0000
0010
1000
0010
0000
1000
0000
,  // measure 29
0100
0000
0010
0000
0010
0000
0100
0000
1000
0000
0001
0010
0001
0010
0100
0010
0100
0000
1000
0000
0010
0000
1000
0000
0001
0000
1000
0000
0100
0000
0010
0000
,  // measure 30
0100
0000
0010
0000
0001
0000
1000
0000
0100
0000
0010
0000
0001
0000
1000
0000
0100
0000
0010
0000
0001
0000
0010
0000
0001
0000
0010
0001
0010
0001
0100
0010
,  // measure 31
1000
0000
0010
0000
1000
0000
0100
1000
0100
0000
0010
0000
0001
0000
1000
0000
,  // measure 32
0001
1000
0100
0000
1000
0000
0001
0000
1000
0001
0100
0010
1000
0000
0001
0000
,  // measure 33
0100
0000
0001
0010
0001
0000
0001
1000
0001
0100
0001
1000
0010
0000
1000
0000
,  // measure 34
0100
0000
0010
0000
0001
0000
1000
0000
0010
0000
1000
0001
1000
0000
0010
0000
,  // measure 35
0200
0320
2030
3002
0023
0032
0203
0320
,  // measure 36
2030
3200
0320
0032
0023
0032
2003
3020
,  // measure 37
0230
0320
2030
3002
0203
0320
2030
3002
,  // measure 38
0203
0000
0302
0000
2003
0000
3020
0000
1030
0000
0001
0010
0001
1000
0100
1000
,  // measure 39
0100
0000
1000
0010
1000
0100
0010
0000
,  // measure 40
0100
0000
1000
0010
0100
0001
1000
0000
,  // measure 41
0001
0000
1000
0010
1000
0001
0100
0000
,  // measure 42
0001
0010
0001
0100
0010
1000
0001
0000
,  // measure 43
1000
0000
0100
0010
0100
1000
0001
0000
,  // measure 44
1000
0000
0010
0100
0010
1000
0001
0000
,  // measure 45
0010
0000
0100
0010
0001
1000
0010
0000
,  // measure 46
1000
0000
0001
0010
0001
0000
1000
0000
,  // measure 47
0001
0000
1000
0100
1000
0010
0100
0001
,  // measure 48
0020
0001
0100
1030
,  // measure 49
0100
0000
1000
0010
0001
0010
1000
0001
,  // measure 50
0020
0100
1000
0031
,  // measure 51
0010
1000
0100
0010
0001
1000
0100
0000
,  // measure 52
0010
0001
1000
0010
1000
0001
0100
0000
,  // measure 53
0001
0010
0001
0010
0001
1000
0001
1000
,  // measure 54
0100
1000
0100
1000
0010
0100
0001
1000
,  // measure 55
1001
0000
0000
0000
;

//---------------dance-single - ----------------
#NOTES:
     dance-single:
     :
     Medium:
     7:
     0.480,1.000,0.066,0.028,0.228: // measure 1
0000
0000
0000
0000
,  // measure 2
0000
0000
0000
0100
,  // measure 3
0100
1000
0001
0100
,  // measure 4
0001
0000
1000
0000
0100
0000
1000
0001
,  // measure 5
1000
0010
0100
0001
,  // measure 6
0010
0000
0100
0000
1000
0000
0010
0100
,  // measure 7
0010
1000
0001
0010
,  // measure 8
0001
0000
1000
0000
0100
0000
1000
0010
,  // measure 9
1000
0100
0010
0001
,  // measure 10
2000
0100
0100
3100
,  // measure 11
1000
0001
1000
0000
0010
0000
0100
0000
,  // measure 12
0001
1000
0001
0000
0100
0000
0010
0000
,  // measure 13
1000
0001
1000
0000
0010
0000
0100
0000
,  // measure 14
0002
1000
1000
1003
,  // measure 15
0001
0010
0001
0000
1000
0000
0100
0000
,  // measure 16
1000
0010
1000
0000
0100
0000
0010
0000
,  // measure 17
0001
0100
0001
0000
0010
0000
0100
0000
,  // measure 18
2000
0100
0100
3100
,  // measure 19
1000
0010
1000
0000
0001
0000
0010
0000
,  // measure 20
0001
0100
0001
0000
0010
0000
0100
0000
,  // measure 21
1000
0100
1000
0000
0100
0000
0010
0000
,  // measure 22
0001
0010
0001
0000
1000
0000
0010
0000
,  // measure 23
1000
0001
1000
0000
0010
0000
0100
0000
,  // measure 24
0001
1000
0001
0000
1000
0000
0100
0000
,  // measure 25
0010
0100
0010
0000
0100
0000
1000
0000
,  // measure 26
0001
0010
0001
0000
1000
0100
1000
0100
,  // measure 27
1000
0000
0001
0000
1000
0000
0001
0100
0001
0000
0010
0000
0001
0000
0100
0000
0010
1000
0100
0000
1000
0000
0010
0000
1000
0100
1000
0100
1000
0000
0010
0000
,  // measure 28
0100
0000
0001
0010
0001
0000
1000
0100
1000
0100
1000
0100
1000
0000
0010
0000
0100
0000
0001
0000
1000
0000
0001
0000
0100
0000
0010
1000
0010
0000
1000
0000
,  // measure 29
0100
0000
0010
0000
0001
0000
1000
0000
0001
0000
0010
0100
0010
0100
0010
0100
0010
0000
0001
0000
1000
0000
0001
0000
0100
0000
0010
0000
1000
0000
0001
0000
,  // measure 30
0100
0000
0010
0000
0100
0000
0001
0000
1000
0000
0100
0000
0010
0000
0001
0000
0100
0000
0010
0000
1000
0000
0001
0000
0010
0000
0001
0100
0001
0100
0001
0100
,  // measure 31
0001
1000
0010
1000
0100
0010
0100
1000
,  // measure 32
0010
0001
0010
1000
0001
0100
0001
1000
,  // measure 33
0100
0010
0100
1000
0001
0010
0100
1000
,  // measure 34
0001
0010
0001
0100
0010
1000
0100
1000
,  // measure 35
0001
0100
0101
0001
1000
0100
1100
0100
,  // measure 36
1000
0010
1010
0010
0100
0001
0101
0001
,  // measure 37
1000
0001
1001
0001
0010
0100
0110
0100
,  // measure 38
1000
0000
0010
0000
1000
0000
0001
0000
0010
0000
0001
0000
1000
0100
1000
0000
,  // measure 39
0001
0000
1000
0100
0000
1000
0100
0000
,  // measure 40
0010
0000
0001
0100
0000
0001
0100
0000
,  // measure 41
0010
0000
1000
0001
0000
1000
0001
0000
,  // measure 42
0100
0000
0010
1000
0000
0010
1000
0000
,  // measure 43
0100
0000
0010
0001
0000
0010
0001
0000
,  // measure 44
1000
0000
0001
0100
0000
0001
0100
0000
,  // measure 45
0001
0000
1000
0100
0000
1000
0100
0000
,  // measure 46
1000
0000
0001
1000
0000
0001
1000
0000
,  // measure 47
0001
0000
1000
0100
0000
1000
0001
0000
,  // measure 48
1000
0000
0001
0100
0000
0001
1000
0000
,  // measure 49
0001
0000
1000
0010
0000
1000
0001
0000
,  // measure 50
1000
0000
0001
0010
0000
0001
1000
0000
,  // measure 51
0001
0000
0010
0100
0000
0010
0001
0000
,  // measure 52
0010
0000
0100
1000
0000
0010
0100
0000
,  // measure 53
0001
0000
1000
0001
0000
0100
0010
0000
,  // measure 54
1000
1000
0001
0001
1000
0001
1000
0001
,  // measure 55
1001
0000
0000
0000
;

//---------------dance-single - ----------------
#NOTES:
     dance-single:
     :
     Beginner:
     1:
     0.196,0.256,0.038,0.199,0.000: // measure 1
0000
0000
0000
0000
,  // measure 2
0000
0000
0000
1000
,  // measure 3
1000
0000
0001
0000
,  // measure 4
1000
0000
0001
0001
,  // measure 5
0001
0000
1000
0000
,  // measure 6
0001
0000
1000
1000
,  // measure 7
1000
0000
0001
0000
,  // measure 8
1000
0000
0001
0001
,  // measure 9
0001
0000
1000
0000
,  // measure 10
2002
0000
0000
3003
,  // measure 11
1000
1000
2000
3000
,  // measure 12
0010
0010
0020
0030
,  // measure 13
0100
0100
0200
0300
,  // measure 14
0002
0000
0000
0003
,  // measure 15
1000
1000
2000
3000
,  // measure 16
0100
0100
0200
0300
,  // measure 17
0010
0010
0020
0030
,  // measure 18
0002
0000
0000
0003
,  // measure 19
0010
0010
0020
0030
,  // measure 20
0100
0100
0200
0300
,  // measure 21
1000
1000
2000
3000
,  // measure 22
0001
0001
0002
0003
,  // measure 23
0100
0100
0200
0300
,  // measure 24
0001
0001
0002
0003
,  // measure 25
1000
1000
2000
3000
,  // measure 26
2002
0000
0000
3003
,  // measure 27
0220
0000
0330
0000
,  // measure 28
0100
0000
0001
0000
,  // measure 29
1000
0000
0001
0000
,  // measure 30
0000
0000
0100
0000
,  // measure 31
0001
0000
0100
0000
,  // measure 32
0001
0000
0100
0000
,  // measure 33
0010
0000
1000
0000
,  // measure 34
0001
0000
1000
0000
,  // measure 35
0100
0000
1000
0000
,  // measure 36
0010
0000
0100
0000
,  // measure 37
0001
0000
0010
0000
,  // measure 38
0001
0000
1000
1000
,  // measure 39
1000
0000
0001
0000
,  // measure 40
1000
0000
0001
0000
,  // measure 41
0100
0000
0010
0000
,  // measure 42
0100
0000
0010
0000
,  // measure 43
1000
0000
0001
0000
,  // measure 44
1000
0000
0001
0000
,  // measure 45
1000
0000
0100
0000
,  // measure 46
0010
0000
0001
0001
,  // measure 47
0001
0001
0000
0010
,  // measure 48
0000
0001
0000
1000
,  // measure 49
0000
0010
0000
1000
,  // measure 50
0000
0001
0000
0100
,  // measure 51
0000
0001
0000
1000
,  // measure 52
0000
0100
0000
0010
,  // measure 53
0000
0001
0000
1000
,  // measure 54
1000
1000
1000
0000
,  // measure 55
1001
0000
0000
0000
;

//---------------dance-single - ----------------
#NOTES:
     dance-single:
     :
     Easy:
     5:
     0.402,0.871,0.076,0.066,0.152: // measure 1
0000
0000
0000
0000
,  // measure 2
0000
0000
0000
0100
,  // measure 3
0100
0010
0001
1000
,  // measure 4
0001
0100
0010
0100
,  // measure 5
1000
0001
0001
1000
,  // measure 6
0100
0100
1000
0010
,  // measure 7
1000
1000
0010
0010
,  // measure 8
0100
0100
0001
0001
,  // measure 9
1000
0001
0100
0010
,  // measure 10
0100
0001
1000
0100
,  // measure 11
1000
1000
1000
1000
,  // measure 12
0010
0010
0010
0010
,  // measure 13
0100
0100
0100
0100
,  // measure 14
0002
0100
0100
0103
,  // measure 15
0001
0001
0001
0001
,  // measure 16
0010
0010
0010
0010
,  // measure 17
0100
0100
0100
0100
,  // measure 18
2000
0010
0010
3010
,  // measure 19
1000
0010
1000
0010
,  // measure 20
0100
0001
0100
0001
,  // measure 21
1000
0001
1000
0001
,  // measure 22
0010
0010
0010
0010
,  // measure 23
0001
0100
0001
0100
,  // measure 24
0001
0010
0001
0010
,  // measure 25
0001
0010
0100
1000
,  // measure 26
0002
0003
2000
3000
,  // measure 27
0110
0001
0001
1000
1000
0001
1000
0001
0100
0100
0001
1000
0010
1000
0001
1000
,  // measure 28
0100
1000
1000
0010
0001
0010
1000
0001
0100
0001
0001
1000
0001
0010
0010
0001
,  // measure 29
0100
0001
0001
1000
0001
1000
0010
1000
0100
1000
0010
1000
0001
1000
0100
1000
,  // measure 30
0100
0010
0001
1000
0100
0010
0001
1000
0100
1000
0001
1000
0010
1000
0001
0001
,  // measure 31
1000
0010
0001
0010
1000
0100
0001
0100
,  // measure 32
1000
0010
0100
0001
1000
0001
0100
0010
,  // measure 33
1000
0010
0001
0010
1000
0100
0001
0100
,  // measure 34
1000
0001
0010
0100
1000
0001
0100
0010
,  // measure 35
1000
1000
1100
0000
0001
0001
0101
0000
,  // measure 36
0010
0010
0110
0000
1000
1000
1001
0000
,  // measure 37
0100
0100
0101
0000
0010
0010
1010
0000
,  // measure 38
1000
1000
0001
2000
0001
0001
0001
3001
,  // measure 39
1000
0001
0100
0010
,  // measure 40
0100
0001
1000
0100
,  // measure 41
1000
0010
1000
0001
,  // measure 42
0010
0001
1000
0001
,  // measure 43
0100
0001
0001
0010
,  // measure 44
0010
0100
0100
1000
,  // measure 45
1000
0100
1000
0001
,  // measure 46
1000
0010
1000
0001
,  // measure 47
0100
0001
0010
0100
,  // measure 48
2000
0100
0100
3100
,  // measure 49
1000
0010
0100
0001
,  // measure 50
0020
0001
0001
0031
,  // measure 51
0010
0001
0100
0010
,  // measure 52
1000
0001
0100
0010
,  // measure 53
1000
0100
0010
0001
,  // measure 54
1000
0001
1000
0001
,  // measure 55
1001
0000
0000
0000
;
