#TITLE:Can't Sleep Love;
#SUBTITLE:;
#ARTIST:Pentatonix;
#TITLETRANSLIT:;
#SUBTITLETRANSLIT:;
#ARTISTTRANSLIT:;
#GENRE:POP-CAPELLA;
#CREDIT:;
#MENUCOLOR:;
#NEWMETERSYSTEM:NO;
#BANNER:Can't Sleep Love.png;
#BACKGROUND:Can't Sleep Love-bg.png;
#LYRICSPATH:;
#CDTITLE:CDTitle.png;
#MUSIC:Can't Sleep Love.ogg;
#OFFSET:0.000;
#SAMPLESTART:50.195;
#SAMPLELENGTH:19.840;
#SELECTABLE:YES;
#LISTSORT:;
#BPMS:0.000=94.530;
#STOPS:;
#BGCHANGES:;
#ATTACKS:;

//---------------dance-single - DDRDAIKENKAI----------------
#NOTES:
     dance-single:
     DDRDAIKENKAI:
     Hard:
     7:
     0.412,0.485,0.170,0.455,0.179: // measure 1
0000
0000
0000
0000
,  // measure 2
0000
0000
0000
0000
,  // measure 3
0000
0000
0000
0000
,  // measure 4
0000
0000
0000
0000
,  // measure 5
1000
0100
1000
0100
0001
0100
0001
0100
,  // measure 6
1000
0000
1010
0010
0200
0000
0302
0000
,  // measure 7
1003
0100
1000
0010
1000
0100
0010
0001
,  // measure 8
0100
1000
0020
0032
,  // measure 9
0103
0001
0100
1000
0100
0001
0010
0100
,  // measure 10
1000
0000
1010
2000
0100
3000
0010
0010
,  // measure 11
0001
0001
0001
0001
0002
0000
1003
0100
,  // measure 12
2000
0000
3010
0010
0100
0000
0100
0100
,  // measure 13
0001
0010
0001
0100
0010
1000
0100
1000
,  // measure 14
0010
0000
1020
1000
2030
0000
3100
0100
,  // measure 15
0010
0001
0100
0001
0010
0100
1000
0001
,  // measure 16
0200
0000
1300
0100
0200
0000
0301
0001
,  // measure 17
0010
0001
0100
0001
0010
0001
1000
0001
,  // measure 18
0200
0000
0302
0000
2003
0000
3100
1000
,  // measure 19
0010
0000
0000
0000
0000
0000
0010
0000
0000
0000
0000
0000
0100
0000
0000
0000
0000
0000
0100
0000
0000
0000
0000
0000
0002
0000
0000
0000
0000
0000
0000
0000
0003
1000
0000
0000
0000
0000
0000
0000
0000
0000
0100
0000
0000
0000
0000
0000
,  // measure 20
2000
0000
0000
0000
0000
0000
0000
0000
0000
0000
0000
0000
3002
0000
0000
0000
0000
0000
1003
0000
0001
1000
0000
0000
,  // measure 21
1002
0000
0103
0000
1020
0000
0130
0001
,  // measure 22
0010
0000
0000
1000
0000
0000
0010
0000
0000
0001
0000
0000
0200
0000
0000
0000
0000
0310
1000
0000
0000
0100
0000
0000
,  // measure 23
0012
0000
1003
0000
0201
0000
0310
2000
,  // measure 24
3100
0000
0000
0010
0000
0000
0100
0000
0000
1000
0000
0000
0002
0000
0000
0000
0000
1003
0010
0000
0100
0000
0000
0010
,  // measure 25
0000
0000
1000
0000
0000
0001
0000
0000
1000
0000
0000
0100
0000
0000
0000
0000
0000
0010
0100
0000
0010
0000
0000
0001
,  // measure 26
0000
0000
1000
0000
0000
0001
0000
0000
0010
0000
0000
0100
0000
0000
0000
0000
0000
0000
0100
0000
1000
0010
0000
0000
,  // measure 27
1020
0000
0130
0000
0102
0000
1003
0200
,  // measure 28
0310
0001
1001
0000
,  // measure 29
0200
0000
0310
1000
0200
0000
0301
0100
,  // measure 30
0002
0000
0100
0100
0200
0000
0303
0000
,  // measure 31
2000
0000
3010
0001
0200
0000
1300
0100
,  // measure 32
0002
0000
1000
1000
2000
0000
3003
0000
,  // measure 33
0020
0000
2030
0000
3100
0010
0100
0100
,  // measure 34
0010
0001
0010
0010
0100
1000
0100
1000
,  // measure 35
0001
0000
0010
0000
0001
0000
0010
0000
0200
0000
0000
0310
0000
0000
0002
0000
,  // measure 36
0000
0000
0000
0000
0000
0000
0000
0000
0000
2003
0000
0000
0000
0000
0000
0000
0000
0000
3010
0000
1000
0010
0000
0000
,  // measure 37
1020
0000
0130
0000
0102
0000
1003
0200
,  // measure 38
1300
0000
0000
0000
0000
0000
0010
0000
0000
0000
0000
0000
0100
0000
0000
0000
0000
0000
0001
0000
0000
0000
0000
0000
0012
0000
0000
0000
0000
0000
0000
0000
0000
0003
0100
0000
0010
0000
0000
0000
0000
0000
1000
0000
0000
0000
0000
0000
,  // measure 39
1200
0000
0000
0000
0000
1300
0001
0000
0000
0100
0000
0000
0201
0000
0000
0000
0000
0320
0000
0000
0000
0032
0000
0000
,  // measure 40
0013
0000
0000
1000
0000
0000
1100
0000
0000
0000
0000
0000
0010
0000
0001
1000
0000
0100
0010
0000
0001
1000
0000
0100
,  // measure 41
0000
0000
0010
0000
0000
0001
0000
0000
1000
0000
0000
0001
0100
0000
0000
0000
0000
0100
0010
0000
1000
0000
0000
0001
,  // measure 42
0000
0000
1000
0000
0000
0010
0000
0000
1000
0000
0000
0100
1000
0000
0000
0000
0000
0000
1000
0000
0001
0010
0000
0000
,  // measure 43
0011
0000
0000
0000
0000
0000
1010
0000
0000
0000
0000
0000
2100
0000
0000
0000
0000
3200
0000
0000
0000
0302
0000
0000
,  // measure 44
0000
0000
0000
0000
0000
0000
0000
0000
0000
0000
0000
0000
0000
0000
0000
0000
0000
0000
0000
0000
0000
0000
0000
0000
0000
0000
0000
0000
0000
0003
0000
0000
0000
0000
0000
0000
0000
0000
0000
0000
0000
0000
0000
0000
0000
0000
0000
0000
0000
0000
0000
0000
0000
0000
0000
0000
0000
0000
0000
0000
0000
0000
0000
0000
;

//---------------dance-single - DDRDAIKENKAI----------------
#NOTES:
     dance-single:
     DDRDAIKENKAI:
     Medium:
     5:
     0.315,0.349,0.125,0.428,0.022:
0000
0000
0000
0000
,
0000
0000
0000
0000
,
0000
0000
0000
0000
,
0000
0000
0000
0000
,
1000
0000
0001
0000
0100
0010
1000
0000
,
0200
0000
0310
0010
0020
0000
0031
0000
,
1000
0000
0010
0000
0100
0001
1000
0000
,
0200
1300
0020
0230
,
0301
0000
0010
0000
0100
1000
0001
0000
,
0100
0000
0010
0020
0000
0000
1030
1000
,
0001
0001
0001
0001
0002
0000
1003
0000
,
0200
0310
1001
0000
,
1000
0000
0100
0000
1000
0000
0100
0000
1000
0000
0000
0100
0000
0000
0010
0000
,
0000
0000
0002
0000
2003
0000
3100
0100
,
0010
0000
0001
0000
0010
0000
0001
0000
0010
0000
0000
0100
0000
0000
1000
0000
,
0000
0020
0230
0301
,
0100
0000
1000
0000
0100
0000
1000
0000
0100
0000
0000
0001
0000
0000
1000
0000
,
0000
0200
0320
0031
,
0010
0000
0100
0000
0010
0000
0100
0000
2000
0000
0000
3001
0000
0000
0200
0000
,
0000
0000
0002
0303
,
1020
0130
0102
1003
,
1200
0000
0310
0001
0200
0000
0301
0000
,
0012
1003
2100
3001
,
0102
0000
1003
0010
0200
0000
0301
0000
,
1000
0100
1000
0100
2000
0000
3010
0000
,
0100
0001
0100
0001
0100
0000
0100
0010
,
2000
0000
3010
0000
0200
0000
0301
2000
,
0000
0000
0100
0100
0200
0000
3300
0000
,
0020
0001
0000
0100
,
0000
0000
1000
1000
2000
0000
3030
0000
,
0002
0100
0000
1000
,
0000
0000
0010
0010
0020
0000
0033
0000
,
2000
0010
0000
0001
,
0000
0000
0100
0100
3100
0100
0100
0010
,
0001
0000
0010
0000
0001
0000
0010
0000
0002
0000
0000
0103
0000
0000
0020
0000
,
0000
0030
0202
0303
,
1020
1030
1200
1300
,
0001
0010
0001
0010
0200
0000
1300
0000
,
1020
0130
0102
1003
,
0100
0010
0100
0010
0001
1000
0001
1000
,
0100
1000
0100
1000
0002
0000
0103
0000
,
0010
1000
0010
1000
0010
0000
0010
1000
,
1002
0000
0013
0000
2100
0000
3001
2000
,
0000
0000
0000
0000
0000
0000
0000
0000
0000
0000
0000
0000
0000
0000
0000
0000
0000
0000
0000
0000
0000
0000
0000
0000
0000
0000
0000
0000
0000
3000
0000
0000
0000
0000
0000
0000
0000
0000
0000
0000
0000
0000
0000
0000
0000
0000
0000
0000
0000
0000
0000
0000
0000
0000
0000
0000
0000
0000
0000
0000
0000
0000
0000
0000
;

//---------------dance-single - DDRDAIKENKAI----------------
#NOTES:
     dance-single:
     DDRDAIKENKAI:
     Easy:
     2:
     0.186,0.194,0.018,0.312,0.000:
0000
0000
0000
0000
,
0000
0000
0000
0000
,
0000
0000
0000
0000
,
0000
0000
0000
0000
,
1000
0001
1000
0001
,
0100
0000
0200
0300
,
0010
0100
0010
0100
,
0001
0000
2000
3002
,
0103
0010
1000
0100
,
0001
0000
0100
0000
,
1000
0000
1000
0000
0002
0000
0000
2000
,
0000
0000
3003
0000
,
1000
0100
1000
0001
,
0100
0000
0020
0030
,
0100
0001
1000
0001
,
0010
0000
0200
0300
,
1000
0010
0001
0010
,
2000
0001
0001
3001
,
0100
0100
0010
0010
,
2000
0000
0002
3003
,
1002
0000
0203
0000
,
0310
1000
0100
0010
,
0002
0000
2003
0000
,
3010
0100
0001
1000
,
0100
0001
0100
0000
,
0100
1000
0100
0000
,
0200
0000
0000
0000
0320
0000
0000
0002
,
0000
0000
0033
0000
,
0002
0000
0000
0000
0000
0000
0000
0203
,
0000
0000
0000
0010
0020
0000
0330
0000
,
2000
0000
0000
0000
0000
0000
0000
3200
,
0000
0000
0000
0010
0020
0000
0330
0000
,
0002
0000
0000
0000
0000
0000
0000
2000
,
0003
0000
0000
3000
,
0001
0100
0010
1000
,
0200
0000
0020
0330
,
1002
0000
2003
0000
,
3010
0100
0010
0100
,
0020
0000
2030
0000
,
3002
0000
0100
0103
,
0001
0001
0001
1000
,
0100
0100
0100
0010
,
0002
0000
0103
0000
0020
0000
0000
2000
,
0000
0000
0000
0000
0000
0000
0000
0000
0000
0000
0000
0000
0000
0000
0000
0000
0000
0000
0000
0000
0000
0000
0000
0000
0000
0000
0000
0000
0000
3030
0000
0000
0000
0000
0000
0000
0000
0000
0000
0000
0000
0000
0000
0000
0000
0000
0000
0000
0000
0000
0000
0000
0000
0000
0000
0000
0000
0000
0000
0000
0000
0000
0000
0000
;
