#TITLE:Be My Lover;
#SUBTITLE:(High Energy Remix);
#ARTIST:La Bouche;
#TITLETRANSLIT:;
#SUBTITLETRANSLIT:;
#ARTISTTRANSLIT:;
#GENRE:;
#CREDIT:;
#MENUCOLOR:;
#NEWMETERSYSTEM:NO;
#BANNER:Be My Lover (High Energy Remix).png;
#BACKGROUND:Be My Lover (High Energy Remix)-bg.png;
#LYRICSPATH:;
#CDTITLE:CDTitle.png;
#MUSIC:Be My Lover (High Energy Remix).ogg;
#OFFSET:0.000;
#SAMPLESTART:78.275;
#SAMPLELENGTH:13.000;
#SELECTABLE:YES;
#LISTSORT:;
#BPMS:0.000=139.000,244.000=69.500,258.000=139.000;
#STOPS:28.000=1.295
,177.000=0.432
;
#BGCHANGES:;
#ATTACKS:;

//---------------dance-single - DDRDAIKENKAI----------------
#NOTES:
     dance-single:
     DDRDAIKENKAI:
     Hard:
     8:
     0.641,0.747,0.190,0.306,0.199: // measure 1
0000
0000
0000
0000
,  // measure 2
0000
0000
0000
0000
,  // measure 3
0000
0000
0000
0000
,  // measure 4
0000
0000
0000
1000
0001
0100
0010
2000
,  // measure 5
0100
3000
0010
0001
0010
0100
1000
0002
,  // measure 6
0100
0000
0003
0000
0010
0000
1000
0000
0200
0000
0000
2300
0000
0000
3010
0000
,  // measure 7
0200
0000
0301
0010
0100
1000
0001
0000
,  // measure 8
2002
3003
0000
0000
0000
0000
0000
0000
0000
0000
0000
0000
0000
0000
0000
0000
1000
0000
0000
0000
0000
0000
0000
0000
0010
0000
0000
0000
0000
0000
0000
0000
0100
0000
0000
0000
0000
0000
0000
0000
0001
0000
0000
0000
0000
0000
0000
0000
0010
0000
0000
0000
0000
0000
0000
0000
0100
0000
0000
0000
0000
0000
0000
0000
,  // measure 9
1000
0010
1000
0100
0010
0001
1000
0010
,  // measure 10
0100
0001
1000
0100
1000
0010
0100
0001
,  // measure 11
0010
0001
1000
0010
0100
0001
1000
0100
,  // measure 12
0010
0001
1000
0100
0001
0100
1000
0010
,  // measure 13
1000
0001
1000
0100
0001
0100
1000
0010
,  // measure 14
1000
0001
1000
0100
0001
0100
1000
0010
,  // measure 15
1000
0001
1000
0100
0010
0001
1000
0010
,  // measure 16
0100
0001
0011
0010
0001
0001
0100
0100
,  // measure 17
0010
1000
0100
1000
0010
0100
0001
0001
,  // measure 18
0000
1000
0100
0100
1000
1000
0001
0001
,  // measure 19
0100
0010
1000
1000
0001
0001
0010
0010
,  // measure 20
0001
0000
1000
0000
0010
1000
0010
0000
0100
0001
0100
0000
0010
1000
0010
0000
,  // measure 21
0100
0001
0100
0000
0001
0010
0001
0000
1000
0100
1000
0000
0010
0100
0010
0000
,  // measure 22
1000
0001
1000
0000
1001
0000
1000
0000
0010
0000
1000
0000
0001
0000
1000
0000
,  // measure 23
0100
1000
0001
1000
0100
0010
0001
0001
,  // measure 24
0000
0001
0100
0010
0100
0001
0100
1000
,  // measure 25
0100
0001
1000
0010
0100
0001
0010
0001
,  // measure 26
0100
0000
0010
0000
1000
0100
1000
0000
0001
0010
0001
0000
1000
0000
0100
0000
,  // measure 27
0010
0000
0001
0000
1000
0001
1000
0000
0100
0010
0100
0000
1000
0000
0001
0000
,  // measure 28
0100
0000
0010
0000
1000
0100
1000
0000
0010
0100
0010
0000
0100
0000
0001
0000
,  // measure 29
0010
0000
0100
0000
0110
0000
0000
0000
1001
0000
0000
0000
1100
0000
0000
0001
,  // measure 30
0100
0000
0010
0000
0110
0000
0010
1000
0010
0000
0100
0000
0010
0000
0001
0000
,  // measure 31
0010
0000
1000
0000
0001
0000
0100
0010
0100
0000
0001
0000
0100
0000
1000
0000
,  // measure 32
0100
0000
0001
0000
1000
0000
0010
1000
0010
0000
0100
0000
0001
0000
0010
0000
,  // measure 33
1000
0000
0010
0000
0001
0000
0100
0010
0100
0000
0001
0000
1000
0000
0100
0000
,  // measure 34
0001
0000
0100
0000
1000
0000
0001
0010
0001
0000
1000
0000
0010
0000
0100
0000
,  // measure 35
0001
0000
1000
0000
0100
0000
1000
0010
1000
0000
0001
0000
0010
0000
0100
0000
,  // measure 36
1000
0000
0001
0000
0100
0000
0010
1000
0010
0000
0100
0000
0001
0000
1000
0000
,  // measure 37
0100
0000
0010
0000
0001
0000
0100
0010
0100
0000
0001
0000
1000
0000
0010
0100
,  // measure 38
0010
1000
2001
0000
3001
1000
0100
0010
,  // measure 39
0001
1000
0200
0000
1300
0001
0100
0010
,  // measure 40
0100
0001
1002
0000
1003
0010
1000
0100
,  // measure 41
0010
0100
2000
0000
3020
0000
0130
0001
,  // measure 42
0010
0000
0100
0000
2000
0000
0000
3020
0000
0000
0031
0000
2000
0000
0000
3200
,  // measure 43
0000
0000
0301
0000
2000
0000
0000
3200
0000
0000
0310
0000
0001
0000
0100
0000
,  // measure 44
0010
1000
1010
0000
0101
0000
0010
1000
,  // measure 45
0100
1000
1001
1000
1000
0001
0100
0010
,  // measure 46
1010
0010
0100
0010
1000
0100
0010
0100
,  // measure 47
1000
0010
0100
0001
0010
0100
1000
1000
,  // measure 48
0001
0010
0001
0100
0010
0100
0001
0010
,  // measure 49
0100
0010
0001
0100
0010
1000
0001
0001
,  // measure 50
1000
0010
0100
0001
0010
0100
1000
1000
,  // measure 51
0100
0000
0010
0000
0001
0000
0100
0000
0010
0000
0000
1000
0001
0000
0001
0000
,  // measure 52
1000
0010
0001
0100
,  // measure 53
1000
0010
1000
0000
0001
0100
0001
0000
1000
0010
1000
0000
0010
0100
0010
0000
,  // measure 54
0110
0000
1001
0000
0010
0200
0001
0300
,  // measure 55
0010
0100
1000
0001
0200
0010
0310
0000
,  // measure 56
1001
0000
0110
0000
0001
2000
0100
3000
,  // measure 57
0010
0100
1000
0001
2000
0001
3001
0000
,  // measure 58
0110
0000
1001
0000
0010
0200
0001
0300
,  // measure 59
1000
0100
0010
0001
0200
0001
0301
0000
,  // measure 60
1001
0000
0110
0000
0001
2000
0100
3000
,  // measure 61
1000
0001
0100
0010
0100
0001
1000
0010
,  // measure 62
0120
0000
0100
0230
0000
0000
0000
0000
0302
0000
0000
1000
1003
0100
0010
0001
,  // measure 63
2000
0000
0010
3020
0000
0000
0000
0000
0230
0000
0000
0301
0010
0100
1000
0002
,  // measure 64
0000
0000
0000
0000
1003
0000
0100
0000
0010
0000
0001
0000
0100
0000
0020
0000
0000
0000
0000
0000
1030
0000
0100
0000
2000
0000
0000
3020
0000
0000
0130
0000
,  // measure 65
0002
0000
1003
0020
0000
0000
0030
0000
1001
0000
0000
0000
0000
0000
0000
0000
;

//---------------dance-single - DDRDAIKENKAI----------------
#NOTES:
     dance-single:
     DDRDAIKENKAI:
     Medium:
     6:
     0.410,0.427,0.058,0.215,0.000: // measure 1
0000
0000
0000
0000
,  // measure 2
0000
0000
0000
0000
,  // measure 3
0000
0000
0000
0000
,  // measure 4
0000
0000
0000
0000
,  // measure 5
1000
0000
0001
0100
0001
0100
0001
0000
,  // measure 6
1000
0000
0100
0010
0100
0000
0010
0000
,  // measure 7
0001
1000
0010
0100
,  // measure 8
0220
0330
0000
0000
0000
0000
0000
0000
0000
0000
0000
0000
0000
0000
0000
0000
0100
0000
0000
0000
0000
0000
0000
0000
0000
0000
0000
0000
0000
0000
0000
0000
0001
0000
0000
0000
0000
0000
0000
0000
0000
0000
0000
0000
0000
0000
0000
0000
1000
0000
0000
0000
0000
0000
0000
0000
0000
0000
0000
0000
0000
0000
0000
0000
,  // measure 9
0100
0000
0010
0001
0100
0000
0001
0010
,  // measure 10
0100
1000
0010
0001
,  // measure 11
0010
0000
0100
0001
1000
0000
0100
1000
,  // measure 12
0001
0000
1000
0000
0100
0000
0010
0001
,  // measure 13
0010
0100
1000
0000
0100
0000
0010
0001
,  // measure 14
0010
0100
1000
0000
0100
0000
0010
0001
,  // measure 15
0010
0100
1000
0000
0010
0000
0100
0000
,  // measure 16
0001
0000
1000
0100
1000
0000
0001
0000
,  // measure 17
1000
0010
0000
0100
0001
0000
1000
0100
,  // measure 18
0000
0010
0100
0000
0010
0001
0010
0000
,  // measure 19
0010
1000
0010
0000
0010
0100
0010
0000
,  // measure 20
0001
0010
0001
0000
0100
0000
0010
1000
,  // measure 21
0100
1000
0010
0100
,  // measure 22
0001
0010
0100
0000
1000
0010
0100
0000
,  // measure 23
0001
1000
0100
0000
0010
0001
0200
0000
,  // measure 24
0310
0000
1000
0000
0001
0010
0001
0000
,  // measure 25
1000
0100
1000
0000
0010
0100
0010
0000
,  // measure 26
1000
0001
1000
0000
0010
0000
0001
0010
,  // measure 27
0100
0010
1000
0000
0010
0000
0001
0010
,  // measure 28
0100
0010
1000
0000
0010
0000
0001
0010
,  // measure 29
0100
0010
1000
0000
0100
0000
0010
0000
,  // measure 30
0001
0000
1000
0000
0100
0000
1000
0001
,  // measure 31
1000
0001
0100
0000
0001
1000
0001
1000
,  // measure 32
0001
1000
0100
0000
0010
0100
0010
0000
,  // measure 33
0001
0100
0010
1000
,  // measure 34
0100
1000
0100
0000
0001
0000
0100
0000
,  // measure 35
1000
0001
1000
0000
0010
0000
0001
0000
,  // measure 36
0010
1000
0001
0000
0010
0000
0100
0000
,  // measure 37
0010
0001
0100
0000
0010
0000
1000
0000
,  // measure 38
0100
0000
0110
0000
0010
0000
0001
0100
,  // measure 39
0010
0000
0110
0000
1000
0000
0100
0010
,  // measure 40
0001
0000
1001
0000
1000
0000
0100
1000
,  // measure 41
0010
1010
0010
1000
,  // measure 42
0100
0010
0001
0000
0100
0010
1000
0000
,  // measure 43
0100
0010
0001
0000
0100
0000
0010
1000
,  // measure 44
0100
0010
0001
0000
1000
0000
0001
1000
,  // measure 45
0100
0110
0000
0000
,  // measure 46
0110
0010
0001
0100
,  // measure 47
0010
0000
1000
0000
0100
0010
0001
0100
,  // measure 48
0010
0100
0001
0010
,  // measure 49
0100
0000
1000
0000
0010
0100
0001
0020
,  // measure 50
0000
0000
0031
0100
0001
0100
0001
0020
,  // measure 51
0000
0000
0031
0100
0001
0000
1000
0100
,  // measure 52
1000
0001
0010
0001
,  // measure 53
1000
0010
0100
0010
1000
0010
0100
0010
,  // measure 54
2000
0000
3200
0000
0310
0001
0100
0000
,  // measure 55
0010
1000
0100
1000
0200
0000
1300
0000
,  // measure 56
0002
0000
0023
0000
0130
1000
0001
0000
,  // measure 57
0100
0010
0100
0010
0200
0000
0301
0000
,  // measure 58
2000
0000
3200
0000
0310
0001
0100
0000
,  // measure 59
0001
0010
0001
0010
0200
0000
1300
0000
,  // measure 60
0002
0000
0203
0000
1300
0100
0001
0000
,  // measure 61
1000
0000
0100
0000
0001
0100
1000
0001
,  // measure 62
0200
0000
0320
2030
,  // measure 63
3200
0000
0320
0032
,  // measure 64
2003
0000
3020
0230
,  // measure 65
0302
0000
1003
0000
;

//---------------dance-single - DDRDAIKENKAI----------------
#NOTES:
     dance-single:
     DDRDAIKENKAI:
     Easy:
     3:
     0.281,0.267,0.141,0.174,0.000:
0000
0000
0000
0000
,
0000
0000
0000
0000
,
0000
0000
0000
0000
,
0000
0000
0000
0000
,
2000
0000
0000
0000
,
3002
0000
0000
0000
,
0203
0000
0000
0300
,
0220
0330
0000
0000
0000
0000
0000
0000
0000
0000
0000
0000
0000
0000
0000
0000
0100
0000
0000
0000
0000
0000
0000
0000
0000
0000
0000
0000
0000
0000
0000
0000
0001
0000
0000
0000
0000
0000
0000
0000
0000
0000
0000
0000
0000
0000
0000
0000
1000
0000
0000
0000
0000
0000
0000
0000
0000
0000
0000
0000
0000
0000
0000
0000
,
0100
0010
0100
1000
,
0001
0100
0001
1000
,
0100
0010
0100
1000
,
0001
0100
0100
0010
,
1000
0100
0100
0010
,
0001
0100
0100
0010
,
1000
0100
0001
0100
,
1000
0001
0001
1000
,
1000
0010
0100
0001
,
0000
1000
1000
0001
,
0001
0100
0010
1000
,
0000
1100
0000
0011
,
0000
0101
0000
1010
,
0000
1000
1000
0001
,
0001
0100
0010
1000
,
0000
0001
0001
1000
,
1000
0010
0100
0001
,
0000
0011
0000
1100
,
0000
1010
0000
0101
,
0000
0110
0000
1001
,
0000
0100
0100
0100
,
0100
0001
0010
0001
,
0010
0100
1000
0100
,
1000
0010
1000
0010
,
1000
0001
0100
0001
,
0100
0010
1000
0010
,
1000
0100
1000
0100
,
1000
0100
0001
0100
,
0001
0010
0001
0010
,
0001
0011
0000
0010
,
1000
1010
0000
1000
,
0100
1100
0000
0100
,
0001
0101
0000
0100
,
1000
0001
0001
1000
,
1000
0010
0010
0100
,
0100
0001
0010
0100
,
1000
1001
0000
0000
,
1001
1000
0001
1000
,
0001
0100
0010
1000
,
0001
1000
0001
1000
,
0001
0100
0010
1000
,
0001
0010
0100
1000
,
0001
0010
0100
1000
,
0010
0100
0010
0100
,
0002
0000
0000
0003
,
2000
0100
0200
3300
,
0010
0001
0100
0010
,
2000
0100
0200
3300
,
0010
0001
0100
0010
,
2000
0001
0002
3003
,
1000
0001
0100
0010
,
2000
0001
0002
3003
,
1000
0100
0010
0001
,
2000
0000
3200
0000
,
0320
0000
0032
0000
,
0203
0000
0320
0000
,
2030
0000
3001
0000
;
