#TITLE:ASEREJE;
#SUBTITLE:-SPEED MIX-;
#ARTIST:DJ SPEEDO feat. WILDSIDE;
#TITLETRANSLIT:;
#SUBTITLETRANSLIT:;
#ARTISTTRANSLIT:;
#GENRE:;
#CREDIT:;
#BANNER:ASEREJE.png;
#BACKGROUND:ASEREJE-bg.png;
#LYRICSPATH:;
#CDTITLE:CDtitle.png;
#MUSIC:ASEREJE -SPEED MIX-.ogg;
#OFFSET:-0.020;
#SAMPLESTART:91.880;
#SAMPLELENGTH:14.860;
#SELECTABLE:YES;
#BPMS:0.000=194.820,291.000=97.410,295.000=194.820,359.000=97.410,363.000=194.820;
#STOPS:286.000=0.154
,289.500=0.154
;
#TIMESIGNATURES:0.000=4=4
;
#BGCHANGES:;
#KEYSOUNDS:;
#ATTACKS:;

//---------------dance-single - DDRDAIKENKAI----------------
#NOTES:
     dance-single:
     DDRDAIKENKAI:
     Medium:
     6:
     0.474,0.547,0.138,0.239,0.000,406.000,19.000,33.000,0.000,0.000,0.000,-1.000,-1.000,0.474,0.547,0.138,0.239,0.000,406.000,19.000,33.000,0.000,0.000,0.000,-1.000,-1.000: // measure 1
0000
0000
0000
0000
,  // measure 2
0000
0000
0000
0000
,  // measure 3
0000
0000
0000
0000
,  // measure 4
0000
0000
0000
0000
,  // measure 5
0000
0000
0000
0000
,  // measure 6
0000
0000
0000
0000
,  // measure 7
0000
0000
0000
0000
,  // measure 8
0000
0000
0000
0000
,  // measure 9
1000
1000
0001
0001
,  // measure 10
0010
0010
0001
0001
,  // measure 11
0100
0010
2000
3002
,  // measure 12
2003
0000
0000
3100
0000
0000
0000
0000
,  // measure 13
0010
0010
0001
0001
,  // measure 14
1000
1000
0001
0001
,  // measure 15
0010
0100
2000
3002
,  // measure 16
0203
0000
0000
0310
0000
1000
0000
1000
,  // measure 17
0000
0001
0000
0001
0000
0100
0000
0010
,  // measure 18
0000
0100
0000
0001
0000
1000
0000
0100
,  // measure 19
0000
0010
0000
0001
0000
1000
0000
0001
,  // measure 20
0100
0101
0000
0001
,  // measure 21
0001
0010
0000
0001
0000
0010
0000
0100
,  // measure 22
0000
1000
0000
0010
0000
0100
0000
0001
,  // measure 23
0000
1000
0000
0100
0000
0010
0000
0001
,  // measure 24
1000
0000
0001
0000
0000
0000
0100
0010
,  // measure 25
0200
0000
0301
0000
0000
0000
0100
0010
,  // measure 26
0200
0000
0310
0000
0000
0000
0100
0010
,  // measure 27
2000
0002
0000
0000
,  // measure 28
0000
0000
0000
0000
3003
0001
0010
0001
,  // measure 29
0010
0000
0000
0000
0001
0000
0000
1000
,  // measure 30
0100
0000
0000
0010
0001
0000
1000
0000
,  // measure 31
0001
0100
0000
0010
0000
1000
0000
0100
,  // measure 32
0000
1000
0000
0010
0100
0000
0001
0100
,  // measure 33
0001
1000
0100
0010
,  // measure 34
0011
0000
0000
0000
0000
0001
0010
0000
,  // measure 35
0100
0000
0000
0000
1000
0000
0000
0001
,  // measure 36
0100
0000
0000
0010
1000
0000
0100
0000
,  // measure 37
0010
0001
0000
0010
0000
0100
0000
1000
,  // measure 38
0000
0001
0000
0100
0010
0000
1000
0000
,  // measure 39
0100
1000
0100
0000
0010
0000
0001
0000
,  // measure 40
0101
0000
0000
0000
0000
0001
1000
0000
,  // measure 41
0100
0000
0000
0000
1000
0000
0000
0001
,  // measure 42
0100
0000
0000
0010
1000
0000
0100
0000
,  // measure 43
0010
0001
0000
1000
0000
0010
0000
0100
,  // measure 44
0000
0001
0000
1000
0100
0000
1000
0001
,  // measure 45
1000
0000
0010
0100
0010
0000
1000
0001
,  // measure 46
2000
3002
2003
3002
,  // measure 47
2003
3002
2003
3002
,  // measure 48
0103
0000
0010
0000
0100
0000
0001
1000
,  // measure 49
0000
0100
0000
0010
0000
0001
1000
0000
,  // measure 50
0001
0000
0010
0000
0100
0000
1000
0001
,  // measure 51
0000
0100
0000
0010
0000
1000
0100
0000
,  // measure 52
1000
0000
0010
0000
0100
0000
0001
0010
,  // measure 53
0000
0001
0000
1000
0000
0001
0100
0000
,  // measure 54
0010
0000
1000
0000
0100
0010
0100
0010
,  // measure 55
0000
0110
0000
0110
0000
0100
0010
0100
,  // measure 56
0010
0010
0100
0100
,  // measure 57
1000
1000
0001
0001
,  // measure 58
1000
0010
2000
3020
,  // measure 59
0230
0000
0000
0301
0000
0000
0000
0000
,  // measure 60
1000
1000
0001
0001
,  // measure 61
0100
0100
0010
0010
,  // measure 62
0100
0100
0002
0023
,  // measure 63
0230
0000
0000
1300
0000
1000
0000
0001
,  // measure 64
0000
0100
0000
0010
0000
0100
0000
0001
,  // measure 65
0000
1000
0000
0100
0000
0010
0000
0001
,  // measure 66
0000
0010
0000
0100
0000
1000
0000
0001
,  // measure 67
0100
0100
0000
0010
,  // measure 68
0010
1000
0000
0100
0000
0010
0000
0100
,  // measure 69
0000
1000
0000
0010
0000
0100
0000
0001
,  // measure 70
0000
0010
0000
0100
0000
1000
0000
0001
,  // measure 71
0100
0000
0100
0000
0000
0000
0010
1000
,  // measure 72
0010
0000
2000
0000
3000
0001
0010
0002
,  // measure 73
0000
0023
0000
0030
0001
0010
0002
2000
,  // measure 74
0000
0000
3003
0110
,  // measure 75
0000
0000
0001
0000
0000
1000
0100
0000
,  // measure 76
0000
0010
0001
0000
1000
0000
0001
0100
,  // measure 77
0000
1000
0000
0010
0000
0001
0000
0010
,  // measure 78
0000
1000
0100
0000
0001
0000
0010
0000
,  // measure 79
0100
1000
0001
0101
,  // measure 80
0000
0000
0000
0001
1000
0000
1100
0000
,  // measure 81
0000
0000
0110
0000
0000
0010
0001
0000
,  // measure 82
0000
0001
0100
0000
0010
0000
1000
0100
,  // measure 83
0000
1000
0000
0010
0000
0100
0000
0001
,  // measure 84
0000
0010
0100
0000
1000
0000
0001
0000
,  // measure 85
0100
0010
1000
1001
,  // measure 86
0000
0000
0000
0001
0100
0000
0101
0000
,  // measure 87
0000
0000
1010
0000
0000
0001
0100
0000
,  // measure 88
0000
0010
1000
0000
0100
0000
0010
0100
,  // measure 89
0000
1000
0000
0010
0000
0100
0000
0001
,  // measure 90
0000
1000
0100
0000
0010
0000
0001
0001
,  // measure 91
1000
1000
2002
0000
0000
3003
0001
0000
,  // measure 92
0001
0000
1000
0000
0001
0100
0000
1000
,  // measure 93
0000
0100
0000
0001
1000
0000
0001
0000
,  // measure 94
1000
0000
0001
0000
1000
0010
0000
0001
,  // measure 95
0000
0010
0000
1000
0001
0000
1000
0000
,  // measure 96
0010
0000
0100
0000
0001
0100
0000
0010
,  // measure 97
0000
1000
0000
0100
0010
0000
0110
0000
,  // measure 98
0001
0110
1000
1001
,  // measure 99
0110
1001
0110
0001
,  // measure 100
0001
1000
1000
0001
,  // measure 101
0001
1000
1000
0010
,  // measure 102
0010
0100
0100
0010
,  // measure 103
0010
0000
0100
0000
0100
0000
0001
0010
,  // measure 104
0001
0000
0010
0100
0010
0000
0100
1000
,  // measure 105
0100
0000
1000
0001
1000
0000
0001
0000
,  // measure 106
0100
0000
0010
1000
0010
1000
0000
0100
,  // measure 107
0000
0100
0000
0100
0010
0200
0020
0000
,  // measure 108
0000
0000
0000
0330
;

//---------------dance-single - DDRDAIKENKAI----------------
#NOTES:
     dance-single:
     DDRDAIKENKAI:
     Easy:
     4:
     0.376,0.503,0.326,0.420,0.000,260.000,45.000,58.000,0.000,0.000,0.000,-1.000,-1.000,0.376,0.503,0.326,0.420,0.000,260.000,45.000,58.000,0.000,0.000,0.000,-1.000,-1.000: // measure 1
0000
0000
0000
0000
,  // measure 2
0000
0000
0000
0000
,  // measure 3
0000
0000
0000
0000
,  // measure 4
0000
0000
0000
0000
,  // measure 5
0000
0000
0000
0000
,  // measure 6
0000
0000
0000
0000
,  // measure 7
0000
0000
0000
0000
,  // measure 8
0000
0000
0000
0000
,  // measure 9
0001
0000
1000
0000
,  // measure 10
0010
0000
0100
0000
,  // measure 11
0001
0000
0010
0010
,  // measure 12
0200
0000
0000
0300
0000
0000
0000
0000
,  // measure 13
0010
0000
0100
0000
,  // measure 14
1000
0000
0100
0000
,  // measure 15
0010
0000
0100
0100
,  // measure 16
2000
0000
0000
3000
0000
0000
0000
0000
,  // measure 17
0001
0000
1000
0000
,  // measure 18
0001
0000
1000
0000
,  // measure 19
0010
0010
0010
0010
,  // measure 20
0110
0000
0220
0330
0000
0000
0000
0000
,  // measure 21
0010
0000
0010
0000
,  // measure 22
0100
0000
0100
0000
,  // measure 23
0010
0010
0010
0010
,  // measure 24
0110
0000
0220
0330
0000
0000
0000
0000
,  // measure 25
1001
0000
2002
3003
0000
0000
0000
0000
,  // measure 26
0110
0000
0220
0330
0000
0000
0000
0000
,  // measure 27
2000
0002
0000
0000
,  // measure 28
0000
0000
0000
3003
,  // measure 29
1001
0000
0110
0000
,  // measure 30
1001
0000
1000
1000
,  // measure 31
0200
0300
0020
0030
,  // measure 32
0200
0300
1000
1000
,  // measure 33
0001
0001
1000
0010
,  // measure 34
0200
0300
0000
1001
,  // measure 35
1001
0000
0110
0000
,  // measure 36
1001
0000
0001
0001
,  // measure 37
0020
0030
0020
0030
,  // measure 38
0200
0300
0100
0100
,  // measure 39
0010
0001
1000
0001
,  // measure 40
0100
0000
0010
1000
,  // measure 41
0001
0000
0010
0000
,  // measure 42
0001
0000
0001
0001
,  // measure 43
0002
0003
0020
0030
,  // measure 44
0200
0300
1000
0001
,  // measure 45
1000
1000
0001
0001
,  // measure 46
2000
3002
2003
3002
,  // measure 47
2003
3002
2003
3001
,  // measure 48
2002
3003
0100
0000
,  // measure 49
0001
0001
0001
0000
,  // measure 50
0010
0000
0100
0000
,  // measure 51
1000
1000
1000
0000
,  // measure 52
0100
0000
0010
0000
,  // measure 53
0001
1000
0001
0000
,  // measure 54
0001
0010
0100
1000
,  // measure 55
2002
0000
0000
3003
,  // measure 56
1000
0000
1000
0000
,  // measure 57
0001
0000
0001
0000
,  // measure 58
0100
0010
0100
0010
,  // measure 59
2000
0000
0000
3000
0000
0000
0000
0000
,  // measure 60
0100
0000
0100
0000
,  // measure 61
0010
0000
0010
0000
,  // measure 62
0001
0100
0010
1000
,  // measure 63
2002
0000
0000
3003
0000
0000
0000
0000
,  // measure 64
0010
0000
1000
0000
,  // measure 65
0001
0000
0100
0000
,  // measure 66
0001
0010
0100
1000
,  // measure 67
1001
0000
2002
3003
0000
0000
0000
0000
,  // measure 68
0010
0000
0100
0000
,  // measure 69
1000
0000
0001
0000
,  // measure 70
0010
0100
1000
0100
,  // measure 71
0110
0000
0220
0330
0000
0000
0000
0000
,  // measure 72
0110
0000
0000
0000
1001
0000
0000
0110
,  // measure 73
0000
0000
0000
1001
0000
0000
2200
0000
,  // measure 74
0000
0000
0000
0000
0000
3300
1001
0000
,  // measure 75
0000
0110
0000
1001
,  // measure 76
0000
0001
0001
0002
,  // measure 77
0003
0200
0300
0020
,  // measure 78
0030
1000
0001
0010
,  // measure 79
0100
1000
0001
1001
,  // measure 80
0000
0000
0010
0110
,  // measure 81
0000
1001
0000
0110
,  // measure 82
0000
0010
0010
0020
,  // measure 83
0030
0200
0300
0002
,  // measure 84
0003
0100
0010
1000
,  // measure 85
0001
1000
0001
1000
,  // measure 86
0000
0000
0110
0110
,  // measure 87
0000
1010
0000
0110
,  // measure 88
0000
0100
0100
0200
,  // measure 89
0300
0002
0003
2000
,  // measure 90
3000
0000
0001
0000
1000
0000
0001
1000
,  // measure 91
0001
1000
0002
0000
0000
0003
0010
0000
,  // measure 92
0000
0001
0000
0100
,  // measure 93
0001
0100
0001
0100
,  // measure 94
0000
0010
0000
1000
,  // measure 95
0100
1000
0100
0010
,  // measure 96
0000
0100
0000
1000
,  // measure 97
0001
1000
0001
2002
,  // measure 98
3003
0220
0330
1001
,  // measure 99
1001
1001
1001
0001
,  // measure 100
0001
0010
0010
0100
,  // measure 101
0100
1000
1000
0001
,  // measure 102
0001
0100
0100
0010
,  // measure 103
0010
1000
1000
0001
,  // measure 104
1000
0001
1000
0010
,  // measure 105
0100
0010
0100
0010
,  // measure 106
1000
0001
1000
2002
,  // measure 107
0000
0000
0000
3003
;

//---------------dance-single - DDRDAIKENKAI----------------
#NOTES:
     dance-single:
     DDRDAIKENKAI:
     Hard:
     9:
     0.815,0.781,0.536,0.304,0.047,671.000,74.000,42.000,0.000,0.000,0.000,-1.000,-1.000,0.815,0.781,0.536,0.304,0.047,671.000,74.000,42.000,0.000,0.000,0.000,-1.000,-1.000: // measure 1
0000
0000
0000
0000
,  // measure 2
0000
0000
0000
0000
,  // measure 3
0000
0000
0000
0000
,  // measure 4
0000
0000
0000
0000
,  // measure 5
0000
0000
0000
0000
,  // measure 6
0000
0000
0000
0000
,  // measure 7
1001
0010
1001
0010
,  // measure 8
1000
0000
0001
0010
0001
0000
1000
0100
1000
0000
0010
0000
0100
0000
0001
0000
,  // measure 9
1000
0100
1000
0100
0001
0100
0001
0100
,  // measure 10
1000
0010
1000
0010
0001
0010
0001
0010
,  // measure 11
0001
0010
0100
0001
0200
0000
0320
0000
,  // measure 12
2030
0000
3200
1000
0300
1000
0001
1000
,  // measure 13
0001
0010
0001
0010
1000
0010
1000
0010
,  // measure 14
0001
0100
0001
0100
1000
0100
1000
0100
,  // measure 15
0001
0100
1000
0100
0002
0000
0023
0000
,  // measure 16
0130
1000
0100
0010
0000
0010
0001
0100
,  // measure 17
0000
0100
0010
1000
0000
0001
1000
0001
,  // measure 18
1000
0010
1000
0001
1000
0100
1000
0001
,  // measure 19
0010
0100
1000
0001
0010
0100
1000
0001
,  // measure 20
0011
0000
1001
0000
0102
0000
0013
0010
,  // measure 21
0001
0100
0010
1000
0100
1000
0010
1000
,  // measure 22
0001
0010
0001
0100
0010
1000
0100
1000
,  // measure 23
0001
0010
0100
1000
0001
0100
0010
1000
,  // measure 24
0001
0000
0110
0000
1001
0000
1000
0001
,  // measure 25
0100
0000
0110
0000
1001
0000
0010
1000
,  // measure 26
0100
0000
0110
0000
1001
0000
0001
0100
,  // measure 27
0002
0023
0230
2300
,  // measure 28
3001
0000
1000
0000
0100
0000
0010
0000
0001
1000
0001
1000
0010
0000
0100
0000
,  // measure 29
0001
0000
0001
0010
0100
0000
0100
0010
,  // measure 30
0001
0000
0001
1000
0010
0100
0001
0010
,  // measure 31
0100
1000
0000
2100
0000
3200
0000
0302
,  // measure 32
0000
0023
0000
0130
1000
0010
0100
0001
,  // measure 33
0010
0001
0100
0001
1000
0001
0100
0001
,  // measure 34
0011
0000
1001
0000
0001
1000
0010
1000
,  // measure 35
1001
0000
1010
0000
1000
0100
0000
0100
,  // measure 36
1000
0000
1000
0010
0100
0010
1000
0001
,  // measure 37
0010
0001
0000
0201
0000
0302
0000
0023
,  // measure 38
0000
2030
0000
3010
0001
0100
0010
1000
,  // measure 39
0100
1000
0010
1000
0001
1000
0010
1000
,  // measure 40
1100
0000
0101
0000
1000
0100
1000
0001
,  // measure 41
0011
0000
1000
0000
1010
0000
1000
0001
,  // measure 42
1001
0000
1000
0010
1000
0100
1000
0010
,  // measure 43
1000
0001
0000
0020
0000
0230
0000
2300
,  // measure 44
0000
3002
0000
1003
0100
1000
0010
1000
,  // measure 45
0100
0000
0010
0001
0100
0000
0010
1000
,  // measure 46
0001
1000
0001
1000
0001
1000
0001
1000
,  // measure 47
0010
0100
0010
0100
0010
0100
0010
0100
,  // measure 48
0110
0000
1001
0000
0010
1000
0100
1000
,  // measure 49
0000
1010
0000
0011
0000
1000
0010
1000
,  // measure 50
1001
0000
0101
0000
0001
0010
0100
1000
,  // measure 51
0000
1010
0000
0011
0000
1000
0010
1000
,  // measure 52
1001
0000
0110
0000
0001
0010
0001
0100
,  // measure 53
0000
0110
0000
1001
0000
0010
1000
0100
,  // measure 54
1000
0000
0110
0000
0010
1000
0100
1000
,  // measure 55
0000
1100
0000
1100
0000
0100
0010
0001
,  // measure 56
1000
0100
1000
0010
1000
0001
1000
0010
,  // measure 57
1000
0100
0010
0100
1000
0100
0010
0100
,  // measure 58
1000
0010
0100
0001
0020
0000
0032
0000
,  // measure 59
0203
0000
0320
1000
0030
1000
0100
0010
,  // measure 60
0001
0100
0010
1000
0001
0010
0100
1000
,  // measure 61
0001
0100
0010
1000
0100
0010
0001
1000
,  // measure 62
0010
0100
0010
0100
0001
1000
0001
1000
,  // measure 63
0001
0100
0001
0100
0001
1000
0001
1000
,  // measure 64
0100
1000
0010
1000
0100
0010
0100
1000
,  // measure 65
0010
0100
0010
1000
0001
0010
0001
1000
,  // measure 66
0010
0100
0001
0100
0010
1000
0100
1000
,  // measure 67
1010
0000
1001
0000
0102
0000
0013
0010
,  // measure 68
0001
0100
0010
1000
0100
1000
0010
0100
,  // measure 69
0001
0100
0010
1000
0100
1000
0010
1000
,  // measure 70
0001
0010
0100
1000
0001
0100
0010
1000
,  // measure 71
0001
0000
0110
0000
1001
0000
0010
1000
,  // measure 72
0100
0000
0010
0100
1001
0000
0000
1000
,  // measure 73
0001
0100
0010
1001
0000
0000
1100
0010
,  // measure 74
0101
0000
0010
0000
1001
0000
0001
0100
0000
0100
0001
0010
0110
0000
0000
0000
,  // measure 75
0100
0010
0001
0000
0100
0010
1000
0000
,  // measure 76
0100
0010
0001
0010
0100
1000
0010
0100
,  // measure 77
0000
0210
0000
0302
0000
2003
0000
3200
,  // measure 78
0000
1300
0001
0100
0010
1000
0100
1000
,  // measure 79
0100
1000
0001
1000
0001
1000
1001
0000
,  // measure 80
0101
0000
0001
1000
0010
1000
1010
0000
,  // measure 81
0100
0000
1001
0000
0010
1000
0100
0000
,  // measure 82
0010
0001
0100
1000
0100
0001
0010
0100
,  // measure 83
0000
1200
0000
0320
0000
0032
0000
0203
,  // measure 84
0000
0301
0100
1000
0100
0010
1000
0010
,  // measure 85
0100
0010
0001
0010
0100
0001
0101
0000
,  // measure 86
1010
0000
1000
0100
0010
0100
1100
0000
,  // measure 87
1000
0000
1010
0000
0100
0001
0101
0000
,  // measure 88
0001
0010
0001
0001
0100
0010
1000
0100
,  // measure 89
0000
1002
0000
0203
0000
2300
0000
3020
,  // measure 90
0000
0000
0031
0000
0010
0000
1000
0000
0100
0000
0001
0000
0100
1000
0100
0010
,  // measure 91
0100
1000
0100
0001
0200
0000
1000
0000
1000
0000
1300
0000
1100
0000
0000
0000
,  // measure 92
1001
0000
0100
1000
0001
0100
0000
0101
,  // measure 93
0000
1100
0000
1000
0001
0100
0010
0000
,  // measure 94
1010
0000
0010
1000
0100
1000
0000
1100
,  // measure 95
0000
0101
0000
0010
0001
0100
0001
0000
,  // measure 96
0101
0000
0001
0010
0001
1000
0000
1010
,  // measure 97
0000
1010
0000
0010
0100
0001
0101
0000
,  // measure 98
0001
0000
0000
0000
1100
0000
0000
0000
0001
0000
0000
0000
1000
0000
0001
0010
,  // measure 99
0001
0000
1000
0100
1000
0000
0001
0000
0100
0000
0010
0000
1000
0000
0100
0000
,  // measure 100
1000
0001
1000
0100
0010
0100
1000
0001
,  // measure 101
0100
0001
1000
0010
0100
0010
1000
0001
,  // measure 102
0010
1000
0010
0001
0100
0010
1000
0100
,  // measure 103
1000
0100
1000
0010
1000
0010
1000
0100
,  // measure 104
1000
0010
1000
0100
1000
0010
0100
0001
,  // measure 105
0100
0010
0100
0001
0100
0010
0100
0001
,  // measure 106
0010
0100
1000
0001
0100
0010
0000
0110
,  // measure 107
0000
0110
0000
0010
0100
0001
2000
0000
,  // measure 108
0000
0000
0000
3000
;
