#TITLE:Votum stellarum -forest #25 DDR RMX-;
#SUBTITLE:;
#ARTIST:iconoclasm;
#TITLETRANSLIT:;
#SUBTITLETRANSLIT:;
#ARTISTTRANSLIT:;
#GENRE:;
#CREDIT:;
#BANNER:Votum stellarum -forest #25 DDR RMX-.png;
#BACKGROUND:Votum stellarum -forest #25 DDR RMX--bg.png;
#LYRICSPATH:;
#CDTITLE:;
#MUSIC:Votum stellarum -forest #25 DDR RMX-.ogg;
#OFFSET:0.000000;
#SAMPLESTART:17.150000;
#SAMPLELENGTH:15.000000;
#SELECTABLE:YES;
#DISPLAYBPM:140.000000;
#BPMS:0.000000=140.078003
,4.000000=140.005997
;
#STOPS:
;
#BGCHANGES:;
#KEYSOUNDS:;
#ATTACKS:;

//---------------dance-single - ----------------
#NOTES:
     dance-single:
     :
     Beginner:
     1:
     0.079295,0.190980,0.065855,0.000000,0.000000,59.000000,52.000000,7.000000,0.000000,0.000000,0.000000,0.079295,0.190980,0.065855,0.000000,0.000000,59.000000,52.000000,7.000000,0.000000,0.000000,0.000000:
0000
0000
0000
0000
,
0000
0000
0000
0000
,
0000
0000
0000
0000
,
0000
0000
0000
0000
,
0000
0000
0000
0000
,
0000
0000
0000
0000
,
0100
0000
0000
0000
,
0100
0000
0000
0000
,
0100
0000
0000
0000
,
0000
0000
0000
0000
,
0001
0000
0000
0000
,
0001
0000
0000
0000
,
0001
0000
0000
0000
,
0001
0000
0000
0000
,
1000
0000
0000
0000
,
1000
0000
0000
0000
,
1000
0000
0000
0000
,
1000
0000
0000
0000
,
0010
0000
0000
0000
,
0010
0000
0000
0000
,
0010
0000
0000
0000
,
0010
0000
0000
0000
,
0100
0000
0000
0000
,
0100
0000
0000
0000
,
1001
0000
1001
0000
,
1001
0000
0000
0000
,
0001
0000
0000
0000
,
0001
0000
0000
0000
,
1000
0000
0000
0000
,
1000
0000
1000
0000
,
0001
0000
0000
0000
,
0001
0000
0000
0000
,
1000
0000
0000
0000
,
1000
0000
1001
0000
,
0000
0000
0010
0000
,
0000
0000
0010
0000
,
0000
0000
0010
0000
,
0000
0000
1000
0000
,
0000
0000
0100
0000
,
0000
0000
0100
0000
,
0000
0000
0100
0000
,
0000
0000
0000
0000
,
0010
0000
0000
0000
,
0100
0000
0000
0000
,
0010
0000
0000
0000
,
0000
0000
0000
0000
,
0001
0000
0000
0000
,
1000
0000
0000
0000
,
0001
0000
0000
0000
,
1000
0000
0000
0000
,
0010
0000
0000
0000
,
0010
0000
0000
0000
,
0010
0000
0000
0000
,
0100
0000
0000
0000
,
0100
0000
0000
0000
,
0000
0000
0000
0000
,
1001
0000
1001
0000
,
0000
0000
0000
0000
,
1001
0000
0000
0000
,
0000
0000
0000
0000
;

//---------------dance-single - ----------------
#NOTES:
     dance-single:
     :
     Easy:
     2:
     0.184125,0.245545,0.084671,0.084671,0.000000,137.000000,128.000000,9.000000,9.000000,0.000000,0.000000,0.184125,0.245545,0.084671,0.084671,0.000000,137.000000,128.000000,9.000000,9.000000,0.000000,0.000000:
0000
0000
0000
0000
,
0000
0000
0000
0000
,
0000
0000
0000
0000
,
0000
0000
0000
0000
,
0100
0000
0100
0000
,
0100
0000
0100
0000
,
0100
0000
0100
0000
,
0100
0000
0100
0000
,
0100
0000
0100
0000
,
0000
0000
0000
0000
,
0010
0000
0001
0001
,
0010
0000
0100
0100
,
1000
0000
0001
0001
,
1000
0000
0100
0100
,
0010
0000
1000
0001
,
0010
0000
0001
1000
,
0010
0000
1000
0001
,
0010
0000
0001
0001
,
0000
0000
0000
0000
,
0001
0010
0100
1000
,
0000
0000
0000
0000
,
0001
0010
0100
1000
,
0010
0000
0000
0000
,
0010
0000
0000
0000
,
1001
0000
1001
0000
,
1001
0000
0000
0000
,
0010
0000
0100
0000
,
0010
0000
0100
0100
,
1000
0000
1000
0000
,
1000
0001
1000
1000
,
0010
0000
0100
0100
,
0010
0000
1000
1000
,
0001
0000
0001
0000
,
0010
0010
1001
0000
,
0001
0001
0001
0100
,
0001
0001
0001
0100
,
0001
0001
0001
0100
,
0001
0001
0100
0001
,
0100
0100
0001
0100
,
0001
0001
1000
1000
,
0010
0000
0010
0000
,
0100
0000
0000
0010
,
0020
0000
0000
0030
,
0200
0300
0002
0003
,
0001
0000
0000
0100
0200
0000
0300
0000
,
0000
0000
0000
0000
,
0002
0000
0000
0003
,
0200
0300
0020
0030
,
2000
3000
0200
0300
,
1100
0000
1100
0000
,
0010
0000
0100
0000
,
0010
0000
0100
0000
,
0010
0000
0100
0000
,
0010
0000
0100
0100
,
0010
0000
0100
0100
,
0000
0000
0000
0000
,
1010
0000
1010
0000
,
0010
0010
0010
0000
,
1001
0000
0000
0000
;

//---------------dance-single - ----------------
#NOTES:
     dance-single:
     :
     Medium:
     5:
     0.381691,0.463808,0.141118,0.000000,0.079967,284.000000,269.000000,15.000000,0.000000,0.000000,0.000000,0.381691,0.463808,0.141118,0.000000,0.079967,284.000000,269.000000,15.000000,0.000000,0.000000,0.000000:
0000
0000
0000
0000
,
0000
0000
0000
0000
,
0000
0000
0000
0000
,
0000
0000
0000
0000
,
0100
0100
0100
0100
,
0100
0000
0100
0000
0100
0010
0100
0010
,
0100
0000
0100
0000
0100
0000
0100
0010
,
0100
0000
0100
0000
0100
0000
0100
0010
,
0100
0100
0100
0100
,
0000
0000
0000
0000
,
0010
1000
0001
0100
,
0010
1000
0001
0001
,
0010
0001
1000
0100
,
0010
0001
1000
1000
,
0010
0010
1000
0001
,
0010
0010
0001
1000
,
0010
0010
1000
0100
,
0010
0010
0100
0100
,
0010
0001
1000
0100
,
0010
0001
1000
0100
,
0010
0001
1000
0001
,
0010
0100
1000
0000
,
0010
0100
0010
0000
1000
0000
0001
0000
,
0010
0100
0010
0000
0001
0000
1000
0000
,
1010
0000
1001
0000
,
0101
0000
0000
0000
,
0010
0000
0000
0010
0000
0000
0010
0000
0100
0000
0000
0100
0000
0000
0100
0000
,
0010
0000
0000
0010
0000
0000
0010
0000
1000
0000
0001
0000
0001
0000
0000
0000
,
0010
0000
0000
0010
0000
0000
0100
0000
1000
0000
0000
1000
0000
0000
1000
0000
,
0001
0000
0000
0001
0000
0000
0001
0000
1000
0000
1000
0000
1000
0000
0000
0000
,
0010
0000
0000
0010
0000
0000
0010
0000
0100
0000
0000
0100
0000
0000
0100
0000
,
0010
0000
0000
0010
0000
0000
0010
0000
1000
0000
1000
0000
1000
0000
0000
0000
,
0001
0000
0000
0001
0000
0000
0001
0000
1000
0000
0000
1000
0000
0000
1000
0000
,
0010
0100
0010
0100
1001
0000
0000
0000
,
0001
0000
0000
0000
0001
0000
0000
0000
0001
1000
0000
0000
0100
0000
0000
0000
,
1000
0000
0000
0000
1000
0000
0000
0000
1000
0001
0000
0000
0100
0000
0000
0000
,
0001
0000
0000
0000
0001
0000
0000
0000
0001
1000
0000
0000
0100
0000
0000
0000
,
1000
0000
0100
0000
0010
0001
0001
0001
,
1000
0000
0100
0000
0010
0001
0001
0000
,
1000
0000
0000
1000
0100
0000
1000
0000
0001
0000
0001
0000
0001
0000
0001
0000
,
1000
0000
0000
1000
0100
0000
1000
0000
0001
0000
0000
0001
0010
0000
0001
0000
,
0100
0001
0100
0001
0100
0000
1010
0000
,
0001
0000
0001
0000
0001
1000
0100
0000
,
0001
1000
0100
0000
0001
1000
0100
0000
,
1000
0000
0010
0000
1000
0001
0100
0000
,
1000
0001
0100
0001
1000
0001
0100
0000
,
0001
1000
0001
1000
0010
0100
0010
0000
,
1000
0100
0010
0001
1000
0100
0010
0001
,
1000
1000
0100
0000
1000
1000
0100
0000
,
0011
0000
0100
0000
1000
1000
0001
0000
,
1010
0000
0100
0001
0100
0000
0100
0000
,
1010
0000
0100
0001
0100
0000
0100
0000
,
1010
0000
0100
0001
0100
0000
0100
0000
,
1010
0000
0010
0000
0010
1000
0100
0000
,
1010
0000
0010
0000
0010
1000
0100
0000
,
1010
0000
0010
0000
0010
1000
0100
0000
,
1010
0100
1010
0100
,
0010
0000
0010
0000
0010
0100
0010
0100
,
1001
0000
0000
0000
;

//---------------dance-single - ----------------
#NOTES:
     dance-single:
     :
     Hard:
     8:
     0.503993,0.600222,0.169342,0.000000,0.188157,375.000000,357.000000,18.000000,0.000000,0.000000,0.000000,0.503993,0.600222,0.169342,0.000000,0.188157,375.000000,357.000000,18.000000,0.000000,0.000000,0.000000:
0000
0000
0000
0000
,
0000
0000
0000
0000
,
0000
0000
0000
0000
,
0000
0000
0000
0000
,
0100
0100
0100
0100
,
0100
0000
0100
0000
0100
0010
0001
0010
,
0100
0000
0100
0000
0100
0000
0100
0010
,
0100
0000
0100
0000
0100
0000
0100
0010
,
0100
0100
0100
0100
,
0000
0000
0000
0000
,
0010
1000
0001
0100
,
0010
0000
1000
0000
0001
0100
0001
0000
,
0011
1001
1010
1100
,
0110
0000
0011
0000
1000
0100
1000
0000
,
0010
0100
0010
0000
1010
0000
1001
0000
,
0010
0100
0010
0000
1000
0001
0100
0000
,
0010
0100
0010
0100
0001
1000
0100
0000
,
0010
0100
0010
0100
0001
1000
0100
1000
,
0010
0000
0000
0000
1000
0000
0000
0000
0001
1000
0000
0000
0100
0000
0000
0000
,
0010
0000
0000
0000
0001
0000
0000
0000
1000
0001
0100
0000
0001
0000
0000
0000
,
0010
0000
0000
0000
0001
0000
0000
0000
1000
0001
0100
0000
0001
0000
0100
0000
,
0010
0000
0000
0000
1000
0000
0000
0000
0001
1000
0100
0000
1000
0000
0100
0000
,
0010
0100
0010
0000
1100
0000
1001
0000
,
0010
0100
0010
0000
1000
0001
0100
0000
,
0010
0100
0010
0100
0001
1000
0100
0000
,
0010
0100
0010
0100
1000
0001
0100
0000
,
0010
0000
0000
0010
1000
0000
0010
0000
0100
0000
0000
0100
0001
0000
0100
0000
,
0010
0000
0000
0010
1000
0000
0010
0000
1000
0000
0001
0000
0001
0000
0000
0000
,
0010
0000
0000
0010
1000
0000
0100
0000
1000
0000
0000
1000
0100
0000
1000
0000
,
0001
0000
0000
0001
0100
0000
0001
0000
0010
0000
1000
0000
1000
0000
0000
0000
,
0010
0000
0000
0010
0001
0000
0100
0000
0010
0000
0000
0010
0100
0000
0001
0000
,
0010
0000
0000
0010
0001
0000
0100
0000
0010
0000
0001
0000
0001
0000
0000
0000
,
1000
0000
0000
1000
0001
0000
0100
0000
0001
0000
0000
0001
1000
0000
0100
0000
,
0010
0010
0100
0000
0010
0010
0100
0000
1001
0000
0000
0000
0000
0000
0000
0000
,
0001
0000
0000
0000
0100
0000
0000
0000
0001
0100
0000
0000
0010
0000
0000
0000
,
1000
0000
0000
0000
0100
0000
0000
0000
1000
0100
0000
0000
0010
0000
0000
0000
,
0001
0000
0000
0000
0100
0000
0000
0000
0001
0100
0000
0000
0010
0000
0000
0000
,
1000
0000
0000
1000
0100
0000
1000
0000
0001
0000
0001
0000
0001
0000
0001
0000
,
1000
0000
0000
1000
0100
0000
1000
0000
0001
0000
0100
0000
0100
0000
0000
0000
,
0001
0000
0000
0001
0100
0000
0001
0000
1000
0000
0010
0000
0010
0000
0010
0000
,
1000
0000
0000
1000
0001
0000
0100
0000
0010
0000
0000
0010
1000
0000
1000
0000
,
0010
1000
0010
1000
0010
0000
1010
0000
,
0001
0000
0000
0000
0001
0000
0000
0000
0001
0000
0010
0100
1000
0000
0000
0000
,
0001
0000
0010
0100
1000
0000
0000
0000
0001
0000
0010
0100
1000
0000
1000
0000
,
0001
0000
0010
0100
1000
0000
0000
0000
1000
0000
0100
0000
1000
0000
0000
0000
,
0001
0000
0010
0100
1000
0000
0010
0100
0001
0000
0010
0000
0001
0000
1000
0000
,
0001
0000
1000
0000
0001
0000
1000
0000
0001
0000
1000
0100
0010
0000
0000
0000
,
0001
0000
1000
0100
0010
0000
0010
0000
0001
0000
0010
0100
1000
0000
0001
0000
,
0010
0000
0010
0000
0001
0000
1000
0100
0010
0000
0010
0000
0001
0000
1000
0100
,
0011
0000
0100
0000
1000
1000
0001
0001
,
1000
0000
0010
0000
0100
0000
0001
0000
0100
0010
0000
0000
0100
0000
0001
0000
,
1000
0000
0010
0000
0100
0000
0001
0000
0100
0010
0000
0000
0100
0000
0001
0000
,
1000
0000
0010
0000
0100
0000
0001
0000
0100
0010
0000
0000
0100
0000
0001
0000
,
1000
0010
0100
0010
1000
0100
1000
0100
,
0010
0001
0010
0001
1000
0100
1000
0100
,
0010
0001
0010
0001
1000
0001
1000
0100
,
1010
1001
1010
1001
,
0010
0000
1000
0000
0010
0000
1000
0000
0010
0100
0000
0000
0010
0000
0100
0000
,
1001
0000
0000
0000
;

//---------------dance-double - ----------------
#NOTES:
     dance-double:
     :
     Easy:
     2:
     0.161278,0.218263,0.075263,0.084671,0.000000,120.000000,112.000000,8.000000,9.000000,0.000000,0.000000,0.161278,0.218263,0.075263,0.084671,0.000000,120.000000,112.000000,8.000000,9.000000,0.000000,0.000000:
00000000
00000000
00000000
00000000
,
00000000
00000000
00000000
00000000
,
00000000
00000000
00000000
00000000
,
00000000
00000000
00000000
00000000
,
00001000
00000000
00010000
00000000
,
00001000
00000000
00010000
00000000
,
00001000
00000000
00010000
00000000
,
00001000
00000000
00010000
00000000
,
00001000
00000000
00010000
00000000
,
00000000
00000000
00000000
00000000
,
00000100
00000000
00000001
00000000
,
00000010
00000000
00000100
00000000
,
00001000
00000000
00010000
00000000
,
01000000
00000000
10000000
00000000
,
00100000
00000000
00010000
00000000
,
00000010
00000000
00001000
00000000
,
00010000
00000000
10000000
10000000
,
00010000
00000000
00000000
00000000
,
00001000
00000000
00000001
00000000
,
00001000
00000000
00010000
00000000
,
10000000
00000000
00010000
00000000
,
00001000
00000000
00000001
00000000
,
00011000
00000000
00000000
00000000
,
00000110
00000000
00001000
00010000
,
01000000
00000000
01000000
00000000
,
01000000
00000000
00000000
00000000
,
00100000
00000000
01000000
00000000
,
00001000
00000000
00000100
00000100
,
00001000
00000000
00000010
00000000
,
00010000
00000000
01000000
01000000
,
10000000
00000000
00010000
00000000
,
00001000
00000000
00000010
00000010
,
00010000
00000000
00010000
00000000
,
00000100
00000100
00011000
00000000
,
10000000
00000000
00010000
01000000
,
00001000
00000000
00010000
00000100
,
00000010
00000000
00000010
00000000
,
00010000
00000000
01000000
01000000
,
00100000
00100000
00001000
00000000
,
00010000
00010000
00000010
00000000
,
00000100
00001000
00010000
00100000
,
00000000
00000000
10010000
00000000
,
00002000
00000000
00000000
00003000
,
02000000
03000000
00020000
00030000
,
00100000
00000000
00000000
00001000
00002000
00000000
00003000
00000000
,
00000000
00000000
00000000
00000000
,
00000002
00000000
00000000
00000003
,
00002000
00003000
00020000
00030000
,
20000000
30000000
00020000
00030000
,
00011000
00000000
00011000
00000000
,
01000000
00000000
00010000
00000000
,
00001000
00000000
00000010
00000000
,
00001000
00000000
00100000
00000000
,
00001000
00000000
00010000
00000000
,
00000000
00000000
01000000
01000000
,
00010000
00000000
00001000
00000000
,
00000100
00000000
00000101
00000000
,
00000010
00000000
00000000
00000000
,
00001001
00000000
00000000
00000000
;

//---------------dance-double - ----------------
#NOTES:
     dance-double:
     :
     Medium:
     5:
     0.317180,0.354677,0.084671,0.000000,0.075263,236.000000,227.000000,9.000000,0.000000,0.000000,0.000000,0.317180,0.354677,0.084671,0.000000,0.075263,236.000000,227.000000,9.000000,0.000000,0.000000,0.000000:
00000000
00000000
00000000
00000000
,
00000000
00000000
00000000
00000000
,
00000000
00000000
00000000
00000000
,
00000000
00000000
00000000
00000000
,
00001000
00001000
00001000
00001000
,
00001000
00000000
00001000
00000000
00001000
00010000
00001000
00010000
,
00001000
00000000
00001000
00000000
00001000
00000000
00001000
00010000
,
00001000
00000000
00001000
00000000
00001000
00000000
00001000
00010000
,
00001000
00001000
00001000
00001000
,
00000000
00000000
00000000
00000000
,
10000000
01000000
00100000
00010000
,
00001000
00000100
00000010
00000001
,
00000100
00000010
00001000
00000100
,
00010000
01000000
10000000
00100000
,
01000000
00001000
00010000
00000100
,
00010000
00001000
00000100
00000100
,
00000010
00000100
00001000
00000000
,
00010000
01000000
10000000
00000000
,
10000000
00100000
00010000
00001000
,
00000100
00000001
00000010
00000010
,
00001000
00010000
01000000
10000000
,
10000000
00010000
00001000
00000001
,
00000100
00000010
00000100
00000000
00001000
00000000
00001000
00000000
,
00010000
00001000
00010000
00000000
01000000
00000000
01000000
00000000
,
10000000
01000000
10000000
00000000
00010000
00000000
00010000
00000000
,
00100000
00100000
00011000
00000000
,
00000010
00000000
00000000
00000010
00000000
00000000
00000010
00000000
00010000
00000000
00000000
00010000
00000000
00000000
00010000
00000000
,
00001000
00000000
00000000
00001000
00000000
00000000
00001000
00000000
00100000
00000000
00000000
00000000
01000000
00000000
00000000
00000000
,
10000000
00000000
00000000
10000000
00000000
00000000
00010000
00000000
01000000
00000000
00000000
01000000
00000000
00000000
00001000
00000000
,
00010000
00000000
00000000
00010000
00000000
00000000
00000010
00000000
00001000
00000000
00000100
00000000
00000100
00000000
00000000
00000000
,
00000010
00000000
00000000
00000010
00000000
00000000
00000010
00000000
00001000
00000000
00000000
00001000
00000000
00000000
00001000
00000000
,
00100000
00000000
00000000
00100000
00000000
00000000
00100000
00000000
01000000
00000000
00000000
00000000
10000000
00000000
00000000
00000000
,
00010000
00000000
00000000
00010000
00000000
00000000
00010000
00000000
01000000
00000000
00000000
01000000
00000000
00000000
01000000
00000000
,
00001000
00001000
00000110
00000000
,
00010000
00000000
00000000
00000000
00010000
00000000
00000000
00000000
00010000
00000100
00000000
00000000
00001000
00000000
00000000
00000000
,
00000010
00000000
00000000
00000000
00000010
00000000
00000000
00000000
00000010
00010000
00000000
00000000
00001000
00000000
00000000
00000000
,
00100000
00000000
00000000
00000000
00100000
00000000
00000000
00000000
00100000
00001000
00000000
00000000
01000000
00000000
00000000
00000000
,
00010000
00000000
00010000
00000000
00010000
10000000
10000000
10000000
,
01000000
00000000
00100000
00000000
00001000
00000100
00000100
00000000
,
00000010
00000000
00000010
00000000
00001000
00010000
00010000
00010000
,
01000000
00000000
00000000
01000000
00000000
00000000
01000000
00000000
00100000
00000000
00000000
00100000
00000000
00000000
00100000
00000000
,
00010000
00001000
00000100
00000000
,
00001000
00001000
00000100
00010000
,
01000000
01000000
00100000
00100000
,
00001000
00001000
00010000
00010000
,
00000010
00000010
00010000
00001000
,
00100000
10000000
01000000
10000000
,
01000000
00010000
00001000
00000100
,
00000001
00000010
00000001
00000010
,
00001100
00000000
00000000
00000000
,
01000000
01000000
01000000
00100000
,
00010000
00001000
00000100
00000000
,
00000010
00000010
00000010
00000100
,
00001000
00010000
01000000
00000000
,
10010000
01000000
01000000
00000000
,
00011000
00000000
00011000
00000000
,
00001001
00000000
00001001
00000000
,
00000010
00000010
00010000
00100000
,
01010000
00000000
00000000
00000000
;

//---------------dance-double - ----------------
#NOTES:
     dance-double:
     :
     Hard:
     8:
     0.440826,0.518374,0.150526,0.000000,0.136414,328.000000,312.000000,16.000000,0.000000,0.000000,0.000000,0.440826,0.518374,0.150526,0.000000,0.136414,328.000000,312.000000,16.000000,0.000000,0.000000,0.000000:
00000000
00000000
00000000
00000000
,
00000000
00000000
00000000
00000000
,
00000000
00000000
00000000
00000000
,
00000000
00000000
00000000
00000000
,
00001000
00001000
00001000
00001000
,
00001000
00000000
00001000
00000000
00001000
00010000
01000000
00010000
,
00001000
00000000
00001000
00000000
00001000
00000000
00001000
00010000
,
00001000
00000000
00001000
00000000
00001000
00000000
00001000
00010000
,
00001000
00001000
00001000
00001000
,
00000000
00000000
00000000
00000000
,
11000000
01100000
00110000
00011000
,
00001010
00000000
00001001
00000000
00000100
00001000
00000100
00000000
,
00010000
00001000
01000000
00100000
,
10100000
01010000
00011000
00001100
,
00000010
00000100
00000010
00000000
00010000
00000000
00001000
00000000
,
00100000
01000000
00100000
00000000
00100000
01000000
00100000
00000000
,
00001000
00000010
00000100
00001000
,
00000001
00000100
00001000
00010000
,
00100000
00000000
00000000
00000000
00100000
00000000
00000000
00000000
00100000
10000000
00000000
00000000
01000000
00000000
00000000
00000000
,
00010000
00000000
00000000
00000000
00001000
00000000
00000000
00000000
00001000
00010000
00000000
00000000
00000010
00000000
00000000
00000000
,
00001000
00000000
00000000
00000000
00001000
00000000
00000000
00000000
00000001
00000010
00000000
00000000
00000100
00000000
00000000
00000000
,
00010000
00000000
00000000
00000000
00010000
00000000
00000000
00000000
01000000
00100000
00000000
00000000
01000000
00000000
10000000
00000000
,
00010000
00100000
00001000
00010000
,
00000010
00000100
00000010
00000000
00010000
00000000
01000000
00000000
,
00100000
01000000
00100000
01000000
00001000
00000000
00000100
00000000
,
00001000
00001000
00011000
00000000
,
00100000
00000000
00000000
00100000
10000000
00000000
00100000
00000000
01000000
00000000
00000000
01000000
00010000
00000000
01000000
00000000
,
00100000
00000000
00000000
00100000
01000000
00000000
00010000
00000000
00001000
00000000
00000010
00000000
00000010
00000000
00000000
00000000
,
00000100
00000000
00000000
00000100
00000001
00000000
00000100
00000000
00000010
00000000
00000000
00000010
00001000
00000000
00010000
00000000
,
00100000
00000000
00000000
00100000
00010000
00000000
01000000
00000000
00010000
00000000
00001000
00000000
00001000
00000000
00000000
00000000
,
00000001
00000000
00000000
00000001
00000010
00000000
00000010
00000000
00000100
00000000
00000000
00000100
00001000
00000000
00010000
00000000
,
00100000
00000000
00000000
00100000
00010000
00000000
00100000
00000000
01000000
00000000
10000000
00000000
10000000
00000000
00000000
00000000
,
00100000
00000000
00000000
00100000
01000000
00000000
00010000
00000000
01000000
00000000
00000000
01000000
00001000
00000000
00010000
00000000
,
00001000
00001000
00010000
00000000
00001000
00001000
00010000
00000000
00011000
00000000
00000000
00000000
00000000
00000000
00000000
00000000
,
00010000
00000000
00000000
00000000
01000000
00000000
00000000
00000000
00010000
01000000
00000000
00000000
00100000
00000000
00000000
00000000
,
00010000
00000000
00000000
00000000
00001000
00000000
00000000
00000000
00001000
00010000
00000000
00000000
00001000
00000000
00000000
00000000
,
00000100
00000000
00000000
00000000
00000001
00000000
00000000
00000000
00000001
00001000
00000000
00000000
00000100
00000000
00000000
00000000
,
00010000
00000000
00000000
00010000
00001000
00000000
01000000
00000000
00001000
00000000
00000100
00000000
00000100
00000000
00000100
00000000
,
00001000
00000000
00000000
00001000
00000100
00000000
00001000
00000000
00010000
00000000
01000000
00000000
01000000
00000000
00000000
00000000
,
00100000
00000000
00000000
00100000
00010000
00000000
01000000
00000000
00001000
00000000
00000100
00000000
00000100
00000000
00000100
00000000
,
00000010
00000000
00000000
00000010
00001000
00000000
00000001
00000000
00000100
00000000
00000000
00000100
00001000
00000000
00010000
00000000
,
01000000
10000000
01000000
10000000
00100000
00000000
00000000
00000000
,
00010000
00000000
00010000
00000000
00010000
00001000
00000100
00000000
,
00000010
00001000
00000010
00000000
00000001
00000100
00001000
00000000
,
00010000
00100000
01000000
00000000
00100000
10000000
01000000
00000000
,
00100000
01000000
00010000
00001000
00000100
00000000
00001000
00000001
,
00000010
00000100
00000010
00000100
00010000
00001000
01000000
00000000
,
00010000
00100000
10000000
00000000
00010000
01000000
00100000
00000000
,
00010000
01000000
00001000
00000000
00010000
00000010
00001000
00000000
,
00000110
00000000
00000001
00000000
00000100
00001000
00010000
01000000
,
10000000
00000000
00010000
00000000
10000000
00000000
00010000
00000000
00100000
01000000
00000000
00000000
00010000
00000000
00001000
00000000
,
00000010
00000000
00000100
00000000
00000010
00000000
00000100
00000000
00001000
00000001
00000000
00000000
00000100
00000000
00000010
00000000
,
00010000
00000000
00001000
00000000
00010000
00000000
00001000
00000000
00010000
00001000
00000000
00000000
00010000
00000000
00001000
00000000
,
00100000
00000000
00010000
00000000
00010000
00100000
01000000
10000000
,
00010000
00000000
00001000
00000000
00000001
00000010
00000100
00001000
,
00000010
00010000
00001000
01000000
,
10100000
01000000
10100000
01000000
,
00001000
00000000
00010000
00000000
00001000
00000000
00010000
00000000
00000010
00000100
00000000
00000000
00000010
00000000
00000100
00000000
,
00001001
00000000
00000000
00000000
;

//---------------dance-single - ----------------
#NOTES:
     dance-single:
     :
     Challenge:
     10:
     0.853428,0.845767,0.310460,0.263420,1.128944,635.000000,602.000000,33.000000,28.000000,0.000000,0.000000,0.853428,0.845767,0.310460,0.263420,1.128944,635.000000,602.000000,33.000000,28.000000,0.000000,0.000000:
0000
0000
0000
0000
,
0000
0000
0000
0000
,
0000
0000
0000
0000
,
0000
0000
0000
0000
,
0001
0000
1000
0100
0000
0010
0001
0100
0000
0010
0100
1000
0100
0001
0000
0001
,
1000
0000
0010
0100
0001
0000
1000
0100
0000
0010
0001
0010
0100
0010
0001
1000
,
1001
0000
0000
0001
0100
0010
0100
0001
1000
0100
0010
0001
0100
0010
1000
0001
,
1001
0000
0000
1000
0100
0010
0100
1000
0001
0100
0010
1000
0100
0010
0001
1000
,
0001
0000
0010
0001
0100
0000
1000
0100
0001
0000
0010
0100
0010
0000
1000
0010
,
0001
0100
0001
0100
0010
1000
0010
1000
0100
0010
0001
1000
0010
0100
0001
1000
,
0001
0000
0010
0001
1000
0001
0100
0010
0000
0000
1000
0100
0010
0001
0100
0010
,
1000
0000
0100
0010
0001
0010
0100
1000
0010
0100
0001
1000
0100
0010
0001
0000
,
1000
0000
0100
1000
0001
1000
0010
0100
0001
0000
0010
0001
0100
0001
0010
0100
,
1000
0000
0010
0100
0000
0100
0001
0010
0100
1000
0100
0010
0001
0100
0010
1000
,
0001
0000
0100
0001
0010
0100
0010
0001
0100
0010
0000
0010
1000
0100
0010
0001
,
0010
0001
0100
0010
0100
0010
1000
0100
1000
0100
0010
0100
0010
0001
1000
0001
,
1000
0000
0100
1000
0010
0100
0010
1000
0100
0010
0000
0010
0001
0100
0010
1000
,
0010
1000
0100
0010
0100
0010
0001
0100
0001
0100
0010
0100
0010
1000
0001
1000
,
0010
0000
0000
0010
1000
0000
0000
1000
0001
1000
0100
0010
0001
0100
0010
0100
,
0010
0000
1000
0000
0010
0100
0000
0010
1000
0001
0100
0010
1000
0100
0010
0001
,
0010
0000
0000
0010
0001
0000
0000
0001
1000
0001
0100
0010
1000
0100
0010
0100
,
0010
0000
0000
0000
0000
0000
0001
0000
0000
1000
0000
0000
0001
0000
0000
0000
0000
0000
1000
0000
0000
0100
0000
0000
1000
0000
0000
0001
0000
0000
0100
0000
0000
0000
0000
0000
0010
0000
0100
0000
0010
0000
0100
0000
0001
0000
1000
0000
,
0001
0000
0010
0001
0010
0100
0000
1000
0010
1000
0100
0010
0001
1000
0010
0100
,
0001
0000
0010
0000
1000
0000
0010
0000
0001
0100
0001
0100
0010
1000
0010
1000
,
0100
0000
0010
0001
0000
0001
0100
0010
1000
0000
0001
0010
0100
0000
1000
0001
,
0010
0000
0000
0000
0000
0000
0100
0000
1000
0000
0100
0000
1000
0000
0000
0100
0000
0000
0010
0000
0000
0001
0000
0000
0100
0000
0000
0000
0000
0000
1000
0000
0000
0000
0000
0000
0100
0000
0000
0001
0000
0000
1000
0000
0000
0001
0000
0000
,
0020
0000
0000
0000
0000
0000
0031
0000
0202
0000
0303
2020
0000
3030
0110
0000
,
2020
0000
3030
2002
0000
3003
0110
0000
0100
0000
0001
0000
0001
0000
0000
0000
,
0011
0000
0000
0010
0001
0000
0100
0000
0110
0000
0000
0010
1000
0000
0100
0000
,
0022
0000
0033
2002
0000
3003
0110
0000
0010
0000
1000
0000
1000
0000
0000
0000
,
0010
0000
1000
0100
0000
0001
0100
0000
0010
0000
0001
0100
0000
1000
0100
0000
,
0110
0000
0000
0010
1000
0000
0100
0000
0010
0000
1001
0000
1001
0000
0000
0000
,
0010
0000
0001
0100
0000
1000
0100
0000
0010
0000
1000
0100
0000
0001
0100
0000
,
0010
0000
0000
0001
0000
0000
0100
0000
0000
0000
0000
0000
0010
0000
0000
1000
0000
0000
0100
0000
0000
0000
0000
0000
1000
0000
0010
0000
1000
0000
0010
0000
0000
0100
0000
0000
0001
0000
0000
1000
0000
0000
0010
0000
0000
1000
0000
0000
,
0002
0000
0000
1003
0100
0000
0020
0000
0000
0031
1000
0000
1010
0000
0010
0000
,
2000
0000
0000
3001
0100
0000
0020
0000
0000
1030
0001
0000
0011
0000
0010
0000
,
0001
0000
0000
0001
0100
0000
0010
1000
0100
0000
0000
0100
1000
0000
0010
0000
,
0110
0000
0000
1000
0001
0000
0100
0010
0100
0000
1001
0000
1001
0000
0000
0000
,
1000
0010
0000
1000
0100
0000
1000
0000
0001
0100
0000
0010
0100
0000
0001
1000
,
0010
0000
0000
0010
0100
0000
0001
0000
1000
0000
0110
0000
0110
0000
1001
0000
,
1000
0000
0000
1000
0001
0000
0100
0001
0010
0000
0000
0010
1000
0000
0010
0000
,
0001
0100
0001
0010
0100
1000
0010
0100
0001
1000
0100
0010
0001
0100
0010
1000
,
0002
0000
0000
0000
1003
0000
0100
0010
0001
0000
0000
0100
0000
0000
0010
0000
,
2000
0000
0000
0000
3001
0010
0100
1000
0001
0000
0010
0100
0000
0100
1000
0000
,
0002
0000
0000
0000
0000
0000
1003
0000
1100
0000
0000
0110
0000
0000
0011
0000
,
0001
0000
0010
0000
1000
0000
0010
0000
0001
0100
0010
0000
1000
0100
0010
0001
,
2000
0000
0000
0000
3001
0000
0100
0010
1000
0000
0000
0100
0000
0000
0010
0000
,
0002
0023
2030
3020
,
0031
0010
1000
0010
0001
0100
1000
0100
,
0001
0000
0010
0001
0100
0000
0010
0100
1000
0100
0001
1000
0010
0100
0001
0010
,
0001
0000
1000
0100
0000
0100
0010
0000
0001
0010
0100
1000
0100
0000
0010
0000
,
0001
0100
0010
0100
0002
0000
0000
0000
0203
0000
0000
0000
0320
0000
0000
0000
,
1030
0000
0001
0100
0001
0000
0000
0000
0100
0010
0000
0010
1000
0001
1000
0000
,
0010
0100
0010
0100
0001
0000
0010
0000
0100
0000
0110
0000
1100
0000
1001
0000
,
0001
0000
0000
0001
0100
0000
0010
1000
0100
0000
0110
0000
0011
0000
1001
0000
,
1000
0100
0010
0100
0001
0100
1000
0010
0100
0001
0010
0001
1000
0000
0001
0100
,
0010
0000
1000
0000
0100
0000
0010
0001
0010
0000
0001
1000
0100
0000
0001
0100
,
0010
0000
0000
0100
0000
0000
1000
0000
0000
0010
0000
0000
0100
0000
0000
0001
0000
0000
0010
0000
0000
0100
0000
0000
1000
0000
0010
0000
1000
0000
0010
0000
0000
0100
0000
0000
0001
0000
0010
0000
0001
0000
0010
0000
0000
0100
0000
0000
,
1000
0000
0000
0000
;

//---------------dance-double - ----------------
#NOTES:
     dance-double:
     :
     Challenge:
     10:
     0.713654,0.791202,0.056447,0.178750,0.889044,531.000000,525.000000,6.000000,19.000000,0.000000,0.000000,0.713654,0.791202,0.056447,0.178750,0.889044,531.000000,525.000000,6.000000,19.000000,0.000000,0.000000:
// measure 0
00000000
00000000
00000000
00000000
,  // measure 1
00000000
00000000
00000000
00000000
,  // measure 2
00000000
00000000
00000000
00000000
,  // measure 3
00000000
00000000
00000000
00000000
,  // measure 4
00010000
00001000
00010000
00000000
00000100
00000000
00001000
00000010
00000000
00000100
00000001
00000000
00000010
00000100
00000000
00010000
,  // measure 5
00001000
00010000
00001000
00000000
01000000
00000000
00010000
00100000
00000000
01000000
10000000
01000000
00100000
00010000
01000000
00100000
,  // measure 6
10000000
00000000
00010000
00000000
01000000
00000000
00001000
00000000
00010000
00000000
00000100
00000000
00001000
00000000
00000010
00000100
,  // measure 7
00000001
00000000
00001000
00000000
00000100
00000000
00010000
00000000
00001000
00000000
01000000
00000000
00010000
00000000
00100000
01000000
,  // measure 8
10000000
00000000
00010000
00000000
01000000
00100000
00000000
00100000
10000000
00000000
00010000
00000000
01000000
00001000
00010000
00001000
,  // measure 9
00010000
00000100
00010000
00000100
00001000
00000010
00001000
00000010
00000100
00000001
00000100
00000001
00000020
00000000
00000000
00000000
,  // measure 10
00000031
00000000
00000100
00000010
00000100
00000001
00000000
00001000
00000000
00000100
00010000
00000100
00010000
00001000
00000000
00100000
,  // measure 11
00010000
00000000
10000000
01000000
10000000
00000000
00010000
01000000
00010000
00000000
10000000
01000000
00000000
00100000
00001000
00100000
,  // measure 12
00001000
00000000
00010000
00000100
00010000
00000100
00001000
00000010
00001000
00000000
00000001
00000100
00000001
00000100
00000010
00001000
,  // measure 13
00000010
00000000
00001000
00000100
00000000
00000100
00010000
00000000
00010000
00001000
00000000
00001000
01000000
00000000
00000000
00000000
,  // measure 14
00010000
00000000
10000000
01000000
10000000
00100000
00000000
00100000
01000000
00001000
00000000
00001000
00010000
00001000
00000100
00000010
,  // measure 15
00001000
00000000
00000001
00000100
00000001
00000100
00000010
00000100
00000010
00000000
00010000
00001000
00000100
00001000
00010000
00000000
,  // measure 16
00000100
00000000
00010000
00001000
00000000
00001000
01000000
00000000
01000000
00010000
00000000
00010000
10000000
01000000
00100000
00010000
,  // measure 17
10000000
00000000
01000000
00100000
01000000
10000000
01000000
00000000
00100000
00001000
00010000
00000000
00000010
00010000
00001000
00000000
,  // measure 18
00000100
00000000
00000001
00000010
00000001
00000000
00001000
00000010
00000000
00000000
00000100
00000000
00001000
00000000
00010000
00000000
,  // measure 19
01000000
00000000
10000000
00100000
10000000
00000000
00010000
00100000
00000000
00000000
01000000
00000000
00010000
00000000
00001000
00000000
,  // measure 20
00000100
00000000
00000001
00000010
00000001
00001000
00000001
00001000
00000010
00000100
00000010
00000000
00010000
00001000
00010000
00000000
,  // measure 21
00100000
01000000
00100000
00000000
10000000
00000000
00010000
01000000
00000000
01000000
00100000
00000000
10000000
01000000
00100000
00010000
,  // measure 22
10000000
00000000
00100000
01000000
00010000
01000000
00100000
01000000
00010000
10000000
01000000
00000000
00100000
00001000
00010000
00001000
,  // measure 23
00010000
00000000
00000100
00001000
00000000
00000010
00000100
00000001
00001000
00000000
00000010
00000000
00010000
00000100
00010000
00000100
,  // measure 24
00001000
00000000
00000010
00000100
00000010
00010000
00000000
00001000
00100000
00000000
00010000
01000000
00010000
10000000
00000000
00010000
,  // measure 25
00100000
00001000
00100000
00001000
00010000
00000100
00010000
00000100
00001000
00000010
00000100
00000001
00000010
00000100
00001000
00000010
,  // measure 26
00000200
00000000
00000000
00000000
00000300
00000000
00000001
00000000
00000010
00000000
00000000
00000010
00000000
00000000
00001000
00000000
,  // measure 27
01000000
00000000
00000000
01000000
00000000
00000000
00010000
00000000
00100000
00000000
00001000
00000000
00001000
00000000
00000000
00000000
,  // measure 28
00011000
00000000
00000000
00010000
01000000
00000000
00100000
00000000
00001000
00000000
00000000
00010000
00000100
00000000
00000010
00000000
,  // measure 29
00001000
00000000
00000000
00010000
00100000
00000000
10000000
00000000
01000000
00000000
00010000
00000000
00010000
00000000
00000000
00000000
,  // measure 30
00011000
00000000
00000000
00001000
00000010
00000000
00000100
00000000
00010000
00000000
00000000
00001000
00100000
00000000
01000000
00000000
,  // measure 31
00010000
00000000
00000000
00001000
00000010
00000000
00000001
00000000
00000100
00000000
00001000
00000000
00001000
00000000
00000000
00000000
,  // measure 32
00101000
00000000
00000000
00100000
00000000
00010000
01000000
00000000
01100000
00000000
00000000
00100000
00000000
10000000
01000000
00000000
,  // measure 33
00010000
00001000
00000100
00000000
00001000
00010000
01000000
00000000
00010000
00001000
00010000
00001000
00000100
00000001
00000100
00000010
,  // measure 34
00020000
00000000
00000000
00030020
00000000
00000000
00000230
00000000
00000000
00000302
00000000
00000000
00000023
00000000
00000000
00000000
,  // measure 35
00002030
00000000
00000000
00203000
00000000
00000000
02300000
00000000
00000000
23000000
00000000
00000000
30200000
00000000
00000000
00000000
,  // measure 36
00310000
00000000
00000000
00010000
00001000
00000000
00000100
00000010
00000100
00000000
00000000
00001000
00010000
00000000
01000000
00100000
,  // measure 37
01000000
00000000
00000000
00010000
00001000
00000000
00000100
00000000
00000001
00000000
00000010
00000000
00000010
00000000
00000000
00000000
,  // measure 38
00001000
00000000
00000000
00001000
00010000
00000000
00100000
01000000
00100000
00000000
00000000
00010000
00001000
00000000
00000010
00000100
,  // measure 39
00000010
00000000
00000000
00001000
00010000
00000000
00100000
00000000
10000000
00000000
01000000
00000000
01000000
00000000
00000000
00000000
,  // measure 40
00011000
00000000
00000000
00010000
00000000
00010000
01000000
00000000
00011000
00000000
00000000
00001000
00000000
00001000
00000100
00000000
,  // measure 41
00000001
00000010
00000001
00000010
00000100
00010000
00000100
00010000
00000010
00001000
00000010
00000100
00000010
00010000
00001000
01000000
,  // measure 42
00020000
00100000
10000000
01000000
,  // measure 43
00032000
00000010
00000001
00000100
,  // measure 44
00023000
00100000
10000000
01000000
,  // measure 45
00031000
00000000
00000000
00000000
00000010
00000000
00000000
00000000
00000100
00000001
00000010
00000000
00000010
00000001
00000010
00000001
,  // measure 46
00002000
00000010
00000001
00000100
,  // measure 47
00023000
00100000
10000000
01000000
,  // measure 48
00031000
00000010
00000001
00000010
00001000
00000100
00000001
00000100
,  // measure 49
00010000
00000000
00001000
00010000
00100000
00000000
00010000
00100000
01000000
00100000
01000000
00100000
10000000
00010000
00100000
01000000
,  // measure 50
10000000
00000000
00010000
01000000
00100000
00000000
00010000
00000000
00001000
00000100
00000000
00000001
00001000
00000000
00000010
00000000
,  // measure 51
00000200
00000010
00001000
00000010
,  // measure 52
00000301
00000000
00001000
00000100
00000010
00000000
00001000
00000000
00010000
01000000
00000000
10000000
00010000
00000000
00100000
00000000
,  // measure 53
02000000
00000000
00100000
00000000
10000000
00000000
03100000
00001000
,  // measure 54
00010000
00000000
00000010
00001000
00000010
00000000
00010000
00000000
00001000
00000000
01000000
00010000
01000000
00100000
00000000
00100000
,  // measure 55
10000000
00010000
00000000
01000000
00100000
01000000
00001000
01000000
00010000
01000000
00001000
00000000
00010000
00000100
00010000
00000100
,  // measure 56
00001000
00000000
00000001
00000000
00000010
00000000
00000001
00000100
00000010
00000100
00000000
00000010
00010000
00001000
00010000
00001000
,  // measure 57
01000000
00010000
01000000
00010000
10000000
00100000
10000000
00100000
01000000
00010000
00100000
00001000
00100000
00001000
00010000
00000100
,  // measure 58
00000010
00000000
00000000
00000000
;
