#TITLE:TRIP MACHINE;
#SUBTITLE:-Resuscitation MIX-;
#ARTIST:EBB;
#TITLETRANSLIT:;
#SUBTITLETRANSLIT:;
#ARTISTTRANSLIT:;
#GENRE:;
#CREDIT:;
#BANNER:TRIP MACHINE -Resuscitation Mix-.png;
#BACKGROUND:TRIP MACHINE -Resuscitation Mix--bg.png;
#LYRICSPATH:;
#CDTITLE:;
#MUSIC:TRIP MACHINE -Resuscitation MIX-.ogg;
#OFFSET:-4.500000;
#SAMPLESTART:15.000000;
#SAMPLELENGTH:15.000000;
#SELECTABLE:YES;
#BPMS:0.000000=160.000000
,20.000000=320.000000
,36.000000=160.000000
;
#STOPS:
;
#BGCHANGES:;
#KEYSOUNDS:;
#ATTACKS:;

//---------------dance-single - ----------------
#NOTES:
     dance-single:
     :
     Hard:
     8:
     0.541878,0.580305,0.280522,0.158556,0.060983,311.000000,288.000000,23.000000,13.000000,0.000000,0.000000,0.541878,0.580305,0.280522,0.158556,0.060983,311.000000,288.000000,23.000000,13.000000,0.000000,0.000000:
0001
0000
0000
0000
,
1000
0000
1000
0000
0000
0001
0100
0001
,
0000
1000
0010
1000
0001
0000
0010
0000
,
0100
0000
1000
0000
0000
1000
0100
0010
,
0000
0010
0100
1000
0001
0100
0010
1000
,
0002
0000
0000
0000
,
0000
0000
0000
0000
,
1003
0000
0001
0000
,
1000
0000
0001
0000
,
1000
0100
0001
0000
0000
0001
0100
1000
,
0000
1000
0001
0100
0010
0000
0100
0000
,
0001
0010
0100
0000
0000
0100
1000
0001
,
0000
0000
0100
0000
0010
0000
0100
0000
0001
0000
0000
0010
0000
0000
0100
0000
,
1000
0010
1000
0000
0200
0000
0000
0000
1300
0000
0010
0000
0100
0000
0001
0000
,
0000
0001
0100
0001
2000
0000
3200
0000
,
1300
0010
0200
0000
0310
1000
0100
0010
,
0000
0000
0001
0010
0001
0000
0100
0000
0010
0000
0000
1000
0000
0000
0001
0000
,
0100
0110
0010
1010
,
1000
0100
1000
0001
0000
0100
0000
0100
,
0010
0110
0100
0101
,
0001
0010
0100
0010
0000
0010
0000
0001
,
0100
0010
0100
0000
0001
0010
0100
0000
,
1000
0001
0100
0000
0010
1000
0100
0000
,
0010
0001
0100
0010
0100
0001
1000
0100
,
0020
0032
0203
2300
,
3100
0010
0100
0010
0100
0010
0100
0010
,
1000
0010
1000
0010
0100
0001
0100
0001
,
0010
0001
0010
0001
0010
0001
0010
0001
,
1000
0100
1000
0100
1000
0001
1000
0001
,
0100
0010
0100
0010
0100
0010
0100
0010
,
0100
0001
0100
0001
0010
0001
0010
0001
,
0010
0001
0100
0010
0100
0001
0010
0100
,
2000
0000
0000
0000
0000
0000
0000
0000
0010
0000
0000
0000
3000
0000
0000
0000
0000
0000
0100
0000
0000
0000
0000
0000
0002
0000
0000
0000
0000
0000
0000
0000
0000
0010
0000
0000
0003
0000
0000
0000
0000
0000
0100
0000
0000
0000
0000
0000
,
1000
0100
0001
0100
0000
0010
0000
0010
,
0000
0001
0100
0010
0100
0000
0101
0000
,
0001
0010
0100
0000
0100
1000
0010
0100
,
0000
0100
0010
1000
1100
0000
0011
0000
,
0001
0100
0010
0100
0001
0010
0100
1100
,
0000
1000
0010
0100
0110
0000
1001
0000
,
0100
1000
0100
0000
0010
0000
1000
0000
0100
0000
0010
0000
0001
0000
0200
0000
,
0000
0000
0310
1000
0010
0000
0100
0000
0101
0000
0000
1000
0000
0000
0100
0000
,
0001
0100
0110
0000
0010
0100
0001
0011
,
0000
0010
0100
1000
1100
0000
1010
0000
,
0001
0100
0110
0000
0100
0001
0010
0110
,
0000
0100
1000
0100
1100
0000
1001
0000
,
0001
0100
0110
0000
0100
0001
0010
0011
,
0000
0010
0100
1000
1100
0000
1001
0000
,
0001
0100
0010
0100
0001
1000
0100
0010
,
0001
1000
0010
0100
0001
1000
0020
0000
,
0030
0000
0000
0000
,
0000
0010
0000
0000
0000
0000
0000
0000
0000
0000
0000
0000
;

//---------------dance-single - ----------------
#NOTES:
     dance-single:
     :
     Medium:
     6:
     0.374610,0.488678,0.012197,0.243932,0.018295,215.000000,214.000000,1.000000,20.000000,0.000000,0.000000,0.374610,0.488678,0.012197,0.243932,0.018295,215.000000,214.000000,1.000000,20.000000,0.000000,0.000000:
0000
0000
0000
0000
,
0010
1000
0100
1000
,
0010
0000
0100
0000
0001
1000
0001
0000
,
0100
0010
1000
0100
,
0010
0001
0100
0010
,
2002
0000
0000
0000
,
3003
0000
0000
0000
,
0100
0000
0100
0000
,
0100
0000
0100
0000
,
0001
0000
0100
0000
0000
0010
0000
0001
,
0000
0100
0010
0000
1000
0000
0100
0000
,
1000
0000
0010
0000
0000
0100
0000
0001
,
0000
0100
0010
0000
2000
0000
3002
0000
,
1003
0000
0010
0000
0000
0100
0000
0001
,
0000
0100
0010
0000
1000
0000
0100
0000
,
1000
0000
0010
0000
0000
0100
0000
0001
,
0000
1000
0100
0000
0020
0000
0032
0000
,
0103
0000
0010
0000
0100
0001
0100
0000
,
0010
0000
1000
0000
0001
0010
0001
0000
,
1000
0000
0010
0000
0100
0001
0100
0000
,
0001
0000
0010
0000
0100
1000
0100
0000
,
1000
1000
0001
0001
,
0100
0100
0010
0010
,
1000
0100
1000
0100
0010
0001
0010
0001
,
0100
0010
0100
0010
0100
0010
0200
0000
,
0310
0000
1000
0000
0100
1000
0001
0000
,
0100
0000
0010
0100
0000
0100
0001
0000
,
0010
0000
0100
0000
1000
0001
0100
0000
,
0010
0000
1000
0001
0000
0001
0010
0000
,
0100
0000
1000
0000
0100
0010
0001
0000
,
0100
0000
0010
1000
0000
0100
0010
0000
,
0100
1000
0001
0000
0100
0000
0010
0000
,
2000
0000
0000
0100
3000
0000
1000
0000
0002
0000
0000
0100
0003
0000
0001
0000
,
1000
0010
1000
0000
0000
0001
0000
0100
,
0000
0010
0100
0000
0001
0000
0010
0000
,
0100
1000
0100
0000
0000
0010
0001
0010
,
0000
0010
0001
0000
0200
0000
0320
0000
,
1030
0000
0100
0000
0000
0100
0000
1000
,
0000
0001
0100
0000
0020
0000
0130
0000
,
0001
0010
0001
0000
0000
1000
0100
1000
,
0000
0001
0100
0000
0020
0000
2030
0000
,
3001
0000
0100
0000
0000
0010
0000
1000
,
0000
0100
1000
0100
2000
0000
3002
0000
,
0103
0000
0010
0000
0000
0100
0000
0001
,
0000
0010
0001
0010
0002
0000
0203
0000
,
0310
1000
0100
0001
,
0010
1000
0100
0010
,
0001
0100
0001
0000
1000
0010
1000
0000
,
0001
0010
0001
0010
0200
0000
2300
0000
,
3000
0000
0000
0000
,
0000
0100
0000
0000
0000
0000
0000
0000
0000
0000
0000
0000
;

//---------------dance-single - ----------------
#NOTES:
     dance-single:
     :
     Easy:
     5:
     0.306658,0.358580,0.000000,0.365898,0.012197,176.000000,176.000000,0.000000,30.000000,0.000000,0.000000,0.306658,0.358580,0.000000,0.365898,0.012197,176.000000,176.000000,0.000000,30.000000,0.000000,0.000000:
0000
0000
0000
0000
,
1000
0100
1000
0001
,
0100
0010
0100
0001
,
0010
0100
1000
0001
,
0200
0000
0320
0000
,
0130
0000
0000
0000
,
0000
0000
0000
0000
,
0010
0000
0000
0000
,
0010
0000
0000
0000
,
1000
0000
0100
0000
0000
1000
0000
0001
,
0000
0100
0020
0230
,
0301
0000
0010
0000
0000
0010
0000
0001
,
0000
0100
0020
2030
,
3100
0000
1000
0000
0000
0010
0000
0100
,
0000
0010
2000
3200
,
1300
0000
0001
0000
0000
0001
0000
0100
,
0000
0010
2000
3002
,
1003
0010
0100
0001
,
0000
1000
1000
1000
0000
0000
0100
0000
,
0010
0001
0100
0010
,
0000
0100
0100
0100
0000
0000
0001
0000
,
0010
0001
0010
0000
0100
0000
1000
0000
,
0010
1000
0010
0000
0100
0000
0001
0000
,
1000
0001
1000
0000
0001
1000
0001
0000
,
2000
3002
2003
3002
,
1003
0010
0100
0001
,
1000
0100
0010
0001
,
0100
0010
1000
0100
,
0010
0001
0010
0001
,
1000
0100
1000
0010
,
0100
0001
1000
0010
,
1000
0100
0010
0001
,
1000
0000
0000
1000
0000
0000
1000
0000
0001
0000
0000
0001
0000
0000
0001
0000
,
0100
0000
0100
0000
0000
0010
0000
0010
,
0000
1000
0002
2003
,
3001
0000
0001
0000
0000
0010
0000
0010
,
0000
0100
0200
2300
,
3100
0000
0100
0000
0000
1000
0000
1000
,
0000
0010
0020
0230
,
0301
0000
0001
0000
0000
0010
0000
0010
,
0000
0001
0002
0203
,
0310
0000
0010
0000
0000
1000
0100
1000
,
0000
0010
0200
0302
,
0103
0000
0100
0000
0000
0010
1000
0010
,
0000
1000
0200
0302
,
1003
0010
0100
0001
,
0100
0010
2000
3002
,
1003
0000
0010
0000
0000
0010
0000
1000
,
0000
0001
1000
0001
2000
0000
3002
0000
,
0003
0000
0000
0000
;

//---------------dance-single - ----------------
#NOTES:
     dance-single:
     :
     Beginner:
     1:
     0.135905,0.207037,0.012197,0.012197,0.000000,78.000000,77.000000,1.000000,1.000000,0.000000,0.000000,0.135905,0.207037,0.012197,0.012197,0.000000,78.000000,77.000000,1.000000,1.000000,0.000000,0.000000:
0000
0000
0000
0000
,
1000
0000
1000
0000
,
0001
0000
0001
0000
,
1000
0000
0001
0000
,
1000
0000
0001
0000
,
1001
0000
0000
0000
,
0000
0000
0000
0000
,
0000
0000
0000
0000
,
0000
0000
0000
0000
,
0000
1000
0000
1000
,
0000
0010
0000
0010
,
0000
0100
0000
0100
,
0000
0001
0000
0001
,
0000
0010
0000
0010
,
0000
0100
0000
0100
,
0000
1000
0000
1000
,
0000
0001
0000
0001
,
0001
0000
0100
0000
,
0001
0000
0100
0000
,
0010
0000
1000
0000
,
0010
0000
1000
0000
,
0100
0000
0100
0000
,
0100
0000
0100
0000
,
0010
0010
0010
0010
,
0020
0000
0030
0000
,
0010
0000
0001
0000
,
0010
0000
0001
0000
,
1000
0000
0100
0000
,
1000
0000
0000
0000
,
0010
0000
1000
0000
,
0010
0000
1000
0000
,
0001
0000
0100
0000
,
0001
0000
0000
0000
,
0010
0000
0000
0000
,
0100
0000
0000
0000
,
1000
0000
0000
0000
,
0001
0000
0000
0000
,
0100
0000
0000
0000
,
0010
0000
0000
0000
,
1000
0000
0000
0000
,
0001
0000
0000
0000
,
0010
0000
0000
0000
,
0010
0000
0001
0000
,
0010
0000
0000
0000
,
0100
0000
1000
0000
,
0100
0000
0000
0000
,
1000
0000
0001
0000
,
1000
0000
0010
0000
,
0100
0000
0001
0000
;

//---------------dance-double - ----------------
#NOTES:
     dance-double:
     :
     Easy:
     4:
     0.301430,0.327022,0.048786,0.207342,0.000000,173.000000,169.000000,4.000000,17.000000,0.000000,0.000000,0.301430,0.327022,0.048786,0.207342,0.000000,173.000000,169.000000,4.000000,17.000000,0.000000,0.000000:
00000000
00000000
00000000
00000000
,
00001000
00010000
00001000
00100000
,
00001000
00010000
00000100
00001000
,
00000001
00000010
00000100
00001000
,
00020000
00000000
20030000
00000000
,
30100000
00000000
00000000
00000000
,
00000000
00000000
00000000
00000000
,
01000000
00000000
00000000
00000000
,
01000000
00000000
00000000
00000000
,
00100000
00000000
10000000
00000000
00000000
00010000
00000000
10000000
,
00000000
01000000
00020000
00032000
,
00003010
00000000
00000001
00000000
00000000
00001000
00000000
00000001
,
00000000
00000100
00002000
00023000
,
01030000
00000000
10000000
00000000
00000000
00010000
00000000
10000000
,
00000000
00100000
00020000
00032000
,
00003100
00000000
00000001
00000000
00000000
00001000
00000000
00000001
,
00000000
00000010
00002000
00023000
,
00130000
10000000
00010000
01000000
,
00000000
00000000
00001000
00000000
00010000
00001000
00010000
00000000
,
00000010
00001000
00000001
00000100
,
00000000
00000000
00000010
00000000
00010000
00001000
00010000
00000000
,
00011000
00000000
00101000
00000000
,
00011000
00000000
00001010
00000000
,
00000010
00000010
00000100
00000100
,
00000002
00002003
00023000
20030000
,
30010000
00100000
01000000
10000000
,
00010000
01000000
00100000
10000000
,
01000000
00010000
00001000
00000100
,
00000010
00001000
00000001
00000010
,
00000001
00000100
00000010
00001000
,
00000001
00000010
00001000
00010000
,
00000100
00010000
00001000
00100000
,
00020000
10000000
10000000
10030000
,
00100000
00000000
10000000
00000000
00000000
00010000
00000000
10000000
,
00000000
01000000
00020000
00032000
,
00003100
00000000
00000001
00000000
00000000
00001000
00000000
00000001
,
00000010
00000000
00000000
00000100
00000000
00000100
00000000
00000000
,
00000010
00000000
00000001
00000000
00000000
00001000
00000100
00001000
,
00000000
00000001
00000010
00001000
,
00010000
00000000
00100000
00000000
00000000
10000000
01000000
10000000
,
00010000
00000000
00000000
00100000
00000000
01000000
10000000
00000000
,
00100000
00000000
10000000
00000000
00000000
00010000
01000000
00010000
,
00000000
10000000
00100000
00010000
,
00001000
00000000
00000010
00000000
00000000
00000001
00000100
00000001
,
00001000
00000010
00000100
00000001
,
00001000
00001000
00000100
00000100
,
00010000
00010000
00001000
00001000
,
00100000
00010000
01000000
00100000
,
10000000
01000000
00010000
00001000
;

//---------------dance-double - ----------------
#NOTES:
     dance-double:
     :
     Medium:
     6:
     0.416427,0.458135,0.195146,0.134163,0.012197,239.000000,223.000000,16.000000,11.000000,0.000000,0.000000,0.416427,0.458135,0.195146,0.134163,0.012197,239.000000,223.000000,16.000000,11.000000,0.000000,0.000000:
// measure 0
00000000
00000000
00000000
00000000
,  // measure 1
00010000
00010000
00010000
00010000
,  // measure 2
00001000
00001000
00001000
00001000
,  // measure 3
01000000
00100000
10000000
01000000
,  // measure 4
00010000
00001000
00010000
00000000
00000100
00000010
00000100
00000000
,  // measure 5
00002002
00000000
00000000
00000000
,  // measure 6
00003003
00000000
00000000
00000000
,  // measure 7
00000010
00000000
00000010
00000000
,  // measure 8
00000010
00000000
00000010
00000000
,  // measure 9
00001000
00000000
00000001
00000000
00000000
00000100
00000010
00001000
,  // measure 10
00000000
00000100
00010000
00000000
00100000
00000000
10000000
00000000
,  // measure 11
00010000
00000000
10000000
00000000
00000000
00100000
01000000
00010000
,  // measure 12
00000000
10000000
01000000
00000000
00010000
00000000
00001000
00000000
,  // measure 13
00000100
00000001
00000001
00000000
00000000
00000010
00000100
00000010
,  // measure 14
00000000
00001000
00000000
00010000
00001000
00000000
00100000
00000000
,  // measure 15
01000000
10000000
10000000
01000000
00000000
00100000
00010000
00100000
,  // measure 16
00000000
00001000
00010000
00001000
00010000
00000100
00000010
00000000
,  // measure 17
00000011
00000001
00000001
00001000
,  // measure 18
00001100
00000100
00000100
00010000
,  // measure 19
00011000
00001000
00001000
01000000
,  // measure 20
01010000
00000000
00010000
00000000
00100000
01000000
00100000
00000000
,  // measure 21
10010000
00000000
01010000
00000000
,  // measure 22
00101000
00000000
00010100
00000000
,  // measure 23
00001100
00000110
00000011
00001001
,  // measure 24
00000100
00000000
00000010
00000001
00000010
00000100
00001000
00000000
,  // measure 25
00000001
00000000
00000010
00001000
00000000
00010000
00001000
00000100
,  // measure 26
00001000
00000000
00010000
00000000
00100000
01000000
00100000
00000000
,  // measure 27
10000000
00000000
01000000
00010000
00000000
00001000
00010000
00100000
,  // measure 28
00020000
00032000
00003020
00000032
,  // measure 29
00001003
00000000
00000010
00000100
00000000
00000001
00000010
00000100
,  // measure 30
00001000
00000000
00000100
00010000
00000100
00000000
00010000
00000000
,  // measure 31
00001000
00100000
00010000
00000000
10000000
01000000
00010000
00000000
,  // measure 32
00001000
00000000
00000000
00100000
00000000
00000000
00020000
00000000
00000000
00000000
00000000
00000000
00030000
00000000
00000000
00000000
,  // measure 33
10000000
00000000
10000000
00000000
00100000
01000000
00010000
00100000
,  // measure 34
00002000
00023000
00030200
00000320
,  // measure 35
00000031
00000000
00000001
00000000
00000100
00000010
00001000
00000100
,  // measure 36
00010000
00000000
00000000
00011000
00000000
00100000
01000000
00000000
,  // measure 37
10000000
00000000
00010000
00000000
10000000
01000000
00010000
00000000
,  // measure 38
00001000
00000000
00100000
00000000
00010000
01000000
00001000
00000000
,  // measure 39
00010000
00000000
00001000
00000000
00000100
00000001
00000100
00000010
,  // measure 40
00001000
00000000
00000001
00000100
00000010
00000000
00001001
00000000
,  // measure 41
00000001
00000000
00001000
00000000
00000001
00000100
00001000
00000000
,  // measure 42
00010000
00000000
00000010
00000000
00001000
00000100
00010000
00000000
,  // measure 43
00001000
00000000
00010000
00000000
01000000
10000000
01000000
00100000
,  // measure 44
00010000
00000000
10000000
01000000
00100000
00000000
10010000
00000000
,  // measure 45
10000000
01000000
00100000
00000000
00010000
01000000
00001000
00000000
,  // measure 46
00010000
00000100
00001000
00000000
00000010
00000100
00000001
00000000
,  // measure 47
00001000
00000100
00000010
00000000
00000001
00000100
00001000
00000000
,  // measure 48
00010000
01000000
10000000
00000000
00100000
01000000
00010000
00000000
,  // measure 49
00000000
00000000
00000000
00000000
,  // measure 50
00000000
01000000
00000000
00000000
00000000
00000000
00000000
00000000
00000000
00000000
00000000
00000000
;

//---------------dance-double - ----------------
#NOTES:
     dance-double:
     :
     Hard:
     8:
     0.519227,0.519220,0.231736,0.012197,0.030492,298.000000,279.000000,19.000000,1.000000,0.000000,0.000000,0.519227,0.519220,0.231736,0.012197,0.030492,298.000000,279.000000,19.000000,1.000000,0.000000,0.000000:
// measure 0
00000000
00000000
00000000
00000000
00000000
00000000
00000000
00010000
,  // measure 1
00001000
00001000
00010000
00010000
,  // measure 2
00000100
00000000
00000100
00000000
00000010
00000001
00000010
00001000
,  // measure 3
00010000
00010000
00001000
00001000
,  // measure 4
00100000
00010000
01000000
00100000
10000000
01000000
00100000
00010000
,  // measure 5
00200000
00000000
00000000
00000000
,  // measure 6
00000000
00000000
00000000
00000000
,  // measure 7
00301000
00000000
00010000
00000000
,  // measure 8
00001000
00000000
00010000
00000000
,  // measure 9
00001000
00000100
00000001
00000000
00001000
00000001
00000100
00001000
,  // measure 10
00000000
00010000
01000000
01000000
10000000
10000000
00100000
00100000
,  // measure 11
10000000
01000000
00010000
00000000
00001000
00000100
00000001
00001000
,  // measure 12
00000010
00000100
00000001
00000000
00000101
00000000
00001100
00000000
,  // measure 13
00010000
01000000
10000000
00000000
00010000
10000000
01000000
00010000
,  // measure 14
00000000
00001000
00000100
00000100
00000001
00000001
00000010
00000010
,  // measure 15
00000000
00000100
00000010
00000100
00000000
00010000
00001000
00010000
,  // measure 16
00000000
00100000
10000000
00100000
10000000
00010000
01000000
00000000
,  // measure 17
01010000
10010000
11000000
01010000
,  // measure 18
00010000
00001000
00000100
00000001
00000010
00000010
00000001
00000000
,  // measure 19
00001100
00001001
00000101
00001100
,  // measure 20
00001000
00010000
01000000
10000000
00100000
00100000
10000000
00000000
,  // measure 21
11000000
01000000
01010000
00010000
,  // measure 22
00011000
00001000
00001100
00000100
,  // measure 23
00000101
00001001
00001010
00010100
,  // measure 24
00010000
00001000
00000000
00000000
01000000
00000000
00010000
00000000
00100000
00000000
01000000
00000000
10000000
00000000
00100000
00000000
,  // measure 25
01000000
00010000
10000000
00100000
00010000
00001000
00000100
00000000
,  // measure 26
00000001
00000010
00000001
00000100
00001000
00000100
00000010
00000000
,  // measure 27
00001000
00000100
00010000
00001000
00100000
00010000
10000000
00000000
,  // measure 28
01000000
00000000
00000000
01000000
00000000
00000000
00100000
00000000
00001000
00000000
00000000
00001000
00000000
00000000
00010000
00000000
,  // measure 29
00000100
00001000
00000001
00000010
00001000
00010000
01000000
00000000
,  // measure 30
10000000
00100000
10000000
01000000
00010000
01000000
00100000
00000000
,  // measure 31
00010000
01000000
00001000
00010000
00000010
00001000
00000001
00000000
,  // measure 32
00001000
00000000
00000000
00000100
00000000
00000000
00000010
00000000
00000000
00000000
00000100
00000000
00010000
00000000
00000000
00000000
,  // measure 33
00001000
00100000
00100000
01000000
01000000
10000000
00010000
00000000
,  // measure 34
10000000
01000000
01000000
00010000
00010000
00001000
00000100
00000000
,  // measure 35
00000001
00000010
00000010
00001000
00001000
00010000
00000100
00000000
,  // measure 36
00000010
00001000
00010000
00100000
00000000
01000000
10010000
00000000
,  // measure 37
10000000
00000000
01000000
00000000
00010000
00001000
00010000
00100000
,  // measure 38
00000000
00010000
00001000
00000100
00000000
00000001
00000010
00000000
,  // measure 39
00000001
00000000
00000100
00000000
00001000
00010000
00001000
00000010
,  // measure 40
00000001
00000100
00000010
00010000
00001000
00100000
01000000
00000000
,  // measure 41
10000000
00000000
00100000
00000000
00010000
00001000
00010000
01000000
,  // measure 42
00000000
00010000
00001000
00000010
00000000
00000001
00000100
00000000
,  // measure 43
00000001
00000000
00000010
00000000
00001000
00010000
00001000
00000100
,  // measure 44
00000001
00000010
00000100
00010000
00001000
01000000
00100000
00000000
,  // measure 45
10000000
01000000
00010000
00000000
00010000
01000000
00100000
00001000
,  // measure 46
00000000
00001000
00010000
00001000
00000010
00000001
00001000
00000000
,  // measure 47
00000001
00000100
00000010
00001000
00000001
00000010
00000100
00010000
,  // measure 48
00001000
00100000
00010000
01000000
10000000
01000000
00010000
00000000
,  // measure 49
00000000
00000000
00000000
00000000
,  // measure 50
00000000
00100000
00000000
00000000
00000000
00000000
00000000
00000000
00000000
00000000
00000000
00000000
;
