#TITLE:Summer School;
#SUBTITLE:;
#ARTIST:Twirl;
#TITLETRANSLIT:;
#SUBTITLETRANSLIT:;
#ARTISTTRANSLIT:;
#GENRE:;
#CREDIT:;
#BANNER:Summer School.png;
#BACKGROUND:Summer School-bg.png;
#LYRICSPATH:;
#CDTITLE:;
#MUSIC:Summer School.ogg;
#OFFSET:-0.037134;
#SAMPLESTART:25.644377;
#SAMPLELENGTH:15.000000;
#SELECTABLE:YES;
#DISPLAYBPM:178.000000;
#BPMS:0.000000=177.994003
,180.000000=181.000000
,184.000000=177.994003
,264.000000=177.554001
,268.000000=177.014008
,272.000000=179.994003
,275.000000=184.000000
,276.000000=181.014008
,279.000000=168.994003
,280.000000=172.994003
;
#STOPS:
;
#BGCHANGES:;
#KEYSOUNDS:;
#ATTACKS:;

//---------------dance-single - ----------------
#NOTES:
     dance-single:
     :
     Beginner:
     1:
     0.118667,0.218051,0.029667,0.000000,0.000000,84.000000,81.000000,3.000000,0.000000,0.000000,0.000000,0.118667,0.218051,0.029667,0.000000,0.000000,84.000000,81.000000,3.000000,0.000000,0.000000,0.000000:
0000
0000
0000
0000
,
0000
0000
0000
0000
,
0000
0000
0000
0000
,
0000
0000
0000
0000
,
1000
0000
0000
0000
,
1000
0000
0000
0000
,
0001
0000
0001
0000
,
0001
0000
0000
0000
,
0100
0000
0000
0000
,
0100
0000
0000
0000
,
0010
0000
0010
0000
,
0010
0000
0000
0000
,
1000
0000
0000
0000
,
0010
0000
0000
0000
,
0100
0000
0000
0000
,
0001
0000
0000
0000
,
0010
0000
0000
0000
,
0100
0000
0000
0000
,
1000
0000
0000
0000
,
1000
1000
1000
0000
,
1000
0000
1000
0000
,
0000
0000
0000
0000
,
0001
0000
0001
0000
,
0000
0000
0000
0000
,
0100
0000
0100
0000
,
0000
0000
0000
0000
,
0010
0000
0010
0000
,
0000
0000
0000
0110
,
0000
0000
0000
1000
,
0000
0001
0000
1000
,
1000
1000
1000
0000
,
0001
0000
0000
0000
,
1000
0000
0000
0000
,
0001
0000
0001
0000
,
0001
0000
0000
0000
,
0100
0000
0000
0000
,
0010
0000
0000
0000
,
0100
0000
0100
0000
,
0100
0000
0000
0000
,
0001
0000
0000
0000
,
0010
0000
0000
0000
,
0100
0000
0000
0000
,
1000
0000
0000
0000
,
0010
0000
0000
0000
,
0100
0000
0000
0000
,
0001
0000
0000
0000
,
0001
0001
0001
0000
,
0010
0000
0010
0000
,
0000
0000
0000
0000
,
0100
0000
0100
0000
,
0000
0000
0000
0000
,
1000
0000
1000
0000
,
0000
0000
0000
0000
,
0001
0000
0001
0000
,
0000
0000
0000
0000
,
1000
0000
0010
0000
,
0000
0000
0000
0000
,
0100
0000
0001
0000
,
0000
0000
0000
0000
,
1000
0000
0100
0000
,
0000
0000
0000
0000
,
0010
0000
0001
0000
,
0000
0000
0000
0000
,
0000
0000
0000
0000
,
1000
0000
0000
0000
,
0010
0000
0000
0000
,
0100
0000
0000
0000
,
0001
0000
0000
0000
,
0010
0000
0000
0000
,
0100
0000
0100
0000
,
0100
0000
0000
0000
,
0000
0000
0000
0000
,
0000
0000
0000
0000
,
0110
0000
0110
0000
;

//---------------dance-single - ----------------
#NOTES:
     dance-single:
     :
     Easy:
     4:
     0.268414,0.472444,0.118667,0.197779,0.000000,190.000000,178.000000,12.000000,20.000000,0.000000,0.000000,0.268414,0.472444,0.118667,0.197779,0.000000,190.000000,178.000000,12.000000,20.000000,0.000000,0.000000:
0000
0000
0000
0000
,
0000
0000
0000
0000
,
0000
0000
0000
0000
,
0000
0000
0000
0000
,
0001
0000
1000
0000
,
0010
0000
0100
0000
,
0001
1000
0100
0000
,
1000
0001
0100
0000
,
0010
0000
1000
0000
,
0001
0000
0010
0000
,
0100
1000
0010
0000
,
0100
0001
0010
0000
,
0001
1000
0001
1000
,
0010
0000
0100
0000
,
0001
1000
0001
1000
,
0100
0000
0010
0000
,
0001
0010
0001
0010
,
0100
0000
1000
0000
,
0020
0000
0000
0000
,
0100
0100
0130
0000
,
0020
0000
0130
0000
,
0001
0010
0100
1000
,
0002
0000
0103
0000
,
0010
1000
0100
0010
,
0200
0000
1300
0000
,
0010
0100
0001
0010
,
0200
0000
0310
0000
,
0001
1000
0001
1001
,
0010
0100
0010
0110
,
0000
1001
0000
0110
,
1001
1001
1001
0000
,
0001
0000
0010
0000
,
0100
0000
1000
0000
,
0010
1000
0100
0000
,
0010
0100
1000
0000
,
0001
0000
0100
0000
,
0010
0000
1000
0000
,
0001
0010
0100
0000
,
0010
0001
0100
0000
,
0010
0100
0010
0100
,
0001
1000
0100
0000
,
0010
0100
0010
0100
,
1000
0001
0100
0000
,
0010
1000
0010
1000
,
0001
0010
0100
0000
,
2000
0000
0000
0000
,
0001
0001
3001
0000
,
0002
0000
1003
0000
,
0010
0100
0001
0010
,
0200
0000
0310
0000
,
0001
1000
0010
0100
,
0002
0000
0103
0000
,
0010
1000
0001
0010
,
0200
0000
1300
0000
,
0010
0100
0001
0000
,
0020
0000
0130
0000
,
0010
0001
1000
0010
,
0200
0000
0310
0000
,
1000
0010
0100
0001
,
2000
0000
3100
0000
,
0010
0100
1000
0010
,
0200
0000
0301
0000
,
2000
0000
0000
0000
,
3002
0000
0000
0000
,
0203
0000
0000
0000
,
0320
0000
0000
0000
,
1030
0000
1000
0000
,
0001
0000
0001
0000
,
0010
0000
0100
0000
,
0110
0000
1001
0000
,
0220
0000
0000
0000
,
0000
0000
0000
0000
,
0000
0000
0330
0000
,
1001
0000
1001
0000
;

//---------------dance-single - ----------------
#NOTES:
     dance-single:
     :
     Medium:
     5:
     0.358828,0.508786,0.207668,0.079112,0.000000,254.000000,233.000000,21.000000,8.000000,0.000000,0.000000,0.358828,0.508786,0.207668,0.079112,0.000000,254.000000,233.000000,21.000000,8.000000,0.000000,0.000000:
0000
0000
0000
0000
,
0000
0000
0000
0000
,
0000
0000
0000
0000
,
0000
0000
0000
0000
,
0001
0100
0010
1000
,
0100
0000
0000
0100
0000
0000
1000
0000
,
0010
1000
0001
0000
,
0010
0001
0000
0010
0000
0000
0100
0000
,
1000
0010
0100
0001
,
0010
0000
0000
0001
0000
0000
1000
0000
,
0010
0100
0001
0000
,
0010
0100
0000
0010
0000
0000
0100
0000
,
1000
0001
0100
0010
,
1000
0000
0001
1000
0000
0000
0000
0000
,
0100
0010
0001
1000
,
0010
1000
0000
0010
0000
0000
0100
0000
,
0001
0010
0100
1000
,
0001
0100
0000
0001
0000
0000
0010
0000
,
0200
0000
0000
0000
,
0010
0010
0310
0000
,
0010
0100
0110
0000
,
0001
1000
0010
0100
,
0001
0100
0000
0000
0101
0000
0000
0000
,
0001
0010
0100
1000
,
0010
1000
0000
0000
1010
0000
0000
0000
,
0010
0100
0001
1000
,
0100
0010
0000
0000
0110
0000
0000
0000
,
0100
0010
0100
1001
,
0010
0100
0010
1001
,
0001
0011
1000
1100
,
1000
0001
1000
0001
1000
0000
0000
0000
,
0010
1000
0100
1000
,
0010
0000
0000
0100
0000
0000
0010
0000
,
1000
0100
0010
0001
,
1000
0001
0000
0100
0000
0000
0010
0000
,
0100
0001
0010
0100
,
1000
0000
0000
0010
0000
0000
0100
0000
,
0001
0010
0100
1000
,
0001
0100
0000
0010
0000
0000
0100
0000
,
0001
0010
0100
1000
,
0001
0000
0100
0001
0000
0000
0010
0000
,
0100
1000
0010
0100
,
0001
1000
0000
0100
0000
0000
0010
0000
,
0100
1000
0010
0100
,
0001
0010
0000
0001
0000
0000
1000
0000
,
0020
0000
0000
0000
,
0100
0100
0130
0000
,
0001
0010
0000
0000
0011
0000
0000
0000
,
0100
1000
0010
0100
,
0001
1000
0000
0000
1100
0000
0000
0000
,
1000
0010
0100
0001
,
0010
0100
0000
0000
1001
0000
0000
0000
,
0010
0100
0001
0010
,
0100
1000
0000
0000
1001
0000
0000
0000
,
0010
0000
0100
0000
0001
1000
0001
1000
,
0100
0010
0000
0000
0110
0000
0000
0000
,
0010
0001
1000
0010
,
0100
0001
0000
0000
1001
0000
0000
0000
,
0100
0010
0001
1000
,
0010
0100
0000
0000
0101
0000
0000
0000
,
0001
0010
0100
1000
,
0010
0100
0000
0000
1001
0000
0000
0000
,
0200
0000
0010
0000
,
0320
0000
0000
0000
0100
0000
0000
0030
,
0200
0000
1000
0000
,
2300
0000
0001
0000
,
3001
0000
0100
0001
0000
0000
0010
0000
,
0100
0000
1000
0100
0000
0000
1000
0000
,
0001
0100
0010
1000
,
1010
0000
0101
0000
,
2002
0000
0000
0000
,
0000
0000
0000
0000
,
0000
0000
3003
0000
,
1001
0000
0110
0000
;

//---------------dance-single - ----------------
#NOTES:
     dance-single:
     :
     Hard:
     7:
     0.493035,0.545128,0.296668,0.079112,0.009889,349.000000,319.000000,30.000000,8.000000,0.000000,0.000000,0.493035,0.545128,0.296668,0.079112,0.009889,349.000000,319.000000,30.000000,8.000000,0.000000,0.000000:
0000
0000
0000
0000
,
0000
0000
0000
0000
,
0000
0000
0000
0000
,
0000
0000
0000
0000
,
0010
1000
0100
0000
0010
0000
0100
0000
,
1000
0000
0001
0100
0000
0000
0110
0000
,
0010
1000
0001
1000
0010
0000
0000
0100
,
0001
0010
0000
0110
0000
0000
0100
0000
,
1000
0001
1000
0000
0100
0000
0010
0000
,
0001
0000
1000
0010
0000
0000
0100
0000
,
0001
0100
0010
0100
0001
0000
0000
1000
,
0100
0010
0000
0110
0000
0000
0010
0000
,
0100
1000
0100
1000
0001
0000
0100
0000
,
0110
0000
0010
1000
0000
0000
0001
0000
,
0010
0001
0010
0001
1000
0010
1000
0010
,
1000
0001
0000
0101
0000
0000
1000
0000
,
1100
0000
0100
1000
0001
0000
0100
0000
,
0010
0100
0000
0101
0000
0001
1000
0000
,
0200
0000
0000
0000
,
0010
0010
0310
0000
,
0010
0100
1100
1000
,
0010
0000
0100
0001
0010
0001
1000
0010
,
0100
0000
0001
0000
0000
0000
0000
0101
0000
0000
0000
0000
0001
0000
0000
0000
,
0010
0000
0100
1000
0010
1000
0001
0010
,
0100
0000
1000
0000
0000
0000
0000
1001
0000
0000
0000
0000
0001
0000
0000
0000
,
0100
0000
0010
1000
0100
1000
0001
0010
,
0100
1000
0000
0000
1100
0000
1000
0000
,
0001
1000
0001
1000
0010
0000
0110
0000
,
0100
0010
0100
0010
0100
0000
1001
0000
,
0001
0011
1000
1100
,
0001
1000
0001
1000
0010
0000
0000
0000
,
0100
0001
0010
0100
,
1000
0000
0001
0100
0000
0000
0010
0000
,
1000
0010
1000
0000
0100
0000
1000
0000
,
0010
0100
0000
0001
0000
0000
1000
0000
,
0100
0000
1000
0001
1000
0001
0100
0000
,
0010
1000
0000
0001
0000
0000
0010
0000
,
0100
1000
0001
1000
0100
0000
0000
0010
,
0001
1000
0000
1001
0000
0000
0010
0000
,
0100
0001
0010
0001
1000
0000
0100
0000
,
1000
0000
0001
0100
0000
0000
0110
0000
,
0010
1000
0010
1000
0001
0010
0001
0010
,
0100
1000
0000
0001
0000
0000
0100
0000
,
0010
0000
0100
0001
1000
0000
0100
0000
,
1000
0010
0000
0100
0000
0001
1000
0000
,
2001
0000
0000
0000
,
0001
0001
3001
0000
,
1000
0001
1001
0010
,
0100
0000
0001
0010
0001
1000
0100
1000
,
0010
0100
0000
0000
0101
0000
0001
0000
,
0010
0000
0100
1000
0010
1000
0001
0010
,
0100
1000
0000
0000
1100
0000
1000
0000
,
0010
0000
0100
0001
0010
0001
1000
0010
,
0100
0001
0000
0000
0101
0000
0010
0000
,
1000
0000
0100
0000
1000
0001
1000
0001
,
1000
0100
0000
0000
1100
0000
1000
0000
,
0010
0000
0100
0001
0010
0001
1000
0010
,
1000
0001
0000
0000
0011
0000
0010
0000
,
0100
0000
1000
0010
1000
0100
0010
0100
,
1000
0001
0000
0000
0101
0000
0100
0000
,
0010
0000
0100
0001
0010
0001
1000
0010
,
0100
0001
0000
0000
1001
0000
0100
0000
,
0021
0000
0000
0100
0000
0000
0001
0000
,
0230
0000
0000
1000
0000
0000
0010
0000
,
2300
0000
0000
0010
0000
0000
0001
0000
,
3002
0000
0000
0100
0000
0000
1000
0000
,
1003
0000
0100
1000
0000
0000
0000
0001
,
0100
0000
0001
1000
0000
0000
0000
0100
,
1000
0010
0100
0001
,
0001
0010
0100
1000
0010
0100
0001
0000
,
2002
0000
0000
0000
,
0000
0000
0000
0000
,
0000
0000
3003
0000
,
0110
0000
1001
0000
;

//---------------dance-double - ----------------
#NOTES:
     dance-double:
     :
     Hard:
     8:
     0.601813,0.617812,0.445003,0.059334,0.000000,426.000000,381.000000,45.000000,6.000000,0.000000,0.000000,0.601813,0.617812,0.445003,0.059334,0.000000,426.000000,381.000000,45.000000,6.000000,0.000000,0.000000:
00000000
00000000
00000000
00000000
,
00000000
00000000
00000000
00000000
,
00000000
00000000
00000000
00000000
,
00000000
00000000
00000000
00000000
,
00000010
00000001
00000100
00000000
00001000
00000000
00010000
00000000
,
00100000
00000000
10000000
01000000
00010000
00000000
00001000
00000000
,
00100000
00010000
00100000
00010000
10000000
00000000
00000000
01000000
,
00010000
00001000
00000000
00000100
00000001
00001000
00000010
00000000
,
00000100
00000001
00000010
00000000
00001000
00000000
00010000
00000000
,
01000000
00000000
10000000
00100000
00010000
00000000
00001000
00000000
,
01000000
00010000
01000000
00010000
10000000
00000000
00000000
00100000
,
00010000
00001000
00000000
00000010
00000001
00001000
00000100
00000000
,
00000001
00000100
00000001
00000100
00000001
00000100
00001000
00000000
,
00000010
00000000
00010000
00001000
00100000
00010000
01000000
00000000
,
10000000
01000000
10000000
01000000
10000000
01000000
00010000
00100000
,
00001000
00010000
00000000
01000000
00010000
00001000
00000100
00000000
,
00000001
00000000
00000010
00000001
00000100
00000000
00001100
00000000
,
00001000
00010000
00000000
01000000
00100000
00010000
10000000
00000000
,
01000000
00000000
00010000
00001000
00010000
00001000
00000010
00000100
,
00000010
00000100
00001000
00000001
00000100
00001000
00010000
00000000
,
01001000
00011000
00010100
00011000
,
00101000
00000000
00001000
01000000
00001000
00010000
00001000
00100000
,
00010000
10000000
00000000
01000000
00010000
00001000
00000010
00000000
,
00000100
00000000
00010000
00000010
00010000
00001000
00010000
00000100
,
00010100
00011000
01001000
00011000
,
00010010
00000000
00010000
00000100
00010000
00001000
00010000
00000010
,
00001000
00000001
00000000
00000100
00001000
00010000
00100000
00000000
,
00100000
10000000
01000000
00010000
00001000
00000000
00011000
00000000
,
00000010
00000001
00000100
00001000
00010000
00000000
00011000
00000000
,
01000000
00011000
00000100
00011000
,
00100000
10000000
00010000
01000000
00001000
00010000
00000010
00001000
,
00000001
00000100
00001000
00001000
,
00010000
00000100
00001000
00000010
00010000
00001000
01000000
00000000
,
00010000
00100000
10000000
00000000
00100000
00010000
01000000
00000000
,
00001000
00100000
00010000
01000000
00001000
00010000
00000100
00000000
,
00000110
00000000
00000001
00000100
00000010
00001000
00000001
00000000
,
00000010
00001000
00010000
00000000
00100000
00010000
00001000
00000000
,
01000000
00010000
01000000
00010000
10000000
00000000
00000000
00100000
,
00010000
00001000
00000000
00000010
00000001
00001000
00000100
00000000
,
00000001
00000100
00000001
00000100
00000001
00000100
00001000
00000000
,
00000010
00000000
00010000
00001000
00100000
00010000
01000000
00000000
,
10000000
01000000
10000000
01000000
10000000
01000000
00010000
00100000
,
00001000
00010000
00000000
01000000
00010000
00001000
00000100
00000000
,
00000001
00000000
00000010
00000001
00000100
00000000
00001100
00000000
,
00001000
00010000
00000000
01000000
00100000
00010000
10000000
00000000
,
01000000
00000000
00010000
00001000
00010000
00001000
00000010
00000100
,
00000010
00000100
00001000
00000001
00000100
00001000
00010000
00000000
,
00010100
00011000
01001000
00011000
,
00010010
00000000
00010000
00000100
00010000
00001000
00010000
00000010
,
00001000
00000001
00000000
00000100
00001000
00010000
00100000
00000000
,
01000000
00000000
00001000
00100000
00001000
00010000
00001000
01000000
,
01001000
00011000
00010100
00011000
,
00101000
00000000
00001000
01000000
00001000
00010000
00001000
00100000
,
00010000
10000000
00000000
01000000
00010000
00001000
00000010
00000000
,
00000001
00000000
00001000
00000000
00000001
00000100
00000010
00010000
,
00010010
00011000
00101000
00011000
,
00010100
00000000
00010000
00000010
00010000
00001000
00010000
00000100
,
00001000
00000001
00000000
00000010
00001000
00010000
01000000
00000000
,
00100000
00000000
00001000
01000000
00001000
00010000
00001000
00100000
,
00101000
00011000
00010010
00011000
,
01001000
00000000
00001000
00100000
00001000
00010000
00001000
01000000
,
00010000
10000000
00000000
00100000
00010000
00001000
00000100
00000000
,
00000102
00000000
00000000
00000010
00000000
00000000
00001000
00000000
,
00000203
00000000
00000000
00000001
00000000
00000000
00000010
00000000
,
00002300
00000000
00000000
00010000
00000000
00000000
00100000
00000000
,
00023000
00000000
00000000
00000100
00000000
00000000
00031000
00000000
,
00011000
00100000
00100000
00100000
,
10010000
01000000
01000000
01000000
,
00011000
00000000
00001100
00000000
,
00000001
00000010
00000100
00010000
00001000
00100000
00010000
00000000
,
20020000
00000000
00000000
00000000
,
00000000
00000000
00000000
00000000
,
00000000
00000000
30030000
00000000
,
01100000
00000000
10010000
00000000
;

//---------------dance-double - ----------------
#NOTES:
     dance-double:
     :
     Medium:
     6:
     0.375780,0.508786,0.168112,0.079112,0.000000,266.000000,249.000000,17.000000,8.000000,0.000000,0.000000,0.375780,0.508786,0.168112,0.079112,0.000000,266.000000,249.000000,17.000000,8.000000,0.000000,0.000000:
00000000
00000000
00000000
00000000
,
00000000
00000000
00000000
00000000
,
00000000
00000000
00000000
00000000
,
00000000
00000000
00000000
00000000
,
00010000
00001000
00010000
00000000
00000100
00000000
00000100
00000000
,
00001000
00000001
00000010
00001000
,
00010000
00001000
00010000
00000000
01000000
00000000
00000000
00000000
,
10000000
00100000
00000000
10000000
00000000
00000000
01000000
00000000
,
00010000
00001000
00010000
00000000
00000100
00000000
00000100
00000000
,
00001000
00000001
00000010
00001000
,
00010000
00001000
00010000
00000000
01000000
00000000
00000000
00000000
,
10000000
00100000
00000000
10000000
00000000
00000000
01000000
00000000
,
00010000
00001000
00100000
00001000
,
00010000
00000000
00000100
00001000
00000001
00000000
00000100
00000000
,
00001000
00010000
00000010
00010000
,
00001000
00000000
01000000
00010000
10000000
00000000
01000000
00000000
,
00010000
00000000
00000100
00001000
00000100
00000000
00010000
00000000
,
00001000
00000100
00000100
00000001
,
00000020
00000000
00000000
00000000
,
00000100
00000100
00000130
00000000
,
00010000
00001000
00011000
00000000
,
01000000
00100000
10000000
00010000
,
01000000
00001000
00000000
00000000
00010000
00000000
00001000
00000000
,
00000100
00000000
00000010
00010000
,
00001000
00010000
00011000
00000000
,
00000100
00000010
00000001
00001000
,
00000100
00010000
00000000
00000000
00001000
00000000
00010000
00000000
,
01000000
01000000
00010000
00011000
,
00000100
00000100
00001000
00011000
,
00100000
00011000
00000010
00011000
,
00010000
00000100
00010000
00000100
00010000
00000000
00000000
00000000
,
00001000
00010000
00001000
00000000
01000000
00000000
01000000
00000000
,
00010000
10000000
00100000
00010000
,
00001000
00010000
00001000
00000000
00000100
00000000
00000000
00000000
,
00000001
00000010
00000000
00000001
00000000
00000000
00000100
00000000
,
00001000
00010000
00001000
00000000
01000000
00000000
01000000
00000000
,
00010000
10000000
00100000
00010000
,
00001000
00010000
00001000
00000000
00000100
00000000
00000000
00000000
,
00000001
00000010
00000000
00000001
00000000
00000000
00000100
00000000
,
00001000
00010000
00000010
00010000
,
00001000
00000000
01000000
00010000
10000000
00000000
01000000
00000000
,
00010000
00001000
00100000
00001000
,
00010000
00000000
00000100
00001000
00000001
00000000
00000100
00000000
,
00001000
00000000
01000000
00010000
01000000
00000000
00001000
00000000
,
01000000
01000000
10000000
00200000
,
00000000
00000000
00000000
00000000
,
01000000
01000000
01300000
00000000
,
00001000
00010000
00011000
00000000
,
00000100
00000010
00000001
00001000
,
00000100
00010000
00000000
00000000
00001000
00000000
00010000
00000000
,
01000000
00000000
00100000
00001000
,
00010000
00001000
00011000
00000000
,
01000000
00100000
10000000
00010000
,
01000000
00001000
00000000
00000000
00010000
00000000
00001000
00000000
,
00000100
00000000
00000000
00000000
00000001
00000100
00000010
00000000
,
00010000
00001000
00011000
00000000
,
01000000
00100000
10000000
00010000
,
01000000
00001000
00000000
00000000
00010000
00000000
00001000
00000000
,
00000100
00000000
00000010
00010000
,
00001000
00010000
00011000
00000000
,
00000100
00000010
00000001
00001000
,
00000100
00010000
00000000
00000000
00001000
00000000
00010000
00000000
,
02000000
00000000
10000000
00000000
,
23000000
00000000
00100000
00000000
,
30200000
00000000
00010000
00000000
,
00320000
00000000
00031000
00000000
,
00011000
00000000
00000010
00000000
,
00001001
00000000
00000100
00000000
,
00011000
00000000
01010000
00000000
,
10000000
00100000
10000000
00100000
10000000
00010000
10000000
00000000
,
20020000
00000000
00000000
00000000
,
00000000
00000000
00000000
00000000
,
00000000
00000000
30030000
00000000
,
01100000
00000000
10010000
00000000
;

//---------------dance-double - ----------------
#NOTES:
     dance-double:
     :
     Easy:
     3:
     0.245811,0.327077,0.079112,0.187890,0.000000,174.000000,166.000000,8.000000,19.000000,0.000000,0.000000,0.245811,0.327077,0.079112,0.187890,0.000000,174.000000,166.000000,8.000000,19.000000,0.000000,0.000000:
// measure 0
00000000
00000000
00000000
00000000
,  // measure 1
00000000
00000000
00000000
00000000
,  // measure 2
00000000
00000000
00000000
00000000
,  // measure 3
00000000
00000000
00000000
00000000
,  // measure 4
10000000
00000000
00010000
00000000
,  // measure 5
01000000
01000000
01000000
00000000
,  // measure 6
00001000
00000000
00010000
00000000
,  // measure 7
00000010
00000010
00000010
00000000
,  // measure 8
00001000
00000000
00000001
00000000
,  // measure 9
00000010
00000010
00000010
00000000
,  // measure 10
00001000
00000000
00010000
00000000
,  // measure 11
01000000
01000000
01000000
00000000
,  // measure 12
10000000
00000000
10000000
00000000
,  // measure 13
00010000
01000000
00001000
00000000
,  // measure 14
00000100
00000000
00000100
00000000
,  // measure 15
00000001
00001000
00000001
00000000
,  // measure 16
00000010
00000000
00000010
00000000
,  // measure 17
00001000
00010000
00001000
01000000
,  // measure 18
00020000
00000000
00000000
00000000
,  // measure 19
10000000
10000000
10030000
00000000
,  // measure 20
02000000
00000000
03010000
00000000
,  // measure 21
00001000
00001000
00010000
00010000
,  // measure 22
00000020
00000000
00001030
00000000
,  // measure 23
00000001
00000001
00000001
00000000
,  // measure 24
00000200
00000000
00001300
00000000
,  // measure 25
00010000
00010000
00001000
00001000
,  // measure 26
00200000
00000000
00310000
00000000
,  // measure 27
10000000
01000000
00100000
00000000
,  // measure 28
01000000
00010000
00001000
00000000
,  // measure 29
00000110
00000000
00001001
00000000
,  // measure 30
00000001
00001000
00001001
00000000
,  // measure 31
00000001
00000000
00001000
00000000
,  // measure 32
00000100
00000100
00000100
00000000
,  // measure 33
00010000
00000000
00001000
00000000
,  // measure 34
00100000
00100000
00100000
00000000
,  // measure 35
00010000
00000000
10000000
00000000
,  // measure 36
00100000
00100000
00100000
00000000
,  // measure 37
00010000
00000000
00001000
00000000
,  // measure 38
00000100
00000100
00000100
00000000
,  // measure 39
00000001
00000000
00000001
00000000
,  // measure 40
00001000
00000100
00010000
00000000
,  // measure 41
01000000
00000000
01000000
00000000
,  // measure 42
10000000
00010000
10000000
00000000
,  // measure 43
00100000
00000000
00100000
00000000
,  // measure 44
00010000
00001000
00010000
00000100
,  // measure 45
00002000
00000000
00000000
00000000
,  // measure 46
00000001
00000001
00003001
00000000
,  // measure 47
00000200
00000000
00001300
00000000
,  // measure 48
00010000
00010000
00001000
00001000
,  // measure 49
00200000
00000000
00310000
00000000
,  // measure 50
10000000
10000000
10000000
00000000
,  // measure 51
02000000
00000000
03010000
00000000
,  // measure 52
00001000
00001000
00010000
00010000
,  // measure 53
00000020
00000000
00001030
00000000
,  // measure 54
00000001
00001000
00001001
00000000
,  // measure 55
00000020
00000000
00001030
00000000
,  // measure 56
00010000
00010000
00001000
00001000
,  // measure 57
02000000
00000000
03010000
00000000
,  // measure 58
10000000
10000000
10000000
00000000
,  // measure 59
00200000
00000000
00310000
00000000
,  // measure 60
00001000
00001000
00010000
00010000
,  // measure 61
00000200
00000000
00001300
00000000
,  // measure 62
00000002
00000000
00000000
00000000
,  // measure 63
00002003
00000000
00000000
00000000
,  // measure 64
00003020
00000000
00000000
00000000
,  // measure 65
00020030
00000000
00030000
00000000
,  // measure 66
00011000
00000000
00000000
00000000
,  // measure 67
01100000
00000000
00000000
00000000
,  // measure 68
10010000
00000000
01100000
00000000
,  // measure 69
00010000
00001000
00010000
00001000
,  // measure 70
00000200
00000000
00000000
00000000
,  // measure 71
00000000
00000000
00000000
00000000
,  // measure 72
00000000
00000000
00000300
00000000
,  // measure 73
00000001
00000000
00000001
00000000
;
