#TITLE:Everything;
#SUBTITLE:;
#ARTIST:kors k;
#TITLETRANSLIT:;
#SUBTITLETRANSLIT:;
#ARTISTTRANSLIT:;
#GENRE:;
#CREDIT:;
#BANNER:Everything.png;
#BACKGROUND:Everything-bg.png;
#LYRICSPATH:;
#CDTITLE:;
#MUSIC:Everything.ogg;
#OFFSET:-7.302470;
#SAMPLESTART:69.016998;
#SAMPLELENGTH:15.000000;
#SELECTABLE:YES;
#DISPLAYBPM:*;
#BPMS:0.000000=175.000000
;
#STOPS:
;
#BGCHANGES:;
#KEYSOUNDS:;
#ATTACKS:;

//---------------dance-single - ----------------
#NOTES:
     dance-single:
     :
     Hard:
     11:
     0.808253,0.971227,0.213770,0.527298,0.616369,794.000000,764.000000,30.000000,74.000000,0.000000,0.000000,0.808253,0.971227,0.213770,0.527298,0.616369,794.000000,764.000000,30.000000,74.000000,0.000000,0.000000:
// measure 0
0000
0000
0000
0000
,  // measure 1
1000
0100
0010
0001
0100
0010
1000
0100
,  // measure 2
1000
0001
0100
0001
0010
0100
1000
0100
,  // measure 3
0010
0001
1000
0010
0100
0010
1000
0010
,  // measure 4
1000
0001
0010
0001
1000
0100
0010
0001
,  // measure 5
2000
0000
3001
0200
0000
0310
1000
0002
,  // measure 6
0000
0013
0200
0000
0000
0000
1300
0000
,  // measure 7
0010
0000
1000
0002
0000
0103
0001
2000
,  // measure 8
0000
3001
0020
0000
0000
0000
0031
0000
,  // measure 9
1000
0000
0001
0001
0000
1000
2000
0000
,  // measure 10
0000
0000
3001
0000
0010
0100
1000
0000
,  // measure 11
0001
0100
1000
0100
0001
0010
1000
0020
,  // measure 12
0000
0000
0100
0130
,  // measure 13
1000
0000
0100
0000
1000
0000
0001
0100
0001
0010
0001
0000
0100
0000
0010
0000
,  // measure 14
1000
0000
0100
0000
0010
0000
0001
0000
1000
0010
1000
0010
1000
0000
0100
0000
,  // measure 15
1000
0000
0001
0000
0100
0000
0010
1000
0001
1000
0100
0000
0010
0000
0001
0000
,  // measure 16
0100
0000
0010
0000
1000
0000
0100
1000
0001
1000
0100
0000
0010
0001
0100
0001
,  // measure 17
1000
0000
0010
1000
0010
0000
0100
0000
0001
0010
0001
0010
0001
0000
0100
0000
,  // measure 18
0010
0000
1000
0001
0100
0001
1000
0000
0100
1000
0001
1000
0010
0000
0100
0001
,  // measure 19
1000
0000
0100
0000
1000
0010
1000
0000
0100
0000
0010
0001
0010
0000
0100
0000
,  // measure 20
1000
0000
0001
0000
0100
0000
0010
0100
0010
0000
1000
0010
0100
0001
0010
0100
,  // measure 21
2000
3002
0203
0310
,  // measure 22
1100
0101
1010
0011
,  // measure 23
0002
0023
0230
1300
,  // measure 24
0101
1010
0011
1100
,  // measure 25
0001
0100
0001
0100
0010
1000
0010
1000
,  // measure 26
0100
1000
0100
1000
0001
0010
0001
0010
,  // measure 27
0100
1000
0001
0100
0010
1000
0100
1000
0001
0100
0001
0010
0100
1000
0100
0010
,  // measure 28
0001
1000
0001
1000
0001
0000
1000
0000
0001
0100
0000
0110
0000
0000
1001
0000
,  // measure 29
0002
0000
0103
0000
2000
0000
3100
0000
0001
0000
1000
0010
0000
0010
0100
0000
,  // measure 30
0001
0000
0010
0000
0100
0000
1000
0001
0000
0001
1000
0000
0001
0010
0100
0000
,  // measure 31
1100
0000
0000
0000
0101
0000
0000
0000
0001
0000
0100
0010
0000
0010
0100
0000
,  // measure 32
0001
0000
0010
0100
1000
0001
1000
0100
0000
0100
1000
0001
0100
0010
1000
0000
,  // measure 33
0002
0000
0013
0000
2000
0000
3010
0000
0001
0000
0010
0100
0000
1000
0001
0000
,  // measure 34
0100
0000
0010
0000
1000
0000
0001
0100
0000
0010
0100
0000
0001
1000
0010
0000
,  // measure 35
1010
0000
0000
0000
0011
0000
0000
0000
1000
0000
0001
0100
0000
0100
0001
0000
,  // measure 36
1000
0000
0100
1000
0001
1000
0100
0010
0001
0000
0100
0010
0100
0001
0100
0010
,  // measure 37
2000
0000
3010
0000
0200
0000
0301
0000
1000
0000
0100
1000
0000
0001
0100
0000
,  // measure 38
0010
0000
1000
0000
0100
0000
0010
0001
0000
0010
0100
0000
1000
0000
0001
0100
,  // measure 39
0020
0000
0130
0000
0002
0000
0103
0000
0010
0000
1000
0100
0000
1000
0010
0000
,  // measure 40
0100
0000
0001
0000
0100
0000
0010
1000
0000
0100
1000
0000
0001
0100
0001
1000
,  // measure 41
0200
0000
0310
0000
0002
0000
1003
0000
0100
0000
1000
0010
0000
1000
0001
0000
,  // measure 42
0100
0000
0010
1000
0100
1000
0001
0100
0000
0010
0100
0000
0001
0010
0100
1000
,  // measure 43
0002
1003
0020
1030
0100
1000
0010
0100
,  // measure 44
0001
0100
0010
1000
0100
1000
0001
0010
0200
0000
0000
0000
0300
0000
0000
0000
,  // measure 45
2100
0000
0000
0001
3100
0000
0010
1000
0100
1000
0001
0000
1000
0000
0100
0000
,  // measure 46
0010
0001
1000
0020
0000
0100
0130
0000
,  // measure 47
0102
0000
0000
1003
0100
0000
1000
0001
0010
0100
1000
0000
0001
0000
0100
0000
,  // measure 48
0001
1000
0010
0200
0000
0001
0301
0000
,  // measure 49
0012
0000
0000
1000
0013
0000
0100
0001
1000
0000
0100
1000
0001
0000
0010
0000
,  // measure 50
1000
0010
0001
2000
0000
0010
3010
0000
,  // measure 51
2010
0000
0000
0001
3010
0000
0100
0000
1000
0000
0001
0000
0100
0000
0120
0000
,  // measure 52
0000
0100
0130
0000
1001
0000
0110
0000
,  // measure 53
0102
0000
1003
0010
0100
0000
0001
0010
0100
0000
1000
0100
0010
0000
0001
0100
,  // measure 54
0010
0000
1000
0001
1000
0100
1000
0001
0020
0000
0100
0030
2000
0000
3100
0000
,  // measure 55
2100
0000
3001
0010
0100
0000
1000
0001
0100
0000
0010
0000
1000
0100
1000
0001
,  // measure 56
1000
0000
0010
0100
0001
0000
0010
0000
0002
0000
0103
0000
0020
0000
1030
0000
,  // measure 57
2001
0000
0000
0000
3001
0000
1000
0100
1000
0001
1000
0100
1000
0000
0001
0000
,  // measure 58
1002
0000
0000
0000
1003
0000
0001
0100
0001
1000
0001
0100
0001
0000
1000
0000
,  // measure 59
2001
0000
0000
0000
3001
0010
0100
0000
1002
0000
0000
0000
1003
0010
0100
0000
,  // measure 60
0001
0000
0010
0000
0100
0000
1000
0000
0001
0010
0100
1000
0001
0100
0010
1000
,  // measure 61
0002
0000
0000
0000
,  // measure 62
2003
0000
0000
0000
,  // measure 63
3020
0000
0000
0000
,  // measure 64
0230
0000
0302
0000
,  // measure 65
0023
0000
0000
0000
,  // measure 66
0230
0000
0000
0000
,  // measure 67
2300
0000
0000
0000
,  // measure 68
3002
0000
2000
3003
,  // measure 69
1000
0100
1000
0001
1000
0100
1000
0001
,  // measure 70
1000
0010
1000
0001
1000
0010
1000
0001
,  // measure 71
0010
0001
1000
0001
0010
0001
1000
0001
,  // measure 72
0100
0001
1000
0001
0100
0001
1000
0001
,  // measure 73
0010
0001
0100
0001
0010
0001
0100
0001
,  // measure 74
0010
0100
1000
0100
0010
0100
1000
0100
,  // measure 75
0010
0001
0010
1000
0010
0001
0010
1000
,  // measure 76
0010
0001
0100
1000
0100
0001
0200
0000
,  // measure 77
0301
0000
0010
0000
0001
0000
1000
0010
1000
0001
1000
0000
0100
0000
1000
0000
,  // measure 78
0010
0000
0100
0000
0001
0000
0010
0100
1000
0100
0010
0000
0001
0000
0100
0000
,  // measure 79
0010
0000
1000
0000
0001
0000
0100
0001
1000
0100
1000
0000
0001
0000
0010
0000
,  // measure 80
0100
0000
1000
0000
0001
0000
1000
0010
0100
0001
0100
0000
0010
1000
0001
1000
,  // measure 81
0100
0000
0010
0000
0001
0000
0010
0100
0010
0001
0100
0000
0010
0000
1000
0000
,  // measure 82
0001
0000
1000
0000
0010
0000
1000
0100
1000
0010
0100
0000
0001
0000
0100
0000
,  // measure 83
0010
0000
1000
0000
0100
0010
0001
0010
0100
0000
1000
0000
0001
1000
0010
1000
,  // measure 84
0002
0000
0000
0000
2003
0000
0000
0000
3010
0100
0001
0100
0010
1000
0100
1000
,  // measure 85
0002
0000
0103
0000
0020
0000
1030
0000
0001
0100
0001
1000
0001
1000
0010
1000
,  // measure 86
0200
0000
0310
0000
0002
0000
0013
0000
0100
1000
0010
0100
0001
0100
0010
1000
,  // measure 87
0200
0000
1300
0000
0020
0000
1030
0000
0100
0010
0001
1000
0010
1000
0001
0010
,  // measure 88
0001
0010
0001
0010
0100
0010
0100
0010
0001
0100
0010
1000
0100
1000
0001
1000
,  // measure 89
0020
0000
1030
0000
0200
0000
0310
0000
0001
1000
0010
0100
0001
0010
0100
1000
,  // measure 90
0002
0000
1003
0000
0020
0000
0130
0000
0010
1000
0100
1000
0010
0100
0001
0010
,  // measure 91
0200
0000
0000
0000
0320
0000
0000
0000
0031
0100
0001
1000
0010
1000
0100
0010
,  // measure 92
0002
1003
1010
0101
,  // measure 93
2002
0000
0000
0000
,  // measure 94
3003
0000
0000
0000
;

//---------------dance-single - ----------------
#NOTES:
     dance-single:
     :
     Medium:
     9:
     0.563945,0.569340,0.149639,0.256524,0.049880,554.000000,533.000000,21.000000,36.000000,0.000000,0.000000,0.563945,0.569340,0.149639,0.256524,0.049880,554.000000,533.000000,21.000000,36.000000,0.000000,0.000000:
0000
0000
0000
0000
,
0001
0100
0001
1000
0000
1000
0000
0010
,
1000
0010
0100
0001
0000
0001
0000
0010
,
0100
0010
0001
1000
0000
1000
0000
0001
,
0100
0010
0100
0000
0001
0010
0100
1000
,
0002
0000
1003
0200
0000
0000
0310
0002
,
0000
2003
0000
0000
0000
0000
3000
0000
,
0020
0000
0130
0002
0000
0000
1003
0200
,
0000
2300
0000
0000
0000
0000
3000
0000
,
0001
0000
0010
0200
0000
0000
2300
0000
,
0000
3002
0000
0003
,
1000
0000
0010
0000
0100
0001
0000
0020
,
0000
0000
0000
0030
,
0100
1000
0001
1000
0100
1000
0000
0010
,
0100
0001
0100
0010
0000
1000
0001
0000
,
0001
0010
0100
1000
0000
1000
0010
0100
,
0001
0100
0000
0010
1000
0001
0010
0000
,
0100
1000
0100
1000
0001
0100
0001
0010
,
0000
0100
1000
0010
0100
0001
0000
0100
,
0010
1000
0100
0000
0010
0001
0100
0000
,
0010
1000
0100
0010
0001
0100
0010
1000
,
0002
2003
3020
0130
,
0101
0101
1100
1100
,
2000
3200
0320
0031
,
0011
0011
1010
1010
,
1000
0001
1000
0001
1000
0001
1000
0001
,
0100
0010
0100
0010
0100
0010
0100
0010
,
1000
0100
0010
0001
0100
0010
0100
0001
,
0010
0000
0100
0000
1000
0000
0001
0000
1000
0000
0000
1000
0000
0000
1000
0000
,
1010
0000
0000
0000
0101
0000
0000
0000
0001
0000
0000
0010
0000
0000
0100
0000
,
1000
0000
0000
0000
1000
0000
0000
0001
0000
0000
1000
0000
0010
0000
0001
0000
,
0010
0000
0000
0000
1010
0000
0000
0000
1000
0000
0000
0100
0000
0000
1000
0000
,
0001
0000
0000
0000
0100
0000
0000
0010
0000
0000
1000
0000
0010
0000
0100
0000
,
0001
1000
1100
0000
1000
0100
1000
0001
,
0100
0000
0010
0000
0100
0000
0000
0001
0000
0000
0010
0000
0100
0000
1000
0000
,
0001
1000
1010
0000
1000
0010
0100
0001
,
0020
0000
0000
0130
0000
0000
1000
0000
0020
0000
0000
0130
0000
0000
0001
0000
,
1000
0000
0100
0000
1000
0000
0001
0000
1000
0000
0000
0010
0000
0000
0100
0000
,
0001
0000
0100
0000
0010
0000
0000
1000
0000
0000
0100
0000
1000
0000
0001
0000
,
0010
0000
0001
0000
0101
0000
0000
0000
0010
0000
0000
1000
0000
0000
0001
0000
,
0100
0000
0001
0000
1000
0000
0000
0100
0000
0000
1000
0000
0001
0000
0010
0000
,
0001
0000
1000
0000
1001
0000
0000
0000
1000
0000
0000
0100
0000
0000
0010
0000
,
0001
0000
0100
0000
0010
0000
0000
1000
0000
0000
0100
0000
1000
0000
0001
0000
,
0100
0001
0100
0010
1000
0100
1000
0100
,
0010
0001
1000
0001
2000
0000
0000
0000
,
3001
0100
0001
0001
0000
1000
0010
0100
,
0000
0001
0010
1000
0010
0001
1000
0000
,
1000
0100
1000
1000
0000
0001
0010
0100
,
0000
1000
0010
0001
0010
1000
0001
0000
,
0100
0001
1000
0010
0000
1000
0100
1000
,
0000
0001
0010
0100
1000
0001
1000
0000
,
0010
1000
0001
0000
0010
0001
1000
0020
,
0000
0100
0130
0000
1001
0000
0110
0000
,
0001
0100
0001
0010
0100
1000
0100
0010
,
0001
1000
0010
0100
0001
0100
0010
1000
,
0100
0001
0100
1000
0010
1000
0100
0010
,
0001
0100
0001
0010
0100
1000
0001
0000
,
1100
0000
0001
0100
0001
0010
0001
0000
,
0101
0000
1000
0100
1000
0010
1000
0000
,
0001
0010
1000
0000
1000
0010
0001
0000
,
0001
0100
1000
0100
0001
0010
1000
0010
,
0002
0000
0000
0000
,
2003
0000
0000
0000
,
3200
0000
0000
0000
,
2300
0000
3020
0000
,
0230
0000
0000
0000
,
0302
0000
0000
0000
,
2003
0000
0000
0000
,
3002
0000
2000
3003
,
0001
0100
0001
0000
1000
0100
1000
0000
,
0001
0010
0001
0000
1000
0010
1000
0000
,
0001
1000
0001
0000
0100
0010
0100
0000
,
0010
1000
0100
0010
0001
0100
0010
0000
,
1000
0100
0001
0000
0001
0100
1000
0000
,
1000
0010
0001
0000
0001
0010
1000
0000
,
1000
0010
0100
0001
1000
0100
1000
0001
,
0010
0100
1000
0001
0100
0000
0110
0000
,
0001
0100
0001
0010
0001
1000
0100
0000
,
1000
0100
1000
0010
1000
0001
0100
0000
,
0010
1000
0001
0010
0100
1000
0001
0000
,
1000
0010
0001
0010
1000
0100
0001
0100
,
1000
0010
0100
0001
1000
0100
1000
0000
,
0001
0010
0100
1000
0001
0100
0001
0000
,
0010
0100
1000
0010
0100
0001
0010
0100
,
2000
0001
0001
3001
,
0001
0100
0001
1000
0100
1000
0010
0100
,
0001
0100
0010
1000
0100
1000
0001
0010
,
1000
0010
0001
0100
0010
1000
0100
1000
,
0001
0100
0001
0100
1000
0100
1000
0100
,
0001
0100
0010
1000
0100
1000
0001
0100
,
0001
0010
0100
1000
0100
0010
0001
1000
,
0010
0100
0001
0100
0010
1000
0100
0001
,
0200
0000
1000
1300
,
2002
0000
0000
0000
,
3003
0000
0000
0000
;

//---------------dance-single - ----------------
#NOTES:
     dance-single:
     :
     Beginner:
     3:
     0.197482,0.301415,0.042754,0.121136,0.000000,194.000000,188.000000,6.000000,17.000000,0.000000,0.000000,0.197482,0.301415,0.042754,0.121136,0.000000,194.000000,188.000000,6.000000,17.000000,0.000000,0.000000:
0000
0000
0000
0000
,
1000
0000
0000
0000
,
0001
0000
0000
0000
,
1000
0000
0000
0000
,
0001
0000
0000
0000
,
0100
0000
0000
0000
,
0100
0000
0000
0000
,
0010
0000
0000
0000
,
0010
0000
0000
0000
,
1000
0000
0000
0000
,
1000
0000
0000
0000
,
0001
0000
0000
0000
,
0001
0000
0000
0000
,
1000
0000
1000
0000
,
0100
0000
0100
0000
,
0010
0000
0010
0000
,
0001
0000
0001
0000
,
1000
0000
0001
0000
,
0100
0000
0010
0000
,
0100
0000
0001
0000
,
1000
0000
0100
0000
,
0020
0000
0000
0000
,
0000
0000
0000
0030
,
0002
0000
0000
0000
,
0000
0000
0000
0003
,
1001
0000
0001
0000
,
1001
0000
1000
0000
,
1001
0000
1001
0000
,
0100
0100
0200
0300
,
0010
0000
0010
0000
,
1000
0000
1000
0000
,
0001
0000
1000
0000
,
0100
0000
0100
0100
,
1000
0000
0001
0000
,
0100
0000
0001
0000
,
1000
0000
0100
0000
,
0010
0000
0001
0000
,
1000
1000
1000
0000
,
0001
0000
0001
0000
,
1000
1000
1000
0000
,
0010
0000
0010
0000
,
0100
0100
0100
0000
,
0001
0000
0010
0000
,
0100
0100
0010
0010
,
0200
0000
0000
0300
,
0001
0000
0001
0000
,
1000
0000
1000
0000
,
0001
0000
0001
0000
,
1000
0000
1000
0000
,
0010
0000
0010
0000
,
0100
0000
0100
0000
,
0010
0000
0010
0000
,
0020
0000
0000
0030
,
1000
1000
1000
1000
,
0001
0001
0001
0000
,
0001
0001
0001
0001
,
1000
1000
1000
0000
,
0020
0000
0130
0000
,
0200
0000
0310
0000
,
0002
0000
2003
0000
,
3020
0000
0000
0030
,
0200
0000
0000
0000
,
0000
0000
0000
0000
,
0000
0000
0000
0000
,
0000
0000
0000
0300
,
0020
0000
0000
0000
,
0000
0000
0000
0000
,
0000
0000
0000
0030
,
0100
0000
0110
0000
,
0001
0001
0001
0001
,
1000
1000
1000
1000
,
0001
0001
0001
0001
,
1000
1000
1000
1000
,
0010
0010
0010
0010
,
0100
0100
0100
0100
,
0010
0010
0010
0010
,
0020
0000
0000
0030
,
1000
0000
0100
0000
,
0001
0000
0100
0000
,
1000
0000
0100
0000
,
0010
0010
0010
0010
,
0001
0000
0010
0000
,
1000
0000
0010
0000
,
0001
0000
0010
0000
,
1000
1000
0002
0000
,
0103
0100
0001
0001
,
1000
1000
0100
0000
,
1000
1000
0001
0001
,
1000
1000
0010
0000
,
0100
0000
0001
1000
,
0001
0000
0010
0100
,
0010
0000
0100
0000
,
0020
0000
0000
0030
,
2002
0000
0000
0000
,
3003
0000
0000
0000
;

//---------------dance-single - ----------------
#NOTES:
     dance-single:
     :
     Easy:
     5:
     0.382749,0.468868,0.114010,0.178141,0.000000,376.000000,360.000000,16.000000,25.000000,0.000000,0.000000,0.382749,0.468868,0.114010,0.178141,0.000000,376.000000,360.000000,16.000000,25.000000,0.000000,0.000000:
0000
0000
0000
0000
,
0001
0000
0000
0001
0000
0001
0000
0000
,
1000
0000
0000
1000
0000
1000
0000
0000
,
0010
0000
0000
0010
0000
0010
0000
0000
,
0100
0001
1000
0010
,
0100
0000
0000
0001
0000
0000
1000
0000
,
0000
0010
0000
0000
0100
0000
0001
0000
,
1000
0000
0000
0100
0000
0000
0010
0000
,
0000
0001
0000
0000
0100
0000
0001
0000
,
0010
0000
0000
0100
0000
0000
1000
0000
,
0000
0001
0000
0000
1000
0000
0001
0000
,
0100
0100
0010
0010
,
2000
0000
0001
3001
,
1000
0100
1000
0001
,
1000
0010
1000
0001
,
0100
0001
1000
0001
,
0010
0001
0100
0001
,
1000
0100
0001
0100
,
1000
0010
0001
0010
,
1000
1000
0001
0001
,
1000
0010
0100
0001
,
2000
0001
0001
3001
,
0002
1003
2000
3001
,
0020
0100
0100
0130
,
0200
0310
0020
0130
,
1000
0100
0001
0010
,
1000
0100
0001
0010
,
1000
1000
0001
0001
,
0010
0000
0010
0000
0100
0010
0100
0000
,
1000
0100
1000
0100
,
0010
0000
0001
0000
0100
0001
0100
0000
,
0010
1000
0001
1000
,
0100
0000
1000
0000
0010
1000
0010
0000
,
1001
0100
0010
0100
,
0001
0000
1000
0000
0100
1000
0100
0000
,
0110
0010
0001
1000
,
0010
0100
0010
0000
1000
0001
1000
0000
,
0020
1000
0100
1030
,
0100
1000
0001
0000
0100
0001
1000
0000
,
0200
0010
0001
0310
,
0001
1000
0100
0000
1000
0001
0100
0000
,
1010
0100
0001
1000
,
0011
0100
1000
0001
,
1001
1000
1001
0110
,
2002
0000
0000
3003
,
0001
0000
0100
0001
0000
1000
0100
0000
,
0010
0001
1000
0001
,
0100
0000
0010
1000
0000
0001
0100
0000
,
0010
1000
0100
1000
,
0001
0000
0010
0100
0000
1000
0100
0000
,
0010
0001
1000
0001
,
0100
0000
0100
0000
0010
0100
0000
0020
,
0000
0000
0100
0130
,
0001
0100
1000
0100
,
0001
0000
1000
0000
0001
1000
0001
0000
,
1000
0100
0001
0100
,
1000
0000
0001
0000
1000
0001
1000
0000
,
1010
0010
1000
0001
,
0011
0010
0001
1000
,
1100
0001
0101
1000
,
0010
0000
0100
0000
0001
1000
0001
1000
,
0002
0000
0000
0000
,
2003
0000
0000
0000
,
3020
0000
0000
0000
,
0230
0000
0000
0000
,
0302
0000
0000
0000
,
0023
0000
0000
0000
,
0230
0000
0000
0000
,
2300
0000
0002
3003
,
0001
0001
0001
0001
,
1000
1000
1000
1000
,
0100
0100
0100
0100
,
0010
0010
0010
0010
,
0001
0100
0001
0010
,
0100
1000
0100
0010
,
0001
1000
0010
0100
,
0001
1000
0001
0000
1001
0000
0000
0000
,
0001
0000
1000
0000
0010
1000
0010
0000
,
1000
0000
0100
0000
0010
0001
0010
0000
,
0100
0000
1000
0000
0001
0100
0001
0000
,
0010
0000
0100
0000
1000
0100
1000
0000
,
0001
0000
0100
0000
0010
0100
0010
0000
,
1000
0000
0001
0000
1000
0001
1000
0000
,
0100
0000
0010
0000
0100
0010
0100
0000
,
0010
0002
1000
1003
,
0001
0000
0100
0000
0010
1000
0010
0000
,
1000
0000
0001
0000
1000
0100
1000
0000
,
0010
0000
0100
0000
0001
0100
0001
0000
,
1000
0001
1001
1001
,
0010
1000
0010
0000
1000
0100
1000
0000
,
0001
0010
0001
0000
0100
0001
0100
0000
,
0010
0010
0100
0100
,
0020
0000
0000
0030
,
2002
0000
0000
0000
,
3003
0000
0000
0000
;

//---------------dance-double - ----------------
#NOTES:
     dance-double:
     :
     Medium:
     9:
     0.533406,0.569340,0.121136,0.156764,0.057005,524.000000,507.000000,17.000000,22.000000,0.000000,0.000000,0.533406,0.569340,0.121136,0.156764,0.057005,524.000000,507.000000,17.000000,22.000000,0.000000,0.000000:
00000000
00000000
00000000
00000000
,
00010000
00000000
00000100
00010000
00000000
00001000
01000000
00010000
,
10000000
00000000
00100000
10000000
00000000
00100000
01000000
00010000
,
00100000
00000000
00001000
00100000
00000000
00001000
00010000
00000100
,
00001000
00000001
00000100
00000000
00000001
00000010
00001000
00010000
,
00200000
00000000
20300000
00000000
,
32000000
00000000
00000000
00000000
,
03020000
00000000
00032000
00000000
,
00003020
00000000
00000000
00000000
,
00000031
00000000
00000100
00000020
00000000
00000000
00020030
00000000
,
00000000
00032000
00000000
00003000
,
00000000
00100000
00010000
00000000
10000000
01000000
00000000
00020000
,
00000000
00000000
00000000
00030000
,
00001000
00010000
00000010
00010000
00001000
00010000
00000100
00000000
,
00000010
00000001
00001000
00000001
00000100
00000001
00001000
00000000
,
00000100
00010000
00001000
00100000
00001000
00010000
00000100
00000000
,
00010000
00001000
00100000
00001000
00010000
00001000
01000000
00000000
,
00100000
10000000
00100000
10000000
00010000
01000000
00010000
00100000
,
00001000
00010000
00000100
00010000
00001000
00000010
00000001
00000100
,
00000001
00001000
00000010
00001000
00000010
00010000
00001000
01000000
,
00100000
10000000
01000000
00100000
00010000
01000000
00100000
10000000
,
00010000
00010000
00010000
00010000
,
00100000
00100000
00100000
00100000
,
00001000
00001000
00001000
00001000
,
00010000
00010000
00010000
00010000
,
00000100
00000010
00000100
00000010
00000100
00000010
00000100
00000010
,
00000001
00001000
00000001
00001000
00000001
00001000
00000001
00001000
,
00000100
00010000
00001000
00100000
00010000
10000000
00010000
00100000
,
01000000
10000000
00010000
10000000
00100000
00000000
10010000
00000000
,
10100000
00000000
00000000
00000000
01010000
00000000
00000000
00000000
10000000
00000000
00000000
00100000
00000000
00000000
00010000
00000000
,
00001000
00000000
00000000
00000000
00000010
00000000
00000000
00000100
00000000
00000100
00000000
00000000
00001000
00000000
00000001
00000000
,
00000011
00000000
00000000
00000000
00001100
00000000
00000000
00000000
00000001
00000000
00000000
00000010
00000000
00000000
00001000
00000000
,
00010000
00000000
00000000
00000000
00100000
00000000
00000000
01000000
00000000
01000000
00000000
00000000
00010000
00000000
10000000
00000000
,
11000000
00000000
00000000
00000000
00110000
00000000
00000000
00000000
10000000
00000000
00000000
01000000
00000000
00000000
00010000
00000000
,
00001000
00000000
00000000
00000000
00000100
00000000
00000000
00000010
00000000
00000010
00000000
00000000
00001000
00000000
00000001
00000000
,
00000101
00000000
00000000
00000000
00001010
00000000
00000000
00000000
00000001
00000000
00000000
00000100
00000000
00000000
00001000
00000000
,
00010000
00000000
00000000
00100000
00000000
00000000
10000000
00000000
00000000
00000000
00010000
00000000
00000000
00000000
01000000
00000000
,
00100000
00000000
10000000
00000000
00010000
00000000
00000000
00000000
00100000
00000000
00000000
00001000
00000000
00000000
00010000
00000000
,
00000100
00000000
00000110
00000000
00001000
00000100
00000010
00000001
,
00000100
00000000
00000001
00000000
00001000
00000000
00000000
00000000
00000100
00000000
00000000
00010000
00000000
00000000
00001000
00000000
,
01000000
00000000
00000000
00000000
01100000
00000000
00000000
00010000
00000000
00000000
00100000
00000000
00010000
00000000
10000000
00000000
,
01000000
00000000
10000000
00000000
00010000
00000000
00000000
00000000
01000000
00000000
00000000
00001000
00000000
00000000
00010000
00000000
,
00000010
00000000
00000110
00000000
00001000
00000010
00000100
00000001
,
00000010
00000000
00000001
00000000
00001000
00000000
00000000
00000000
00000010
00000000
00000000
00010000
00000000
00000000
00001000
00000000
,
00200000
00000000
01300000
00000000
,
10000000
01000000
10000000
00010000
01000000
00001000
00010000
00000100
,
00001000
00000001
00000100
00000010
00001000
00000100
00000010
00000000
,
00000001
00000100
00000010
00001000
00000001
00000010
00000100
00010000
,
00001000
00100000
00010000
01000000
10000000
01000000
00010000
00000000
,
00100000
00000000
10010000
00000000
10000000
01000000
00010000
00000000
,
00001000
00000000
00011000
00000000
00010000
00001000
00000010
00000000
,
00000001
00000100
00001000
00000010
,
00000002
00000000
00001000
00001003
,
00000001
00000100
00000001
00001000
00000100
00010000
00001000
01000000
,
00010000
10000000
01000000
00100000
00010000
01000000
00100000
00000000
,
10000000
01000000
00100000
00010000
10000000
00100000
01000000
00001000
,
00010000
00000010
00001000
00000100
00000001
00000100
00001000
00000000
,
00000101
00000000
00001000
00000100
00001000
00000010
00001000
00000000
,
00010100
00000000
00001000
01000000
00001000
00100000
00001000
00000000
,
00010000
00100000
10000000
00000000
10000000
00100000
00010000
00000000
,
00001000
00000100
00000001
00000100
00001000
00010000
01000000
10000000
,
00020000
00000000
00000000
00000000
,
20030000
00000000
00000000
00000000
,
32000000
00000000
00000000
00000000
,
03020000
00000000
00000000
00000000
,
00032000
00000000
00000000
00000000
,
00003200
00000000
00000000
00000000
,
00000302
00000000
00000000
00000000
,
00002003
00000000
00000000
00000000
,
00003001
00000001
00000100
00000100
,
00001000
00001000
00010000
00010000
,
01000000
01000000
10000000
10000000
,
00100000
00100000
00010000
00010000
,
00001000
00000010
00000001
00000000
00000001
00000010
00001000
00000000
,
00010000
00100000
10000000
00000000
10000000
00100000
00010000
00000000
,
00001000
00100000
00001000
00010000
00000010
00001000
00000001
00000100
,
00000010
00001000
00000001
00000100
00001000
00010000
01000000
10000000
,
00010000
00000000
10000000
01000000
10000000
00100000
10000000
01000000
,
00010000
00000000
00001000
00100000
00001000
00010000
00000010
00010000
,
00001000
00000000
00010000
00000100
00000010
00000001
00001000
00000010
,
00010000
00001000
00100000
00010000
10000000
01000000
00010000
00001000
,
00000100
00000000
00000001
00000100
00000001
00000010
00000001
00000100
,
00001000
00000000
00010000
00000010
00010000
00001000
00100000
00001000
,
00010000
00000000
00001000
01000000
00100000
10000000
00010000
00100000
,
00001000
00010000
00000010
00001000
00000001
00000100
00001000
00010000
,
01000000
00000000
10000000
00100000
10000000
00010000
00100000
00001000
,
00010000
00001000
01000000
00001000
00010000
00000100
00010000
00001000
,
00000010
00000001
00001000
00000001
00000100
00000001
00001000
00000100
,
00010000
00001000
00100000
00010000
01000000
10000000
01000000
00010000
,
10000000
01000000
00100000
00010000
01000000
00100000
00010000
00001000
,
00000010
00000001
00001000
00000010
00001000
00000001
00000100
00001000
,
00010000
00000100
00010000
00001000
01000000
00001000
00010000
00100000
,
10000000
01000000
00010000
00001000
,
00022000
00000000
00000000
00000000
,
00033000
00000000
00000000
00000000
;

//---------------dance-double - ----------------
#NOTES:
     dance-double:
     :
     Hard:
     11:
     0.814360,1.105189,0.092634,0.178141,0.659123,800.000000,787.000000,13.000000,25.000000,0.000000,0.000000,0.814360,1.105189,0.092634,0.178141,0.659123,800.000000,787.000000,13.000000,25.000000,0.000000,0.000000:
00000000
00000000
00000000
00000000
,
10000000
01000000
00100000
00010000
00000000
00010000
01000000
00010000
,
00100000
00001000
00010000
00001000
00000000
00001000
00000100
00000001
,
00000010
00000001
00000100
00001000
00000000
00001000
00010000
00100000
,
00001000
00100000
01000000
00100000
10000000
01000000
00010000
00001000
,
00000200
00000000
00000301
00002000
00000000
00003010
00010000
00002000
,
00000000
00203000
00000000
00000000
00000000
00000000
00310000
10000000
,
02000000
00000000
13000000
00020000
00000000
00130000
00001000
00020000
,
00000000
00030020
00000000
00000000
00000000
00000000
00000000
00000000
,
00001030
00000000
00000001
00000100
00000010
00010000
00002000
00000000
,
00000000
00203000
00000000
00000000
,
00310000
01000000
10000000
01000000
00010000
00100000
00001000
00010000
,
00000200
00000000
00000010
00000310
,
00000001
00000100
00000001
00000010
00001000
00010000
00000100
00000010
,
00000100
00010000
00001000
00100000
00010000
01000000
10000000
01000000
,
00010000
00100000
00001000
00000100
00001000
00010000
00000010
00000001
,
00001000
00000100
00000001
00000010
00000001
00000100
00001000
00010000
,
01000000
10000000
00010000
00100000
01000000
00100000
00001000
00010000
,
00000100
00000010
00000001
00000100
00001000
00000100
00000010
00010000
,
00010000
01000000
10000000
00100000
00010000
00001000
00000010
00001000
,
00010000
01000000
10000000
00100000
00010000
00001000
00000100
00000010
,
00010000
00010000
00010000
00010000
,
00001000
00001000
00001000
00001000
,
00100000
00100000
00100000
00100000
,
00010000
00010000
00010000
00010000
,
10000000
00100000
10000000
00100000
01000000
00010000
01000000
00010000
,
00100000
00001000
00100000
00001000
00010000
00000100
00010000
00000100
,
00001000
00000010
00000100
00000001
00000010
00000100
00001000
00000001
00000100
00000001
00001000
00000100
00010000
00001000
01000000
00010000
,
00100000
00010000
01000000
00100000
10000000
01000000
00100000
00010000
10000000
01000000
00000000
00010000
00001000
00000000
00010000
00000000
,
00000100
00000000
00000001
00000000
00000100
00000000
00001000
00000000
00000010
00000000
00000000
00010000
00000000
00000000
00001000
00100000
,
00010000
00000000
10000000
00000000
01000000
00000000
00010000
00001000
00000000
00001000
00000100
00000000
00010000
00000000
00100000
00001000
,
00010000
00000000
01000000
00000000
10000000
00000000
00000000
00000000
11000000
00000000
00000000
01010000
00000000
00000000
00011000
00000000
,
00001000
00000000
00100000
01000000
00100000
00000000
00001000
00010000
00000100
00010000
00001000
00000000
00000100
00000000
00000001
00000100
,
00000010
00000000
00000001
00000000
00000010
00000000
00001000
00000000
00000100
00000000
00000000
00010000
00000000
00000000
00001000
01000000
,
00010000
00000000
10000000
00000000
00100000
00000000
00010000
00001000
00000000
00001000
00000010
00000000
00010000
00000000
01000000
00001000
,
00010000
00000000
00100000
00000000
10000000
00000000
00000000
00000000
10100000
00000000
00000000
00110000
00000000
00000000
00011000
00000000
,
00001000
00000000
00000100
00000001
00000100
00000000
00001000
00010000
01000000
00000000
10000000
00010000
10000000
00000000
00100000
00000000
,
01000000
00000000
10000000
00000000
01000000
00000000
00010000
00000000
00100000
00000000
00000000
00001000
00000000
00000000
00010000
00000010
,
00001000
00000000
00000001
00000000
00000100
00000000
00001000
00010000
00000000
00010000
01000000
00000000
00001000
00000000
00000010
00010000
,
00001000
00000000
00000100
00000000
00000001
00000000
00000000
00000000
00000101
00000000
00000000
00001100
00000000
00000000
00011000
00000000
,
00010000
00000000
00000010
00000100
00000010
00000000
00010000
00001000
01000000
00001000
00010000
00000000
01000000
00000000
10000000
01000000
,
00100000
00000000
10000000
00000000
00100000
00000000
00010000
00000000
01000000
00000000
00000000
00001000
00000000
00000000
00010000
00000100
,
00001000
00000000
00000001
00000000
00000010
00000000
00001000
00010000
00000000
00010000
00100000
00000000
00001000
00000000
00000100
00010000
,
00001000
00000000
00000010
00000000
00000001
00000000
00000000
00000000
00000011
00000000
00000000
00001010
00000000
00000000
00011000
00000000
,
00010000
00001000
01000000
00100000
10000000
01000000
00100000
00010000
02000000
00000000
00000000
00000000
03000000
00000000
00000000
00000000
,
01010000
00000000
00010000
10000000
01000000
00000000
00010000
00000100
00000010
00000100
00000001
00000000
00001000
00000000
00000010
00000000
,
00000001
00000100
00010000
00001000
00000010
00000001
00000010
00010000
,
00000100
00000000
00001000
00000001
00000100
00000000
00001000
01000000
00100000
01000000
10000000
00000000
00010000
00000000
00100000
00000000
,
10000000
01000000
00001000
00010000
00100000
10000000
00100000
00010000
,
10000000
00000000
01000000
10000000
00010000
00000000
00100000
00010000
01000000
00000000
00001000
00010000
00000010
00000000
00001000
00000001
,
00000100
00000000
00001000
00010000
00000100
00000000
00000010
00000001
00000100
00000000
00001000
00000000
00010000
00000000
01000000
00000000
,
10000000
00000000
00100000
10000000
00010000
00000000
01000000
00010000
00100000
00000000
00001000
00010000
00000100
00000000
00001000
00000001
,
00000010
00000000
00001000
00010000
00000010
00000000
00000100
00000001
00000010
00000000
00001000
00000000
00010000
00000000
00100000
00000000
,
10000000
00000000
00010000
00100000
01000000
00000000
10000000
00100000
01000000
00000000
00010000
00100000
00001000
00000000
00000100
00000001
,
00001000
00000000
00000010
00010000
00001000
00000000
00000100
00000001
00000000
00000100
00001000
00000000
00010000
00000000
00001000
00000010
,
00000001
00000000
00001000
00000010
00000100
00000000
00000001
00000010
00000100
00000000
00001000
00000010
00010000
00000000
01000000
10000000
,
00010000
00000000
00100000
00001000
00010000
00000000
01000000
10000000
00000000
01000000
00010000
00000000
00001000
00000000
00010000
00100000
,
10000000
00000000
01000000
00000000
00100000
00000000
00010000
01000000
00001000
01000000
00010000
01000000
00001000
00000000
00010000
00000000
,
00000100
00000000
00000010
00000000
00000001
00000000
00001000
00000100
00010000
00000100
00001000
00000100
00010000
00000000
00001000
00100000
,
00010000
01000000
00010000
10000000
01000000
10000000
00010000
00100000
00010000
00100000
00001000
00010000
00001000
00010000
00000010
00001000
,
00000010
00001000
00000001
00000100
00000010
00010000
00000010
00001000
00000001
00001000
00000100
00010000
00001000
01000000
00100000
10000000
,
00020000
00000000
00000000
00000000
,
20030000
00000000
00000000
00000000
,
30200000
00000000
00000000
00000000
,
00320000
00000000
00032000
00000000
,
00003020
00000000
00000000
00000000
,
00000230
00000000
00000000
00000000
,
00002300
00000000
00000000
00000000
,
00003002
00000000
00002000
00003003
,
00000001
00000010
00000001
00001000
00000001
00000010
00000001
00001000
,
00000100
00010000
00000100
00001000
00000100
00010000
00000100
00001000
,
00010000
00100000
00001000
00100000
00010000
00100000
00001000
00100000
,
00010000
10000000
01000000
10000000
00010000
10000000
01000000
10000000
,
00100000
10000000
00100000
00010000
00100000
10000000
00100000
00010000
,
00001000
00000010
00000001
00000010
00001000
00000010
00000001
00000100
,
00010000
01000000
00010000
00000100
00010000
01000000
00010000
00000100
,
00001000
00100000
00001000
00000010
00001000
00100000
00001000
00000010
,
00001000
00000000
00100000
00000000
00001000
00010000
00100000
00000000
00010000
00100000
01000000
00000000
00100000
01000000
10000000
00000000
,
01000000
00000000
00001000
00000000
00010000
00001000
00000100
00000000
00001000
00000100
00000010
00000000
00000100
00000010
00000001
00000000
,
00000010
00000000
00010000
00000000
00001000
00010000
01000000
00000000
00010000
01000000
00100000
00000000
01000000
00100000
10000000
00000000
,
00100000
00010000
10000000
00100000
01000000
00010000
00100000
00001000
00010000
00000100
00001000
00000010
00000100
00000001
00000010
00001000
,
00010000
00000000
00000010
00000000
00010000
00001000
00000010
00000000
00001000
00000010
00000100
00000000
00000010
00000100
00000001
00000000
,
00000100
00000000
00010000
00000000
00001000
00010000
00100000
00000000
00010000
00100000
01000000
00000000
00100000
01000000
10000000
00000000
,
01000000
00000000
00001000
00000000
00010000
00001000
00000100
00000000
00001000
00000100
00000010
00000000
00000100
00000010
00000001
00000000
,
00000010
00001000
00000001
00000010
00000100
00001000
00000010
00010000
00001000
01000000
00010000
00100000
01000000
10000000
00100000
00010000
,
00001000
00000000
00000100
00000000
00000001
00001000
00000001
00000000
00000100
00000010
00010000
00000010
00010000
00001000
00100000
00001000
,
00010000
00000000
01000000
00000000
10000000
00010000
10000000
00000000
01000000
00100000
00001000
00100000
00001000
00010000
00000010
00010000
,
00001000
00000000
00000010
00000000
00000001
00001000
00000001
00000000
00000010
00000100
00010000
00000100
00010000
00001000
01000000
00001000
,
00010000
00001000
01000000
00010000
10000000
00100000
10000000
00010000
01000000
00001000
00010000
00000100
00001000
00000001
00000010
00000001
,
00001000
00000000
00000100
00000000
00010000
00001000
00010000
00000000
00100000
10000000
00010000
00100000
01000000
10000000
00100000
01000000
,
00010000
00000000
01000000
00000000
00001000
00010000
00001000
00000000
00000010
00000001
00001000
00000010
00000100
00000001
00000010
00000100
,
00002000
00000000
00023000
00000000
00130000
01000000
10000000
00010000
,
00100000
00001000
00100000
00001000
00010000
00000100
00010000
00000100
00001000
00000010
00001000
00000010
00000100
00000001
00000100
00000001
,
00000020
00000000
00000000
00000000
,
00000030
00000000
00000000
00000000
;

//---------------dance-double - ----------------
#NOTES:
     dance-double:
     :
     Easy:
     5:
     0.349157,0.468868,0.049880,0.192393,0.000000,343.000000,336.000000,7.000000,27.000000,0.000000,0.000000,0.349157,0.468868,0.049880,0.192393,0.000000,343.000000,336.000000,7.000000,27.000000,0.000000,0.000000:
00000000
00000000
00000000
00000000
,
00000001
00000000
00000000
00000001
00000000
00000001
00000000
00000000
,
00001000
00000000
00000000
00001000
00000000
00001000
00000000
00000000
,
00000010
00000000
00000000
00000010
00000000
00000010
00000000
00000000
,
00010000
00001000
01000000
00010000
,
20000000
00000000
00000000
00000000
,
00000000
00000000
00000000
00000000
,
30020000
00000000
00000000
00000000
,
00000000
00000000
00000000
00000000
,
00230000
00000000
00000000
00000000
,
00000000
00000000
00000000
00000000
,
00302000
00000000
00000000
00000000
,
00000000
00000000
00000000
00000000
,
00013000
00000100
00010000
00000010
,
00001000
00000001
00000100
00000001
,
00001000
00000010
00001000
00000100
,
00010000
00001000
01000000
00001000
,
00010000
00100000
10000000
00100000
,
00010000
00001000
00000100
00000001
,
00000100
00001000
00000001
00000010
,
00000100
00010000
00001000
00100000
,
00020000
10000000
10000000
10030000
,
01000000
00010000
00001000
00000100
,
00000002
00001000
00001000
00001003
,
00000010
00010000
00001000
01000000
,
00010000
10000000
00100000
00010000
,
00001000
00000100
00000001
00000010
,
00000001
00000001
00001000
00001000
,
00000010
00000010
00020000
00000000
,
00031000
01000000
00001000
01000000
,
00100000
00000000
10000000
00000000
01000000
10000000
01000000
00000000
,
00100000
00010000
10000000
00010000
,
01000000
00000000
00001000
00000000
00010000
00000100
00010000
00000000
,
00000010
00001000
00000001
00000100
,
00001000
00000000
00010000
00000000
00000100
00010000
00000100
00000000
,
00000110
00000010
00000001
00001000
,
00000100
00010000
00000100
00000000
00010000
00001000
00010000
00000000
,
00200000
10000000
01000000
10300000
,
00100000
10000000
00010000
00000000
00100000
00000000
00001000
00000000
,
00020000
00000100
00001000
00030100
,
00010000
00000010
00001000
00000000
00000010
00000100
00000001
00000000
,
00000020
00000001
00000100
00000031
,
00000010
00000001
00001000
00000000
00000010
00000000
00010000
00000000
,
00002000
01000000
00010000
01003000
,
00022000
00000000
00000000
00033000
,
00100000
00000000
10000000
00100000
00000000
10000000
00010000
00000000
,
00100000
00001000
00010000
00000010
,
00000100
00000000
00000001
00000100
00000000
00000001
00001000
00000000
,
00000100
00010000
00001000
00100000
,
01000000
00000000
10000000
00010000
10000000
00000000
00100000
00000000
,
00010000
00001000
00000010
00000001
,
00000100
00000000
00000001
00000000
00001000
00000100
00000000
00000020
,
00000000
00000000
00000100
00000130
,
00000010
00000000
00000001
00000010
00000000
00000001
00001000
00000000
,
00000010
00010000
00001000
00100000
,
01000000
00000000
10000000
01000000
00000000
10000000
00010000
00000000
,
01000000
00001000
00010000
00000010
,
00000100
00000000
00000001
00001000
00000001
00000000
00000010
00000000
,
00001000
00010000
00100000
10000000
,
11000000
00010000
01010000
10000000
,
00100000
00010000
00001000
00000100
,
00000002
00000000
00000000
00000000
,
00002003
00000000
00000000
00000000
,
00003020
00000000
00000000
00000000
,
00000230
00000000
00000000
00000000
,
00002300
00000000
00000000
00000000
,
00023000
00000000
00000000
00000000
,
02030000
00000000
00000000
00000000
,
23000000
00000000
00020000
30030000
,
10000000
10000000
10000000
10000000
,
00010000
00010000
00010000
00010000
,
01000000
01000000
01000000
01000000
,
00001000
00001000
00001000
00001000
,
00010000
00000100
00010000
00001000
,
00000100
00000001
00000010
00000001
,
00000100
00001000
00010000
01000000
,
10000000
00100000
10000000
01000000
,
10000000
00000000
00010000
00000000
00100000
00001000
00100000
00000000
,
00001000
00000000
00010000
00000000
00000100
00000010
00000100
00000000
,
00001000
00000000
00000001
00000000
00000010
00000100
00000010
00000000
,
00000100
00000000
00010000
00000000
00001000
00100000
00001000
00000000
,
01000000
00000000
00010000
00000000
10000000
00100000
10000000
00000000
,
00010000
00000000
00100000
00000000
00001000
00010000
00001000
00000000
,
00000100
00000000
00000001
00000000
00000010
00000100
00000010
00000000
,
00000100
00002000
00000001
00003001
,
00001000
00000000
00000100
00000000
00010000
00001000
00010000
00000000
,
01000000
00000000
00100000
00000000
00010000
10000000
00010000
00000000
,
01000000
00000000
00001000
00000000
00010000
00000100
00010000
00000000
,
00000010
00001000
00001001
00001001
,
00000010
00000001
00000010
00000000
00000001
00000100
00000001
00000000
,
00001000
00000010
00001000
00000000
00000100
00010000
00000100
00000000
,
00010000
00010000
00001000
00001000
,
00200000
00000000
00000000
00300000
,
20020000
00000000
00000000
00000000
,
30030000
00000000
00000000
00000000
;
