#TITLE:FLOWER;
#SUBTITLE:REDALiCE Remix;
#ARTIST:DJ YOSHITAKA, Remixed by REDALiCE;
#MUSIC:FLOWER REDALiCE Remix.ogg;
#BANNER:FLOWER REDALiCE Remix.png;
#BACKGROUND:FLOWER REDALiCE Remix-bg.png;
#CDTITLE:./CDTITLES/SOUND VOLTEX BOOTH.PNG;
#SAMPLESTART:53.420;
#SAMPLELENGTH:15.000;
#OFFSET:-0.041;
#BPMS:0.000=180.000;
#STOPS:156.000=0.667,290.000=0.667;

//--------------- dance-single - B. M'Rey ----------------
#NOTES:
     dance-single:
     B. M'Rey:
     Beginner:
     5:
     0,0,0,0,0:
0000
0000
0000
0000
,
0000
0000
0000
0000
,
0000
0000
0000
0000
,
1000
0000
0001
0000
,
0100
0100
0100
0000
,
0010
0000
1000
0000
,
0001
0000
1000
0001
,
0010
0000
0100
0000
,
1001
1001
0000
0000
,
0010
0000
0100
0000
,
0010
0000
1001
0110
,
0001
0000
1000
0000
,
1010
1010
0000
0000
,
0220
0000
0000
0000
,
0000
0000
0000
0330
,
0001
0000
1000
0000
,
0010
0000
0100
0000
,
0010
0000
1000
0000
,
0001
0000
0010
0000
,
0001
0000
0100
0000
,
0010
0000
1000
0000
,
0100
0000
1000
0000
,
1001
0000
1001
0000
,
0010
0000
0100
0000
,
0010
0000
1000
0000
,
0001
0000
0010
0000
,
0001
0000
0100
0000
,
0101
0000
0010
0000
,
1010
0000
0100
0000
,
0110
0000
1001
0000
,
0010
0000
0100
0000
,
0001
0000
0000
0000
,
1000
0000
0010
0000
,
0100
0000
0000
0000
,
0010
0000
1000
0000
,
0001
0000
0000
0000
,
0100
0000
0010
0000
,
1000
0000
1000
0000
,
0001
1000
0001
1000
,
0001
1001
0010
0000
,
0100
0000
0001
0010
,
1000
0000
0100
0000
,
0010
0000
1001
0000
,
0101
0000
0010
0000
,
1000
0100
0010
0000
,
0001
0000
1000
0000
,
0010
0000
0001
1000
,
0000
0001
1000
0000
,
0010
0000
0100
0000
,
1000
0000
0001
0000
,
0010
0000
0101
0000
,
1010
0000
0100
0000
,
0010
0000
1000
0100
,
0010
0000
0001
0000
,
0010
0000
0001
0000
,
1000
0000
0020
0000
,
0000
0000
0000
0000
,
0000
0000
0130
0000
,
1000
0000
0001
0000
,
1000
0001
0010
0000
,
0100
0000
1001
1001
,
0000
0000
0010
0000
,
0100
0000
0010
0000
,
1001
0110
0001
0000
,
1000
0000
1010
1010
,
0000
0000
0110
0000
,
0000
0000
0001
0000
,
0000
0000
0100
0000
,
0000
0000
1000
0000
,
0000
0000
0010
0000
,
1000
0000
0001
0000
,
0010
0000
0001
0000
,
0100
0000
0010
1001
,
0010
0000
0100
0000
,
0001
0010
1000
0000
,
0100
0000
0010
0000
,
1001
0000
0101
0000
,
0010
0000
1000
0100
,
0010
0000
0001
0000
,
1000
0000
0010
0000
,
0001
1000
0000
0001
,
2000
0000
0000
0000
,
3100
0000
1000
0000
,
0002
0000
0000
0000
,
0103
0000
1000
0000
,
0200
0000
0000
0000
,
1300
0000
0010
0000
,
0002
0000
0000
0000
,
0023
0000
0000
0000
,
0030
0000
0000
0000
;

//--------------- dance-single - B. M'Rey ----------------
#NOTES:
     dance-single:
     B. M'Rey:
     Easy:
     9:
     0,0,0,0,0:
0000
0000
0000
0000
,
0000
0000
0000
0000
,
0000
0000
0000
0000
,
0010
1000
0001
0100
,
0010
0100
1001
0000
,
0010
0100
0001
1000
,
0001
0100
0001
0100
,
0010
0100
0001
1000
,
1010
0000
1001
0000
0001
0010
0000
0000
,
0100
0010
0001
0010
,
0100
0000
1000
0100
0010
0000
0010
0000
,
0001
1000
0010
0100
,
0101
0000
0101
0000
0001
0100
0000
0001
,
0020
0000
0000
0000
,
0000
0000
0000
0000
,
0031
0010
0100
0000
,
0010
1000
0100
0000
,
0001
0000
0010
0000
0001
0000
0100
0001
,
0000
0100
0000
0010
0000
0100
0000
1000
,
0001
0010
0001
0000
,
0010
0100
0001
0000
,
0010
1000
0100
0000
,
1100
0000
1010
0000
,
0002
0000
0000
0023
0000
0000
2030
0000
,
3010
0100
0010
0000
,
0010
0000
1000
0000
0100
0000
0010
0001
,
0000
0100
0000
0001
0000
1000
0000
1000
,
0001
1000
0001
0000
,
0010
1000
0010
0000
,
0001
0100
0010
0000
,
0001
0010
0100
0000
,
0110
0000
0000
1010
,
0100
0010
0100
1000
,
1010
0000
0000
1001
,
0100
0010
0100
1000
,
0101
0000
0000
1010
,
0001
0100
0001
1000
,
0010
0000
0000
0010
0000
0000
1000
0000
,
0100
0000
0000
0010
0000
0000
0001
0000
0000
0010
0000
0000
0100
0000
0020
0000
,
0000
0030
0000
0000
0000
0000
0110
0000
0000
0000
0000
0000
0001
0000
0000
0000
0000
0000
0100
0000
0000
0000
0000
0000
,
0001
0100
0010
1000
,
0100
0010
0100
1000
,
0100
0010
0001
0000
,
0001
0000
0100
1000
,
0100
0010
0100
0010
,
0001
1000
0001
0100
,
0010
0000
0000
0000
1000
0000
0000
0000
1001
0000
0000
1001
0000
0000
0000
0000
,
0110
0000
0000
0110
0000
0000
0000
0000
0100
0000
0000
0000
0010
0000
0000
0000
,
0100
1000
0001
0100
,
0001
0100
0001
1000
,
0010
0100
0001
0000
,
0001
0000
0100
0010
,
0001
1000
0100
0010
,
0001
1000
0001
0100
,
0010
0000
0000
0000
1000
0000
0000
0000
0110
0000
0000
0110
0000
0000
0000
0000
,
0101
0000
0000
0101
0000
0000
0000
0000
0020
0000
0000
0000
0000
0000
0000
0000
,
0000
0000
0000
0000
,
0000
0000
1030
0010
,
1000
0001
1000
0010
,
1000
0010
0100
0010
,
1000
0001
0101
1001
,
1000
0100
0000
0000
0010
0000
0100
0000
,
1000
0000
0100
0000
0010
0000
0001
0010
,
0100
0100
1000
0001
,
0100
0010
1010
1010
,
1000
0010
0000
1000
0100
0000
0000
0000
,
0001
0000
1000
0000
,
0001
0000
0100
0000
,
0010
0000
0001
0000
,
1000
0000
0001
0010
,
0100
0010
0100
0010
,
0001
0100
0110
0101
,
0011
1010
0110
0110
,
0001
0100
0001
0100
,
0010
1000
0100
0010
,
0100
1000
0100
0010
,
0001
0000
0001
0000
,
0100
1000
0100
0010
,
0100
0010
0001
1000
,
0001
0100
0010
1000
,
1001
0000
0000
1001
0000
0000
0000
0000
0110
0000
0000
0110
0000
0000
0000
0000
,
0200
0000
0000
0000
,
0301
0010
0001
0100
,
0020
0000
0000
0000
,
0130
1000
0001
0010
,
0200
0000
0000
0000
,
0301
0100
0001
1000
,
0002
0000
0000
0000
,
0200
0000
0000
0000
,
0303
0000
0000
0000
;

//--------------- dance-single - B. M'Rey ----------------
#NOTES:
     dance-single:
     B. M'Rey:
     Medium:
     11:
     0,0,0,0,0:
0000
0000
0000
0000
,
0000
0000
0000
0000
,
0000
0000
0000
0000
,
0010
0000
0000
0100
0000
0000
0010
0000
0100
0000
0000
0001
0000
0000
0010
0000
,
0100
1000
0100
0000
,
0001
1000
0000
0001
1000
0100
0000
0100
,
0000
1000
0000
1000
0100
0000
0100
0000
,
0100
0010
0000
0010
0000
1000
0001
0100
,
0010
0000
0010
0000
0001
0010
0000
0100
,
0001
0010
0000
0010
0000
0010
0001
1000
,
0001
1000
0001
0000
0010
0000
0010
0000
,
0001
1000
0000
0010
0000
0010
0100
0010
,
0100
0000
0100
0000
0001
1000
0000
0100
,
0020
0000
0000
0000
,
0000
0000
0000
0000
,
0031
1000
0001
1000
,
0001
0100
0010
0100
,
0010
0100
0001
1000
,
0001
1000
0001
0010
,
0100
0010
0100
0010
,
0001
0100
0001
0100
,
0001
1000
0100
0010
,
0110
0000
0110
0000
,
2000
0000
0000
3020
0000
0000
0032
0000
,
1003
0001
0010
0001
,
0010
0100
0010
0100
,
1000
0001
1000
0010
,
0100
0010
0100
0010
,
1000
0001
1000
0001
,
1000
0100
0010
0001
,
1000
0010
0100
0001
,
1001
0000
0000
0000
0000
0000
0010
0100
,
0001
1000
0010
1000
0010
1000
0100
0010
,
0001
0000
0000
0000
0000
0000
0010
0100
,
0001
1000
0001
0100
0001
0100
0010
0100
,
1000
0000
0000
1000
0000
0000
1000
0000
0000
0000
0010
0000
0100
0000
0000
0000
,
0001
1000
0001
0010
0100
0010
0100
0010
,
0001
1000
0001
1000
,
1001
0000
0000
1001
0000
0000
1001
0000
0000
0011
0000
0000
0110
0000
0110
0000
,
0000
0000
0000
0000
1000
0001
1000
0010
,
1000
0100
0010
0100
0010
0100
1000
0001
,
1000
0001
1000
0010
0100
0010
0100
0010
,
1000
0001
1000
0010
1000
0000
0001
0000
,
1000
0000
0001
0000
0010
0100
1000
0100
,
0010
0100
1000
0001
1000
0001
1000
0010
,
0100
0010
1000
0001
0100
0001
0100
0001
,
1000
0000
0010
0000
0100
0000
0010
0000
1000
0000
0000
0100
0000
0000
0100
0000
,
0010
0000
0000
0001
0000
0000
0010
0000
1000
0000
0000
0000
1000
0000
0001
0000
,
1000
0001
1000
0010
0100
0010
0100
0010
,
1000
0001
1000
0001
1000
0010
0100
0010
,
0100
0010
1000
0100
1000
0000
0001
0000
,
1000
0000
0001
0000
1000
0100
1000
0100
,
0010
0100
0010
0001
0010
0001
1000
0001
,
1000
0010
1000
0010
0100
0010
0100
0001
,
0100
0000
0001
0000
1000
0000
0001
0000
1000
0000
0000
0100
0000
0000
0100
0000
,
0010
0000
0000
0001
0000
0000
0010
0000
0200
0000
0000
0000
0000
0000
0000
0000
,
0000
0000
0000
0000
,
0000
0000
0000
0000
0301
1000
0000
0001
,
1000
0100
0000
0100
0000
1000
0000
1000
,
0100
0000
0100
0000
0100
0010
0000
0010
,
0000
1000
0001
0100
0010
0000
0010
0000
,
0001
0010
0000
0100
0001
0010
0000
0010
,
0000
0010
0001
1000
0001
1000
0001
0000
,
0010
0000
0010
0000
0001
1000
0000
0010
,
0000
0010
0100
0010
0100
0000
0100
0000
,
0001
1000
0000
0100
1000
0000
0001
0000
,
0010
0001
0010
0001
,
1000
0100
0010
0100
,
1000
0100
1000
0001
,
1000
0000
0001
0000
1000
0010
0100
0000
,
0001
0010
0100
0000
1000
0001
1000
0100
,
1000
0100
0010
0100
1000
0010
1000
0010
,
1000
0001
0010
0001
0001
0000
0000
0000
,
1000
0001
1000
0001
1000
0010
0100
0010
,
0100
0010
1000
0001
1000
0010
1000
0010
,
0100
0010
0100
0001
0100
0001
0010
0001
,
0010
0010
1000
0010
,
0010
0001
0010
0100
1000
0100
1000
0100
,
0010
0001
0010
0001
1000
0001
1000
0100
,
1000
0100
0010
0100
0010
0001
0010
0001
,
1000
0000
0000
0001
0000
0000
0010
0000
1000
0000
0000
0010
0000
0000
0100
0000
,
0010
0000
0000
1000
0000
0000
0100
0000
0000
0001
0000
0000
0010
0000
0100
0000
,
1000
0010
1000
0010
,
1000
0000
0000
0001
0000
0000
0100
0000
0000
0010
0000
0000
1000
0000
0100
0000
,
0001
0100
0001
1000
,
0010
0000
0000
0001
0000
0000
0100
0000
0000
0010
0000
0000
1000
0000
0100
0000
,
0100
0001
1000
0001
,
0010
0000
0000
0100
0000
0000
1000
0000
0000
0001
0000
0000
0100
0000
0010
0000
,
2000
0000
0000
0000
,
3000
0000
0000
0000
;

//--------------- dance-single - B. M'Rey ----------------
#NOTES:
     dance-single:
     B. M'Rey:
     Hard:
     15:
     0.687572,0.888142,0.276345,0.099791,0.629452,627,591,36,13,0,0,0.687572,0.888142,0.276345,0.099791,0.629452,627,591,36,13,0,0:
0000
0000
0000
0000
,
0000
0000
0000
0000
,
0000
0000
0000
0000
,
1000
0000
0000
0100
0000
0000
0001
0000
0010
0000
0000
0100
0000
0000
0001
0000
,
0010
1000
0000
0100
0010
0000
0001
0000
0000
0000
0000
0000
1001
0000
0000
0000
,
0010
1000
0010
1000
0010
1000
0010
1000
,
0010
0100
0010
0001
1000
0000
0100
0000
,
0010
0001
0010
0001
0010
0001
0010
0001
,
0110
0000
1100
0000
0100
0010
0000
0001
,
1000
0010
1000
0010
1000
0010
1000
0010
,
1000
0000
0100
0000
0001
0000
0010
1000
0100
0000
0000
0000
0001
0000
0000
0000
,
0100
0001
0100
0001
0100
0001
0100
0001
,
0110
0000
0011
0000
1000
0100
0000
0001
,
0200
0000
0000
0000
,
0000
0000
0000
0000
,
0320
0032
2003
3020
,
0230
0302
2003
3020
,
2030
0000
3200
0000
0302
0000
0023
2030
,
0000
3200
0000
0302
0000
0023
0000
2030
,
3200
0302
0023
0230
,
0302
2003
3020
0230
,
0302
2003
3020
0230
,
0320
0000
0000
0000
0000
0000
1030
0001
2000
0000
0000
0000
0000
0000
0000
0000
,
3020
0000
0000
0032
0000
0000
0203
0000
,
2300
3020
0230
0302
,
0023
0000
2030
0000
3020
0000
0230
0320
,
0000
0032
0000
2003
0000
3020
0000
0230
,
2300
0000
0000
0100
0000
0000
0010
0000
3020
0000
0000
0000
0000
0000
0000
0000
,
0230
0000
0000
0010
0000
0000
0001
0000
0302
0000
0000
0000
0000
0000
0000
0000
,
0023
0000
2030
0000
,
3100
0001
0100
0001
0100
0001
0100
0001
,
0200
0300
0000
0000
0000
0000
1000
0010
,
0100
0000
1000
0100
0000
0001
0100
0000
0010
1000
0000
0100
0010
0001
1000
0100
,
0020
0030
0000
0000
0000
0000
0001
1000
,
0100
0010
0000
0001
0100
0000
1000
0010
0000
0100
0001
0000
0010
0100
1000
0001
,
0110
0000
0000
0110
0000
0000
0110
0000
0000
0000
0001
0000
1000
0000
0010
0000
,
0100
0000
0010
0001
0000
0100
0010
0000
1000
0100
0000
0010
0100
0001
0010
1000
,
0001
0001
0001
0100
1000
1000
1000
0010
,
0110
0000
0000
0011
0000
0000
1001
0000
0000
0110
0000
0000
1100
0000
1100
0000
,
0010
1000
0001
1000
0001
0000
0000
0000
0010
0000
1000
0100
0000
0001
0010
0000
,
0100
0010
0000
0001
1000
0010
0100
0001
0010
0000
0100
1000
0000
0010
0100
0000
,
0010
0001
0000
1000
0100
0001
0010
0100
0010
0000
1000
0001
0000
0010
0100
0000
,
1000
0001
0000
0010
0100
0000
1000
0010
0100
0000
0000
0010
0000
0000
0001
0000
,
1000
0000
0000
0010
0000
0000
0100
0000
0100
0000
0001
0010
0000
1000
0100
0000
,
0010
0100
0000
1000
0001
0100
0010
1000
0100
0000
0010
0001
0000
0100
0010
0000
,
0100
1000
0000
0001
0010
1000
0100
0010
0100
0000
0001
1000
0000
0100
0010
0000
,
0001
1000
0000
0100
0010
0000
0001
0100
0010
0000
0000
0100
0000
0000
1000
0000
,
0001
0000
0000
0100
0000
0000
0010
0000
0010
0000
1000
0100
0000
0001
0010
0000
,
0100
0010
0000
0001
1000
0010
0100
0001
0010
0000
0100
1000
0000
0010
0100
0000
,
0010
0001
0000
1000
0100
0001
0010
0100
0010
0000
1000
0001
0000
0010
0100
0000
,
1000
0001
0000
0010
0100
0000
1000
0010
0100
0000
0000
0010
0000
0000
0001
0000
,
1000
0000
0000
0010
0000
0000
0100
0000
0100
0000
0001
0010
0000
1000
0100
0000
,
0010
0100
0000
1000
0001
0100
0010
1000
0100
0000
0010
0001
0000
0100
0010
0000
,
0100
1000
0000
0001
0010
1000
0100
0010
0100
0000
0001
1000
0000
0100
0010
0000
,
0001
1000
0000
0100
0010
0000
0001
0100
0010
0000
0000
0100
0000
0000
1000
0000
,
0001
0000
0000
0100
0000
0000
0010
0000
0200
0000
0000
0000
0000
0000
0000
0000
,
0000
0000
0000
0000
,
0000
0000
0000
0000
0310
1000
0010
1000
,
0010
1000
0010
1000
0010
0100
0010
0001
,
1001
0000
0110
0000
0010
0001
0010
0001
,
0010
0001
0010
0001
0110
0000
1100
0000
,
0100
0010
0000
0001
1000
0010
1000
0010
,
1000
0000
0010
0000
1000
0000
0010
0000
1000
0000
0100
0000
0001
0000
0010
1000
,
0100
0000
0001
0000
0100
0001
0100
0001
,
0100
0001
0100
0001
0110
0000
0011
0000
,
1000
0100
0000
0001
0010
1000
0001
0100
,
0010
1000
0001
0010
0001
0100
0010
1000
,
0100
0001
0010
0001
0100
0010
1000
0100
,
1000
0100
0001
0010
0100
0000
1000
0000
,
0001
0000
0000
0000
0010
0000
0000
0000
0001
0000
0100
0010
0000
1000
0100
0000
,
0001
0000
0100
0010
0000
1000
0100
0000
0010
0000
0100
0000
0001
0000
0010
0000
,
0001
0000
1000
0000
0100
0000
0010
0000
1000
0100
0010
0001
1000
0100
0010
0001
,
1000
0000
0000
0000
0000
0000
0000
0000
0000
0000
0000
0000
0100
0000
0000
0000
0000
0000
0000
0000
0000
0000
0000
0000
0010
0000
0000
0000
0000
0000
0000
0000
0000
0000
0000
0000
0001
0000
0000
0000
0000
0000
0000
0000
0000
0000
0000
0000
1000
0000
0000
0000
0000
0000
0000
0000
0000
0000
0000
0000
0100
0000
0000
0000
0000
0000
0000
0000
0000
0000
0000
0000
0010
0000
0000
0000
0000
0000
0000
0000
0000
0000
0000
0000
0001
0000
0000
0000
0000
0000
0000
0000
0000
0000
0000
0000
2000
3000
0000
0000
0000
0000
0000
0000
0000
0000
0000
0000
0000
0000
0000
0000
0000
0000
0000
0000
0000
0000
0000
0000
0001
0000
0000
0000
0000
0000
0000
0000
0000
0000
0000
0000
1000
0000
0000
0000
0000
0000
0000
0000
0000
0000
0000
0000
0001
0000
0000
0000
0000
0000
0000
0000
0000
0000
0000
0000
0000
0000
0000
0000
0000
0000
0000
0000
0000
0000
0000
0000
0000
0000
0000
0000
0000
0000
0000
0000
0000
0000
0000
0000
0000
0000
0000
0000
0000
0000
0000
0000
0000
0000
0000
0000
,
1000
0000
0100
0001
0000
0010
1000
0000
0001
1000
0000
0010
0100
1000
0001
0010
,
1000
0000
0001
0100
0000
1000
0001
0000
1000
0010
0000
0100
0001
0010
1000
0001
,
1000
0000
0100
0010
0000
1000
0001
0000
0100
0010
0000
1000
0001
0000
0100
1000
,
0001
0000
0000
1000
0000
0000
0010
0000
0100
0000
0000
1000
0000
0000
0001
0000
,
0001
0000
0010
1000
0000
0100
0001
0000
1000
0001
0000
0100
0010
0001
1000
0100
,
0001
0000
1000
0010
0000
0001
1000
0000
0001
0100
0000
0010
1000
0100
0001
1000
,
0001
0000
0010
0100
0000
0001
1000
0000
0010
0100
0000
0001
1000
0000
0010
0001
,
1000
0000
0000
0001
0000
0000
0100
0000
0010
0000
0000
0001
0000
0000
1000
0000
,
1001
0000
0000
1001
0000
0000
0110
0000
0000
0011
0000
0000
0110
0000
0100
0000
,
0020
0000
0000
0000
,
1030
0000
0000
0011
0000
0000
1001
0000
0000
0110
0000
0000
0011
0000
1000
0000
,
0200
0000
0000
0000
,
0310
0000
0000
0011
0000
0000
1001
0000
0000
0110
0000
0000
1100
0000
0001
0000
,
0200
0000
0000
0000
,
0310
0000
0000
1010
0000
0000
0110
0000
0000
0101
0000
0000
0110
0000
0100
0000
,
0020
0000
0000
0000
,
0030
0000
0000
0000
;
