#TITLE:EXPLOSIVE Mix;
#SUBTITLE:(DDR 3rd Mix);
#ARTIST:Tony the TGR;
#TITLETRANSLIT:;
#SUBTITLETRANSLIT:;
#ARTISTTRANSLIT:;
#CREDIT:;
#BANNER:3rdMix.png;
#BACKGROUND:3rdMix-bg.png;
#LYRICSPATH:;
#CDTITLE:./CDTITLES/DANCE DANCE REVOLUTION 3RD MIX.PNG;
#MUSIC:3rdMix.ogg;
#OFFSET:-0.040;
#SAMPLESTART:147.000;
#SAMPLELENGTH:24.000;
#SELECTABLE:YES;
#BPMS:0.000=149.800,228.000=148.500,340.000=149.000,388.000=160.000,420.000=169.800,612.000=169.500,820.000=179.000,848.000=190.000;
#STOPS:;
#BGCHANGES:;

//---------------dance-single - ----------------
#NOTES:
     dance-single:
     :
     Easy:
     5:
     0.384,0.475,0.367,0.000,0.000: // measure 1
0000
0000
0000
0000
,  // measure 2
0000
0000
0000
0000
,  // measure 3
0000
0000
0000
0000
,  // measure 4
0000
0000
0000
0000
,  // measure 5
0010
0100
1000
0001
,  // measure 6
0100
0010
1000
0100
,  // measure 7
1001
1001
0100
0010
,  // measure 8
1001
1001
0100
0010
,  // measure 9
1001
0000
0000
0000
,  // measure 10
0100
0100
0010
0010
,  // measure 11
1000
1000
0001
0001
,  // measure 12
0100
0010
1000
0001
,  // measure 13
1000
1000
0001
0001
,  // measure 14
1000
0100
0001
0100
,  // measure 15
0010
1000
0001
0100
,  // measure 16
1000
0100
0010
0001
,  // measure 17
0100
0010
1000
0001
,  // measure 18
1100
1100
1001
0101
,  // measure 19
1010
1010
1001
0011
,  // measure 20
0100
1000
0010
0100
,  // measure 21
0001
1000
0100
0010
,  // measure 22
0001
0001
0100
0100
,  // measure 23
0010
0010
1000
0100
,  // measure 24
0010
0001
0100
0010
,  // measure 25
1000
0101
0010
1100
,  // measure 26
1001
0000
0110
0000
,  // measure 27
1001
1001
0100
0010
,  // measure 28
1100
1100
0001
0100
,  // measure 29
0110
0110
0110
0001
,  // measure 30
0000
0010
0100
0000
,  // measure 31
1001
0100
0010
0000
,  // measure 32
1001
0010
1001
1001
,  // measure 33
1100
0011
1100
0000
,  // measure 34
0001
0001
0000
0000
,  // measure 35
0001
0001
0000
0000
,  // measure 36
1000
0100
0001
0100
,  // measure 37
0000
0000
0000
0000
,  // measure 38
1001
1001
0000
0000
,  // measure 39
0010
0000
0100
0000
,  // measure 40
0001
1000
0100
0010
,  // measure 41
1001
0000
1001
0000
,  // measure 42
1001
1001
0010
0010
,  // measure 43
0100
0100
0001
1000
,  // measure 44
0100
0010
0001
0100
,  // measure 45
0010
0010
1000
0100
,  // measure 46
0001
0100
1000
0100
,  // measure 47
0010
0001
0100
0100
,  // measure 48
0010
1000
0100
0010
,  // measure 49
0001
1100
1100
1100
,  // measure 50
0011
0000
0101
0000
,  // measure 51
1001
0010
0100
0001
,  // measure 52
0010
0100
1100
1100
,  // measure 53
0001
0100
0010
1000
,  // measure 54
0000
1001
1001
0000
,  // measure 55
0100
1001
1001
0000
,  // measure 56
0010
0100
1000
0001
,  // measure 57
0100
1010
0101
0000
,  // measure 58
0000
1000
0000
1000
,  // measure 59
0000
0001
0000
0001
,  // measure 60
0000
1000
0000
1000
,  // measure 61
0000
0001
0000
0001
,  // measure 62
0000
0100
0000
0100
,  // measure 63
0000
0010
0000
0010
,  // measure 64
0000
0100
0000
0100
,  // measure 65
0000
0000
0000
0000
,  // measure 66
1000
0001
1000
0001
,  // measure 67
0100
1000
0100
1000
,  // measure 68
0001
1000
0001
1000
,  // measure 69
0100
0001
0100
0001
,  // measure 70
1000
0001
1000
0001
,  // measure 71
0100
1000
0100
1000
,  // measure 72
0001
1000
0001
1000
,  // measure 73
0100
0001
0100
0001
,  // measure 74
0110
0000
0000
0000
,  // measure 75
1000
0100
0010
0001
,  // measure 76
1000
0100
0001
0100
,  // measure 77
0010
1000
0100
0001
,  // measure 78
1001
0000
0000
0000
,  // measure 79
0100
0010
0001
1000
,  // measure 80
0010
0001
1000
0100
,  // measure 81
0010
0001
0100
1000
,  // measure 82
1001
0000
0000
0000
,  // measure 83
1001
0000
0000
0000
,  // measure 84
1001
0000
0000
0000
,  // measure 85
0010
0010
0100
0100
,  // measure 86
1001
0000
0000
0000
,  // measure 87
1001
0000
0000
0000
,  // measure 88
1001
0000
0000
0000
,  // measure 89
0110
0000
0000
0000
,  // measure 90
1001
1001
1100
1100
,  // measure 91
0001
0100
1000
0100
,  // measure 92
1001
0000
1001
0000
,  // measure 93
0110
0000
0000
0000
,  // measure 94
1001
1001
0101
0101
,  // measure 95
1000
0100
0010
0001
,  // measure 96
1001
0000
1001
0000
,  // measure 97
0110
0000
0000
0000
,  // measure 98
1000
0001
1000
0001
,  // measure 99
0100
1000
0100
1000
,  // measure 100
0001
1000
0001
1000
,  // measure 101
0100
0001
0100
0001
,  // measure 102
1000
0001
1000
0001
,  // measure 103
0100
1000
0100
1000
,  // measure 104
0001
1000
0001
1000
,  // measure 105
0100
0001
0100
0001
,  // measure 106
0001
0000
1000
0000
,  // measure 107
0001
0000
1000
0000
,  // measure 108
0001
0000
1000
0000
,  // measure 109
0001
0001
1000
1000
,  // measure 110
0100
0000
0100
0000
,  // measure 111
0001
0000
1000
0000
,  // measure 112
0100
0100
1000
0001
,  // measure 113
0010
1000
0001
0100
,  // measure 114
0010
1000
0100
0001
,  // measure 115
0100
1000
0001
0100
,  // measure 116
0001
0001
1000
1000
,  // measure 117
0001
0100
1000
0010
,  // measure 118
0100
0100
1000
0001
,  // measure 119
1000
1000
0001
0001
,  // measure 120
0100
1000
0001
0100
,  // measure 121
1001
0100
0100
0100
,  // measure 122
0010
0010
0100
0100
,  // measure 123
1000
1000
0001
0001
,  // measure 124
0100
0100
1000
1000
,  // measure 125
0001
0001
1000
0001
,  // measure 126
1000
1000
0001
0001
,  // measure 127
0100
1000
0001
0100
,  // measure 128
0010
0010
0010
0010
,  // measure 129
0100
0100
0100
0100
,  // measure 130
1001
0100
1000
0100
,  // measure 131
0001
1000
0100
0100
,  // measure 132
1001
0100
0001
0100
,  // measure 133
1000
0001
0100
0100
,  // measure 134
0010
0010
0100
0100
,  // measure 135
0001
0000
0001
0000
1000
0001
1000
0000
,  // measure 136
0010
0010
0010
0010
,  // measure 137
0100
0000
0100
0000
0100
0100
0100
0000
,  // measure 138
0010
1000
0100
0001
,  // measure 139
0100
1000
0100
0010
,  // measure 140
0001
1000
0010
0001
,  // measure 141
0100
1000
0100
0001
,  // measure 142
0100
0100
1000
0001
,  // measure 143
0100
0100
0001
1000
,  // measure 144
0010
0010
1000
0001
,  // measure 145
0010
0010
0001
1000
,  // measure 146
0010
0010
0010
0010
,  // measure 147
0010
0000
0010
0000
0010
0000
0010
0010
,  // measure 148
0010
0010
0010
0010
,  // measure 149
0010
0000
0010
0000
0010
0000
0010
0010
,  // measure 150
0010
0010
0010
0010
,  // measure 151
0010
0000
0010
0000
0010
0000
0010
0010
,  // measure 152
0010
0010
0010
0010
,  // measure 153
0010
0010
0010
0010
,  // measure 154
1001
0000
0000
0000
,  // measure 155
1001
0100
1001
0100
,  // measure 156
0010
0010
1001
0000
,  // measure 157
1000
1000
0001
0001
,  // measure 158
1000
1000
0001
0001
,  // measure 159
0010
0010
0100
0100
,  // measure 160
0010
0010
0100
0100
,  // measure 161
1001
1001
0100
0100
,  // measure 162
1001
1001
0100
0100
,  // measure 163
0001
0001
0100
0100
,  // measure 164
1000
1000
0100
0100
,  // measure 165
0010
1000
1001
0100
,  // measure 166
0100
0001
1001
0100
,  // measure 167
1000
0001
0110
0001
,  // measure 168
1000
0100
0110
0001
,  // measure 169
0001
0001
1000
0100
,  // measure 170
1000
1000
0001
0100
,  // measure 171
0010
0010
1001
0010
,  // measure 172
0100
0100
1001
0100
,  // measure 173
0010
0001
1001
0000
,  // measure 174
0100
1000
1001
0000
,  // measure 175
1000
0001
0110
0000
,  // measure 176
0001
1000
0110
0000
,  // measure 177
0001
1000
0100
0000
,  // measure 178
1000
0001
0100
0000
,  // measure 179
0010
0100
1001
0000
,  // measure 180
0010
0100
1001
0000
,  // measure 181
1001
0100
0100
0100
,  // measure 182
1001
0100
1001
0100
,  // measure 183
0010
0010
1001
0000
,  // measure 184
1000
1000
0100
0100
,  // measure 185
0110
0001
0001
0001
,  // measure 186
0110
0001
0110
1000
,  // measure 187
0100
0100
0110
0000
,  // measure 188
0001
0001
1000
0100
,  // measure 189
1000
1000
0100
0100
,  // measure 190
0001
0001
0100
0100
,  // measure 191
0010
1000
0010
1000
,  // measure 192
0100
0001
0010
1000
,  // measure 193
0001
0001
0100
0100
,  // measure 194
1000
1000
0100
0100
,  // measure 195
0010
0001
0010
0001
,  // measure 196
0100
1000
0010
0001
,  // measure 197
1001
1001
0100
0100
,  // measure 198
1001
1001
0001
0100
,  // measure 199
1001
1001
0100
0100
,  // measure 200
1001
1001
1000
0100
,  // measure 201
1000
0001
0100
0100
,  // measure 202
0001
1000
0100
0100
,  // measure 203
0010
0001
0100
0010
,  // measure 204
1000
0100
0010
0001
,  // measure 205
1000
1000
0100
0100
,  // measure 206
0001
0001
0100
1000
,  // measure 207
0100
0001
0100
1000
,  // measure 208
0100
0001
0100
1000
,  // measure 209
0100
0100
0001
0010
,  // measure 210
0100
0100
1000
0010
,  // measure 211
1000
1000
0010
0001
,  // measure 212
0001
0001
0010
1000
,  // measure 213
1001
0000
0000
0000
,  // measure 214
0010
0100
0010
0100
,  // measure 215
0010
0000
1000
0000
0000
0100
0000
0100
,  // measure 216
0000
0010
0100
0010
,  // measure 217
0001
0000
0100
0000
0000
0010
0000
0010
,  // measure 218
0000
0100
0001
0010
,  // measure 219
0100
0000
1000
0000
0000
0001
0000
0001
,  // measure 220
0000
1000
0100
0010
,  // measure 221
0001
0000
0100
0000
0000
0010
0000
0010
,  // measure 222
1000
0100
1001
0000
,  // measure 223
0000
0000
0000
0000
,  // measure 224
1000
0001
0100
0010
,  // measure 225
1000
0000
0100
0000
0000
0010
0000
0010
,  // measure 226
0000
0001
0001
1000
,  // measure 227
1000
0000
1000
0000
0000
0100
0000
0100
,  // measure 228
0000
0010
0001
0100
,  // measure 229
0010
0000
1000
0000
0000
0100
0000
0000
,  // measure 230
1001
0000
0010
0100
0000
0000
0000
0000
,  // measure 231
1001
0000
0000
1001
0000
0000
0000
0000
,  // measure 232
1001
0000
0010
0100
0000
0000
0000
0000
,  // measure 233
1001
0000
0000
1001
0000
0000
0000
0000
,  // measure 234
1001
0000
0010
0100
0000
0000
0000
0000
,  // measure 235
1001
0000
0000
1001
0000
0000
0000
0000
,  // measure 236
1001
0000
0010
0100
0000
0000
0000
0000
,  // measure 237
1001
0000
0000
1001
0000
0000
0000
0000
,  // measure 238
0000
0000
0000
0000
,  // measure 239
0010
0100
0010
0001
,  // measure 240
0100
0010
0010
0000
1000
0000
0001
0000
,  // measure 241
0100
0010
0010
0010
,  // measure 242
1000
0000
0100
0100
1000
0000
0001
0000
,  // measure 243
1000
0010
0100
0010
,  // measure 244
0100
0000
0001
0000
0010
0010
0100
0000
,  // measure 245
1000
0001
0010
0100
,  // measure 246
0100
0000
0100
0010
0010
0000
0100
0000
,  // measure 247
1001
0110
0110
1001
,  // measure 248
1100
0101
1001
0000
;

//---------------dance-single - ----------------
#NOTES:
     dance-single:
     :
     Medium:
     7:
     0.520,0.610,0.307,0.000,0.047:
0000
0000
0000
0000
,
0000
0000
0000
0000
,
0000
0000
0000
0000
,
0000
0000
0000
0000
,
0110
1001
1100
0011
,
0110
1001
1100
0101
,
1000
0000
0010
0000
0100
0001
0010
0000
,
0100
1000
0010
0100
0001
1001
0110
0000
,
1001
0000
0000
0000
,
1000
0010
0100
0000
0001
0010
0100
0000
,
1000
0001
0100
0000
0010
1000
0100
0000
,
0010
0001
0100
0000
0010
1000
0100
0000
,
1000
0001
0100
0000
1000
0100
0010
0000
,
0001
0100
0100
0000
0010
1000
1000
0000
,
0100
0010
0001
0100
0010
1000
0100
0000
,
0010
0001
0010
0000
0100
1000
0100
0000
,
0010
0001
0100
0000
0010
1000
0100
0000
,
1010
0000
0101
0000
0010
0100
0100
0000
,
1001
0000
0110
0000
0001
1000
0001
0000
,
0010
0100
0010
0000
1000
0100
0010
0000
,
0001
0100
0010
0000
1000
0100
0001
0000
,
0100
1000
0010
0000
0001
0010
1000
0000
,
0100
0010
0010
0000
0001
1000
1000
0000
,
0100
0100
0100
0000
0010
0010
0010
0000
,
0001
0100
0010
1000
0001
0010
0100
0000
,
1001
0000
0101
0000
,
0010
1000
0100
0010
0000
0000
0001
0100
,
0000
0010
1000
0100
0010
0001
0000
1000
,
0000
0100
0010
0001
0010
0000
0100
0000
,
0000
0100
0010
0000
,
0001
0100
0010
0100
0000
0000
0000
0000
,
1000
0100
0010
0001
0100
0010
1000
0100
,
0011
0101
1001
0000
,
0100
0100
0000
0000
,
0000
0010
0000
0100
0000
0100
0000
0000
,
0000
0100
1000
0000
0000
0001
0100
0000
,
0000
0000
0000
0000
,
1001
1001
0110
0000
0000
0000
0000
0000
,
0000
0010
0000
0100
0000
0100
0000
0000
,
0000
1001
0010
0000
0000
1001
0100
0000
,
1000
0001
1000
0001
1000
0001
1000
0000
,
0011
0000
0101
0000
0010
1000
0100
0000
,
0010
0001
0001
0000
0100
0010
0010
0000
,
1000
0100
0010
0000
0001
0100
0010
0000
,
1000
0100
0100
0000
0010
0001
0001
0000
,
1000
0100
0001
0000
0001
0100
1000
0000
,
0001
0010
0100
0000
1000
0001
0100
0000
,
1000
1000
1000
0000
0100
0100
0100
0000
,
1000
0010
0100
0000
1001
1100
0101
0000
,
1010
0000
0101
0000
,
1000
0100
0010
0001
0000
0000
0100
0010
,
0000
1000
0100
0010
0001
0100
0000
1000
,
0000
0100
0010
0001
0100
0000
0010
0000
,
0000
0100
0010
0000
,
1000
0001
0010
0100
0000
0000
0000
0000
,
1000
0010
0100
0001
0010
0100
0010
0100
,
1001
0110
1001
0000
,
1000
1000
1000
1000
,
0001
0001
0001
0001
,
1000
1000
1000
1000
,
0001
0001
0001
0001
,
1000
1000
1000
1000
,
0001
0001
0001
0001
,
1000
1000
1000
1000
,
0110
0000
0000
0000
,
1001
0000
1001
0000
0100
0010
0100
0000
,
1001
0000
1001
0000
0010
0100
0010
0000
,
1100
0000
1100
0000
0001
0010
0001
0000
,
1100
0000
1100
0000
0010
0001
0010
0000
,
0110
0000
0110
0000
1000
0001
1000
0000
,
0110
0000
0110
0000
0001
1000
0001
0000
,
0101
0000
0101
0000
1000
0010
1000
0000
,
0101
0000
0101
0000
0010
1000
0010
0000
,
1000
0000
0000
0100
0010
0100
0000
0000
,
1000
0000
0000
0010
0100
0010
0000
0000
,
1000
0000
0000
0001
0100
0010
0000
0000
,
1000
0000
0000
0100
0010
0001
0000
0000
,
0001
0000
0000
0100
0010
0100
0000
0000
,
0001
0000
0000
0010
0100
0010
0000
0000
,
0001
0000
0000
1000
0100
0010
0000
0000
,
0001
0000
0000
0100
0010
1000
0000
0000
,
1000
0000
0100
0010
0001
0100
0010
0000
,
1000
0000
0100
0010
0001
0100
0010
0000
,
1000
0000
0100
0010
0001
0100
0010
0000
,
1000
0100
0001
0100
,
0010
0000
1000
0100
0010
0001
0100
0000
,
0010
0000
1000
0100
0010
0001
0100
0000
,
0010
0000
1000
0100
0010
0001
0100
0000
,
1010
0000
0000
0000
,
0110
0000
0001
1000
0001
0000
0001
1000
,
0001
0000
0001
1000
0100
0010
0001
1000
,
0100
0000
1000
0001
0100
0010
0000
1001
,
0000
0000
0000
0000
,
0110
0000
1000
0001
1000
0000
1000
0001
,
1000
0000
1000
0001
0100
0010
1000
0001
,
0100
0000
0001
1000
0100
0010
0000
1001
,
0000
0000
0000
0000
,
1001
0000
1001
0000
0100
0010
0100
0000
,
1001
0000
1001
0000
0010
0100
0010
0000
,
1001
0000
1100
0000
0001
0010
0001
0000
,
1001
0000
1100
0000
0010
0001
0010
0000
,
1001
0000
0110
0000
1000
0001
1000
0000
,
0110
0000
1001
0000
0010
0100
0010
0000
,
0101
0000
1001
0000
0010
0100
0010
0000
,
1001
0000
1100
0000
0010
0001
0010
0000
,
0001
0001
1000
1000
,
0100
0100
0001
1000
,
0001
0001
1000
1000
,
0010
1000
0100
0000
0001
0100
1000
0000
,
0010
0010
0100
0100
,
0001
0001
1000
1000
,
0100
0100
0001
1000
,
0010
1000
0100
0000
0001
0100
1000
0000
,
0010
0001
0010
1000
,
0010
0000
0010
0000
1000
0000
0001
0100
,
1000
0100
0001
1000
,
0100
0000
0001
0000
0100
0000
1000
0100
,
0001
0010
1000
0010
,
0001
0000
1000
0000
0001
0000
0010
0001
,
0100
1000
0100
0001
,
1000
0000
0100
0000
0100
0000
0100
0100
,
0010
0001
1000
0100
,
0010
1000
0100
0000
1000
0100
0001
0000
,
0100
1000
0001
1000
,
0001
0001
1000
1000
,
0010
1000
0001
0100
,
1000
0100
0001
0000
1000
0010
0001
0000
,
0010
1000
0100
0000
0100
1000
0010
0000
,
1000
0100
0001
0000
0001
0100
1000
0000
,
0010
0010
1000
1000
,
0001
0000
0001
0000
1000
0000
0001
0100
,
1000
0100
0001
1000
,
0100
0001
0100
0100
,
0010
0010
1100
0101
,
0010
0000
1000
0000
0100
0100
0100
0000
,
0010
0000
0010
0000
0010
1000
0010
0000
,
0100
0000
0100
0000
0100
0001
1000
0000
,
0001
0001
1000
1000
,
0001
0001
1000
0001
,
1000
1000
0001
0001
,
1000
0000
0001
0000
1000
0000
0001
0001
,
0001
1000
0001
1000
,
0001
0001
1000
1000
,
0001
1000
0001
1000
,
0010
0010
0100
0100
,
0100
1000
0100
0001
0100
1000
0100
0001
,
0100
1000
0100
0001
0100
1000
0100
0001
,
0010
1000
0010
0001
0010
1000
0010
0001
,
0010
1000
0010
0001
0010
1000
0010
0001
,
0100
1000
0100
0001
0100
1000
0100
0001
,
0100
1000
0100
0001
0100
1000
0100
0001
,
0010
1000
0010
0001
0100
1000
0100
0001
,
0010
1000
0010
0001
0100
1000
0100
0001
,
1001
0000
0000
0000
,
0100
1000
0010
1000
0001
0010
0001
0100
,
0001
1000
0010
0100
0001
1000
0000
0000
,
0000
0000
0000
0000
0000
0000
0000
0000
1000
0000
0000
0000
0000
0000
0000
0000
0001
0000
0000
0000
0000
0000
0000
0000
0000
0000
0000
0000
0000
0000
0000
0000
1000
0000
0000
0000
0000
0000
0000
0000
0000
0000
1000
0000
0000
0000
0000
0000
0000
0000
0000
0000
0000
0100
0000
0000
0000
0000
0000
0000
0000
0000
0000
0000
,
0000
0000
0000
0000
0000
0000
0000
0000
0001
0000
0000
0000
0000
0000
0000
0000
1000
0000
0000
0000
0000
0000
0000
0000
0000
0000
0000
0000
0000
0000
0000
0000
0001
0000
0000
0000
0000
0000
0000
0000
0000
0000
0001
0000
0000
0000
0000
0000
0000
0000
0000
0000
0000
0100
0000
0000
0000
0000
0000
0000
0000
0000
0000
0000
,
0000
0000
0000
0000
0000
0000
0000
0000
1000
0000
0000
0000
0000
0000
0000
0000
0001
0000
0000
0000
0000
0000
0000
0000
0000
0000
0000
0000
0000
0000
0000
0000
1000
0000
0000
0000
0000
0000
0000
0000
0000
0000
1000
0000
0000
0000
0000
0000
0000
0000
0000
0000
0000
0100
0000
0000
0000
0000
0000
0000
0000
0000
0000
0000
,
0000
0000
0000
0000
0000
0000
0000
0000
0001
0000
0000
0000
0000
0000
0000
0000
1000
0000
0000
0000
0000
0000
0000
0000
0000
0000
0000
0000
0000
0000
0000
0000
0001
0000
0000
0000
0000
0000
0000
0000
0000
0000
0001
0000
0000
0000
0000
0000
0000
0000
0000
0000
0000
0100
0000
0000
0000
0000
0000
0000
0000
0000
0000
0000
,
0000
0000
0000
0000
0000
0000
0000
0000
0010
0000
0000
0000
0000
0000
0000
0000
0100
0000
0000
0000
0000
0000
0000
0000
0000
0000
0000
0000
0000
0000
0000
0000
0100
0000
0000
0000
0000
0000
0000
0000
0000
0000
0100
0000
0000
0000
0000
0000
0000
0000
0000
0000
0000
0001
0000
0000
0000
0000
0000
0000
0000
0000
0000
0000
,
0000
0000
0000
0000
0000
0000
0000
0000
0100
0000
0000
0000
0000
0000
0000
0000
0010
0000
0000
0000
0000
0000
0000
0000
0000
0000
0000
0000
0000
0000
0000
0000
1000
0000
0000
0000
0000
0000
0000
0000
0000
0000
1000
0000
0000
0000
0000
0000
0000
0000
0000
0000
0000
0100
0000
0000
0000
0000
0000
0000
0000
0000
0000
0000
,
0000
0000
0000
0000
0000
0000
0000
0000
1000
0000
0000
0000
0000
0000
0000
0000
0100
0000
0000
0000
0000
0000
0000
0000
0000
0000
0000
0000
0000
0000
0000
0000
0100
0000
0000
0000
0000
0000
0000
0000
0000
0000
0100
0000
0000
0000
0000
0000
0000
0000
0000
0000
0000
0010
0000
0000
0000
0000
0000
0000
0000
0000
0000
0000
,
0000
0000
0000
0000
0000
0000
0000
0000
0001
0000
0000
0000
0000
0000
0000
0000
0100
0000
0000
0000
0000
0000
0000
0000
0000
0000
0000
0000
0000
0000
0000
0000
0100
0000
0000
0000
0000
0000
0000
0000
0000
0000
0100
0000
0000
0000
0000
0000
0000
0000
0000
0000
0000
0010
0000
0000
0000
0000
0000
0000
0000
0000
0000
0000
,
1001
0000
0100
0000
0010
0001
0100
0000
,
1001
0000
0010
0000
0100
1000
0010
0000
,
0001
0100
0010
0000
1000
0100
0010
0000
,
1000
0010
0100
0000
0001
0010
0100
0000
,
0001
0010
1000
0000
0001
0010
1000
0000
,
1000
0100
0001
0000
1000
0100
0001
0000
,
1000
0001
0100
0000
0001
1000
0100
0000
,
0001
1000
0010
0000
1000
0001
0010
0000
,
0010
0001
1000
0100
0010
0000
0000
0000
,
0100
1000
0001
0010
0100
0000
0000
0000
,
1000
0100
0010
0001
0100
0000
0000
0000
,
0001
0010
0100
1000
0010
0000
0000
0000
,
0001
1000
0001
1000
0100
0000
0000
0000
,
1000
0001
1000
0001
0010
0000
0000
0000
,
0010
0001
0100
0001
0010
0000
0000
0000
,
0100
1000
0010
1000
0100
0000
0000
0000
,
1001
0000
0000
0000
,
0010
0001
0100
0001
1000
0100
1000
0010
,
1000
0001
0100
0010
1000
0001
0000
0000
,
0100
0100
0100
0100
,
1001
0000
0000
0000
,
0100
1000
0010
1000
0001
0010
0001
0100
,
0001
1000
0010
0100
0001
1000
0000
0000
,
0010
0010
1001
1100
,
0001
0100
0001
0000
1000
0100
1000
0000
,
1000
0010
1000
0000
0001
0010
0001
0000
,
0010
0001
0100
0000
0010
0001
0100
0000
,
0010
0001
0010
0001
0010
0001
0100
0000
,
1000
0010
1000
0000
0001
0010
0001
0000
,
0001
0100
0001
0000
1000
0100
1000
0000
,
0100
1000
0010
0000
0100
1000
0010
0000
,
0100
1000
0100
1000
0100
1000
0010
0000
,
1001
0000
1001
0000
0010
0001
0100
0000
,
1001
0000
1001
0000
0100
1000
0001
0000
,
1001
0000
1001
0000
0010
1000
0100
0000
,
1001
0000
1001
0000
0100
0001
1000
0000
,
1001
0000
1100
0000
0010
0001
0100
0000
,
1001
0000
1010
0000
0100
1000
0001
0000
,
1001
0000
0101
0000
0010
1000
0100
0000
,
1001
0000
0011
0000
0100
0001
1000
0000
,
0000
0000
0000
0000
0000
0000
0000
0000
0001
0000
0000
0000
0000
0000
0000
0000
1000
0000
0000
0000
0000
0000
0000
0000
0000
0000
0000
0000
0000
0000
0000
0000
0001
0000
0000
0000
0000
0000
0000
0000
0000
0000
0001
0000
0000
0000
0000
0000
0000
0000
0000
0000
0000
0010
0000
0000
0000
0000
0000
0000
0000
0000
0000
0000
,
0000
0000
0000
0000
0000
0000
0000
0000
1000
0000
0000
0000
0000
0000
0000
0000
0001
0000
0000
0000
0000
0000
0000
0000
0000
0000
0000
0000
0000
0000
0000
0000
1000
0000
0000
0000
0000
0000
0000
0000
0000
0000
1000
0000
0000
0000
0000
0000
0000
0000
0000
0000
0000
0010
0000
0000
0000
0000
0000
0000
0000
0000
0000
0000
,
0000
0000
0000
0000
0000
0000
0000
0000
0100
0000
0000
0000
0000
0000
0000
0000
0010
0000
0000
0000
0000
0000
0000
0000
0000
0000
0000
0000
0000
0000
0000
0000
0010
0000
0000
0000
0000
0000
0000
0000
0000
0000
0010
0000
0000
0000
0000
0000
0000
0000
0000
0000
0000
1000
0000
0000
0000
0000
0000
0000
0000
0000
0000
0000
,
0000
0000
0000
0000
0000
0000
0000
0000
0010
0000
0000
0000
0000
0000
0000
0000
0100
0000
0000
0000
0000
0000
0000
0000
0000
0000
0000
0000
0000
0000
0000
0000
0001
0000
0000
0000
0000
0000
0000
0000
0000
0000
0001
0000
0000
0000
0000
0000
0000
0000
0000
0000
0000
0010
0000
0000
0000
0000
0000
0000
0000
0000
0000
0000
,
0000
0000
0000
0000
0000
0000
0000
0000
0001
0000
0000
0000
0000
0000
0000
0000
0010
0000
0000
0000
0000
0000
0000
0000
0000
0000
0000
0000
0000
0000
0000
0000
0010
0000
0000
0000
0000
0000
0000
0000
0000
0000
0010
0000
0000
0000
0000
0000
0000
0000
0000
0000
0000
0100
0000
0000
0000
0000
0000
0000
0000
0000
0000
0000
,
0000
0000
0000
0000
0000
0000
0000
0000
1000
0000
0000
0000
0000
0000
0000
0000
0010
0000
0000
0000
0000
0000
0000
0000
0000
0000
0000
0000
0000
0000
0000
0000
0010
0000
0000
0000
0000
0000
0000
0000
0000
0000
0010
0000
0000
0000
0000
0000
0000
0000
0000
0000
0000
0100
0000
0000
0000
0000
0000
0000
0000
0000
0000
0000
,
0000
0000
0000
0000
0000
0000
0000
0000
0001
0000
0000
0000
0000
0000
0000
0000
1000
0000
0000
0000
0000
0000
0000
0000
0000
0000
0000
0000
0000
0000
0000
0000
0110
0000
0000
0000
0000
0000
0000
0000
0000
0000
0110
0000
0000
0000
0000
0000
0000
0000
0000
0000
0000
1001
0000
0000
0000
0000
0000
0000
0000
0000
0000
0000
,
0000
0000
0000
0000
0000
0000
0000
0000
0010
0000
0000
0000
0000
0000
0000
0000
0100
0000
0000
0000
0000
0000
0000
0000
0000
0000
0000
0000
0000
0000
0000
0000
1001
0000
0000
0000
0000
0000
0000
0000
0000
0000
1001
0000
0000
0000
0000
0000
0000
0000
0000
0000
0000
0110
0000
0000
0000
0000
0000
0000
0000
0000
0000
0000
,
1001
0000
0000
0000
,
0001
0100
0010
0000
0010
1000
0100
0000
,
0100
0010
0001
0000
0000
1000
0000
1000
,
0010
0100
0001
0000
0001
0010
0100
0000
,
0100
1000
0010
0000
0000
0010
0000
0010
,
0100
0001
1000
0000
0100
0010
0001
0000
,
0100
0010
1000
0000
0000
0000
0001
0100
,
0010
0100
0001
0000
0000
0000
1000
0010
,
1000
0100
0010
0000
0000
0000
0010
0100
,
1001
0100
0010
0000
,
1000
0010
1000
0000
0000
0100
0000
0100
,
1000
0100
0010
0000
0001
0100
0010
0000
,
0010
1000
0100
0000
0000
0010
0000
0010
,
0001
0100
0010
0000
0010
1000
0100
0000
,
0010
0001
0100
0000
0000
0000
0010
1000
,
0001
0100
0010
0000
0000
0000
0100
0001
,
0000
0000
0100
0000
0000
0000
0100
0010
,
1000
0001
0100
0010
0000
0010
0000
0000
,
0001
0100
0010
1000
0100
0010
0000
0000
,
0001
1000
0010
0100
0000
0100
0000
0000
,
0001
0010
0100
1000
0010
0100
0000
0000
,
0001
0010
0100
1000
0000
1000
0000
0000
,
0001
0100
1000
0100
0001
0010
0000
0000
,
0100
1000
0010
0100
0000
0100
0000
0000
,
0001
0010
1000
0010
0001
0100
0000
0000
,
0001
1000
0001
0000
0010
0000
0100
0000
,
1000
0000
0010
0100
0000
0001
0100
0000
,
0010
0100
0001
1000
0000
0100
0100
0000
,
1000
0000
0010
0100
0000
0001
0100
0000
,
0010
0100
0001
1000
0000
0100
0100
0000
,
1000
0000
0010
0100
0000
0001
0100
0000
,
0010
0100
0001
1000
0000
0100
0100
0000
,
1000
0000
0010
0100
0000
0001
0100
0000
,
0010
0100
0001
1000
0000
0100
0100
0000
,
1001
0000
0000
0110
0000
0000
1001
0000
0000
0000
0000
0000
0000
0000
0000
0000
,
1001
0000
0000
0110
0000
0000
1001
0000
0000
0000
0000
0000
0000
0000
0000
0000
;

//---------------dance-single - ----------------
#NOTES:
     dance-single:
     :
     Hard:
     9:
     0.657,0.746,0.244,0.000,0.236:
0000
0000
0000
0000
,
0000
0000
0000
0000
,
0000
0000
0000
0000
,
0000
0000
0000
0000
,
0010
0000
0001
0000
0100
0000
0001
0100
0000
0010
0000
0100
0001
0000
0100
0000
,
0010
0000
0100
0000
0001
0000
0010
0001
0000
0010
0000
0001
0100
0000
0010
0000
,
1000
0000
0100
0000
0010
0000
0100
0010
0000
0001
0000
0100
0010
0000
1000
0000
,
0100
0000
0010
0000
0001
0000
0100
0010
0000
1000
0000
0100
1000
0000
0001
0000
,
0010
0000
0000
0000
,
1000
0000
0100
0000
0010
0000
0001
0000
0100
0001
0100
0000
0001
0000
0000
0000
,
1000
0000
0100
0000
0010
0000
0001
0000
0100
0001
0100
0000
0001
0000
0000
0000
,
1000
0000
0100
0000
0010
0000
0001
0000
0100
0001
0100
0000
0010
0000
0000
0000
,
1000
0000
0100
0000
0010
0000
0001
0000
0100
0010
0100
0000
0010
0000
0000
0000
,
1000
0000
0001
0000
0100
0000
0010
0000
1001
0100
1000
0000
0100
0000
0000
0000
,
1000
0000
0001
0000
0100
0000
0010
0000
1000
0100
1000
0000
0010
0000
0000
0000
,
1000
0000
0001
0000
0100
0000
0010
0000
1000
0001
0100
0000
0010
0000
0000
0000
,
1000
0000
0100
0000
0010
0000
0001
0000
1000
0010
0100
0000
0001
0000
0000
0000
,
1000
0000
0001
0000
1000
0000
0000
0000
1000
0001
1000
0000
0100
0000
0000
0000
,
1000
0000
0001
0000
0100
0000
0010
0000
1000
0001
1000
0000
0010
0000
0100
0000
,
0001
0000
1000
0000
0001
0000
0000
0000
0001
1000
0001
0000
0100
0000
0000
0000
,
0001
0000
1000
0000
0100
0000
0010
0000
0001
1000
0001
0000
0010
0000
0100
0000
,
1000
0000
0010
0000
0100
0000
0000
0000
0001
1000
0001
0000
0010
0000
0000
0000
,
0100
0000
1000
0000
0010
0000
0100
0000
0001
1000
0001
0000
0010
0000
0100
0000
,
1000
0000
0010
0000
0100
0000
0000
0000
0001
0010
0001
0000
0100
0000
0000
0000
,
0010
0000
1000
0000
0100
0000
0010
0000
0001
1000
0100
0000
0010
0000
0001
0000
,
1001
0100
0000
0100
1001
0010
0000
0010
,
0100
1000
0100
0010
0000
0010
0001
0100
,
0000
0010
1000
0100
0010
0001
0000
1000
,
0000
0100
0010
0001
0100
0010
0100
0010
,
0000
0000
0100
0001
0010
0001
0000
1000
,
0100
0010
0001
0100
0000
0100
0000
0100
,
0010
1000
0100
0010
0001
0100
0010
1000
,
1100
0000
0101
1010
1001
0000
0000
0000
,
0100
0010
0001
0100
0010
0100
0001
0010
,
0100
0010
0001
0100
0001
0010
0100
0010
,
0001
0100
1000
0100
0001
0010
0100
0010
,
0001
0100
0010
0100
0001
0000
0000
0000
,
1001
1001
0110
0000
1000
0010
0100
0010
,
1000
0100
0010
0100
1000
0010
0100
0010
,
1000
0100
0001
0100
1000
0010
0100
0000
,
0001
1000
0100
1000
0001
0100
0001
0010
,
0000
0000
0000
0000
0101
0000
0000
0000
0001
1000
0001
0000
1000
0000
0000
0000
,
0100
0000
0010
0000
0001
0000
0100
0000
0001
0100
0001
0000
1000
0000
0100
0000
,
1000
0000
0001
0000
1000
0000
0000
0000
0100
0010
0100
0000
1000
0000
0000
0000
,
0001
0000
0100
0000
0010
0000
1000
0000
0100
1000
0100
0000
0010
0000
0001
0000
,
0100
0000
0010
0000
1000
0000
0000
0000
0001
0100
0001
0000
1000
0000
0000
0000
,
0100
0000
0010
0000
0001
0000
0100
0000
0010
1000
0010
0000
0100
0000
0001
0000
,
0010
0000
0100
0000
1000
0000
0000
0000
0001
1000
0001
0000
0100
0000
0000
0000
,
0010
0000
1000
0000
0100
0000
0010
0000
0001
0100
0001
0000
0010
0000
0100
0000
,
1001
0100
0000
0010
1001
0100
0000
0100
,
1000
0100
0010
0001
0100
0010
1000
0010
,
0000
1000
0100
0010
0001
0100
0010
1000
,
0100
0100
0010
0001
0100
0010
0010
0010
,
0000
0000
0100
0100
0010
1000
0000
0000
,
1000
0001
0010
0100
1000
0001
0100
0010
,
1000
0100
0010
0001
0100
0010
0100
0010
,
1001
0000
0110
0110
1001
0000
0000
0000
,
1000
0010
0000
1000
0010
0000
1000
0010
0000
1000
0010
0000
1000
0000
0001
0000
,
1000
0001
0000
1000
0001
0000
1000
0001
0000
1000
0001
0000
1000
0000
0001
0000
,
0100
0001
0000
0100
0001
0000
0100
0001
0000
0100
0001
0000
0100
0000
0001
0000
,
0100
0001
0000
0100
0001
0000
0010
0100
0000
0010
0100
0000
1000
0000
0001
0000
,
1000
0001
0000
1000
0001
0000
1000
0001
0000
1000
0001
0000
1000
0000
0001
0000
,
1000
0001
0000
1000
0001
0000
0010
0100
0000
0010
0100
0000
1000
0000
0001
0000
,
1000
0100
0000
0010
0001
0000
0100
0010
0000
1000
0100
0000
0010
0000
0001
0000
,
1001
0000
0000
0100
0100
0100
0000
0000
,
1000
0000
0000
0001
0000
0000
1000
0000
0000
0001
0000
0000
0010
0000
0100
0000
,
1000
0000
0000
0001
0000
0000
1000
0000
0000
0001
0000
0000
0100
0000
0010
0000
,
1000
0000
0000
0001
0000
0000
1000
0000
0000
0001
0000
0000
0010
0000
0100
0000
,
1000
0000
0000
0001
0000
0000
1000
0000
0000
0001
0000
0000
0100
0000
0010
0000
,
1000
0000
0000
0100
0000
0000
0010
0000
0000
0001
0000
0000
0100
0000
0010
0000
,
1000
0000
0000
0100
0000
0000
0010
0000
0000
0001
0000
0000
0100
0000
0010
0000
,
1000
0000
0000
0100
0000
0000
0010
0000
0000
0001
0000
0000
0100
0000
0010
0000
,
1000
0000
0000
0100
0000
0000
0010
0000
0000
0001
0000
0000
0100
0000
0010
0000
,
1000
0100
0001
0100
1000
0100
0001
0100
,
1000
0010
0001
0100
1000
0010
0001
0100
,
0010
0100
0001
0100
0010
0100
0001
0100
,
1000
0010
0100
0001
1000
0010
0100
0001
,
1000
0100
0010
0001
0100
0010
1000
0001
,
0100
0010
1000
0100
0010
0001
0100
0010
,
1000
0001
0100
0010
1000
0001
0100
0010
,
1000
0100
0010
0001
1000
0100
0010
0000
,
1001
0000
0100
0001
1000
0100
0010
1001
,
0000
0000
0100
0001
1000
0100
0010
1001
,
0000
0000
0010
0100
0000
1000
0000
0001
,
0000
0100
0010
0000
0000
0000
0000
0000
,
1001
0000
0100
0001
1000
0100
0010
1001
,
0000
0000
0100
0001
1000
0100
0010
1001
,
0000
0010
0000
0100
0000
0001
0000
1000
,
0000
0001
0100
0000
0000
0010
1000
0100
,
0110
0000
0001
0100
0110
0000
1000
0100
,
0110
0000
0001
0100
0010
1000
0100
0010
,
0011
0000
1000
0100
0010
0001
0000
1100
,
0000
0000
0000
0000
0000
0001
0100
0010
,
1001
0000
0100
0010
1001
0000
0100
0010
,
1001
0000
0100
0010
1000
0100
0010
0001
,
1001
0000
0100
0010
1000
0001
0000
0110
,
0000
0000
0000
0000
,
1000
0000
0000
0001
0000
0000
1000
0000
0000
0001
0000
0000
0010
0000
0100
0000
,
1000
0000
0000
0001
0000
0000
1000
0000
0000
0001
0000
0000
0100
0000
0010
0000
,
1000
0000
0000
0001
0000
0000
1000
0000
0000
0001
0000
0000
0010
0000
0100
0000
,
1000
0000
0000
0001
0000
0000
1000
0000
0000
0001
0000
0000
0100
0000
0010
0000
,
1000
0000
0000
0100
0000
0000
0010
0000
0000
0001
0000
0000
0100
0000
0010
0000
,
1000
0000
0000
0001
0000
0000
0100
0000
0000
0010
0000
0000
1000
0000
0100
0000
,
0010
0000
0000
0001
0000
0000
0100
0000
0000
0010
0000
0000
1000
0000
0100
0000
,
0010
0000
0000
0001
0000
0000
1000
0000
0000
0010
0000
0000
0100
0000
0000
0000
,
0001
0000
1000
0000
0010
1000
0100
0000
,
0010
0001
0100
0000
0010
1000
0100
0000
,
0010
0000
1000
0000
0010
1000
0100
0000
,
0010
1000
0100
0001
0100
1000
0010
0000
,
1000
0000
0100
0000
0001
0001
0100
0000
,
1000
1000
0100
0000
0001
0001
0100
0000
,
1000
0000
0001
0000
0100
0100
1000
0000
,
0010
1000
0100
0001
0100
1000
0010
0000
,
1000
0000
0010
0000
1001
0000
0100
0100
,
0010
0000
0010
0000
1000
0000
0001
0100
,
1000
0100
0001
1000
,
0001
0000
1000
0100
1000
0000
0001
0100
,
0010
0000
0010
0000
1000
0001
0100
0010
,
1000
0000
1000
0000
0010
1000
0100
1000
,
0001
0000
1000
0000
0001
0100
0010
1000
,
0001
1000
0001
0100
0010
1000
0100
1000
,
0001
0001
0100
0001
,
1000
0100
0001
0100
1000
0100
0001
1000
,
0001
1000
0001
1000
,
0010
1000
0100
0001
0100
1000
0010
0001
,
0010
0010
1000
0001
,
0100
1000
0100
0001
0010
0001
0100
1000
,
0100
0001
0010
0001
0100
1000
0100
0001
,
1000
0100
0001
0100
1000
0001
0100
0000
,
0010
0000
0010
0000
1000
0010
0001
0000
,
0010
1000
0001
0001
,
0010
0000
0010
0000
0001
0010
1000
0000
,
0010
0001
1000
0001
,
0010
0000
0010
0000
0100
0001
0010
0000
,
0100
0000
0100
0000
1000
0001
0100
0010
,
1000
0000
1000
0000
1000
0100
0001
0100
,
1000
0010
1000
0100
0001
0100
1000
0010
,
1000
1000
0001
0001
,
1000
0001
1000
0001
,
1000
0010
0001
0010
1000
0100
0010
0001
,
0100
0010
1000
0100
0001
0100
1000
0001
,
1000
1000
0001
0001
,
1000
0001
1000
1000
,
0001
0100
1000
0100
0001
1000
0100
0001
,
0100
1000
0010
1000
0100
1000
0001
0000
,
1000
0010
1000
0001
0010
0001
0100
0001
,
0100
1000
0100
1000
0100
0001
0010
0001
,
0010
0001
0100
1000
0100
0001
1000
0100
,
1000
0100
1000
0100
0001
0100
0001
0100
,
0001
0100
1000
0100
1000
0100
1000
0100
,
0001
0100
0001
0100
0001
0100
1000
0001
,
0100
0001
0100
0001
0100
1000
0100
0001
,
0010
0001
0010
0001
0100
0010
1000
0100
,
1001
0000
0000
0000
,
0100
0000
1000
0000
0010
0000
1000
0000
0001
0010
0000
0000
0001
0010
0001
0000
,
1000
0100
0010
0100
1000
0001
0000
0000
,
0000
0000
0000
0000
0000
0000
0000
0000
1000
0000
0000
0000
0000
0000
0000
0000
0001
0000
0000
0000
0000
0000
0000
0000
0000
0000
0000
0000
0000
0000
0000
0000
1000
0000
0000
0000
0000
0000
0000
0000
0000
0000
1000
0000
0000
0000
0000
0100
0000
0000
0000
0000
0000
1000
0000
0000
0000
0000
0100
0000
0000
0000
0000
0000
,
0000
0000
0000
0000
0000
0000
0000
0000
0001
0000
0000
0000
0000
0000
0000
0000
1000
0000
0000
0000
0000
0000
0000
0000
0000
0000
0000
0000
0000
0000
0000
0000
0001
0000
0000
0000
0000
0000
0000
0000
0000
0000
0001
0000
0000
0000
0000
0100
0000
0000
0000
0000
0000
0001
0000
0000
0000
0000
0100
0000
0000
0000
0000
0000
,
0000
0000
0000
0000
0000
0000
0000
0000
1000
0000
0000
0000
0000
0000
0000
0000
0001
0000
0000
0000
0000
0000
0000
0000
0000
0000
0000
0000
0000
0000
0000
0000
1000
0000
0000
0000
0000
0000
0000
0000
0000
0000
1000
0000
0000
0000
0000
0100
0000
0000
0000
0000
0000
1000
0000
0000
0000
0000
0100
0000
0000
0000
0000
0000
,
0000
0000
0000
0000
0000
0000
0000
0000
0001
0000
0000
0000
0000
0000
0000
0000
1000
0000
0000
0000
0000
0000
0000
0000
0000
0000
0000
0000
0000
0000
0000
0000
0001
0000
0000
0000
0000
0000
0000
0000
0000
0000
0001
0000
0000
0000
0000
0100
0000
0000
0000
0000
0000
0001
0000
0000
0000
0000
0100
0000
0000
0000
0000
0000
,
0000
0000
0000
0000
0000
0000
0000
0000
0010
0000
0000
0000
0000
0000
0000
0000
0100
0000
0000
0000
0000
0000
0000
0000
0000
0000
0000
0000
0000
0000
0000
0000
0100
0000
0000
0000
0000
0000
0000
0000
0000
0000
0001
0000
0000
0000
0000
1000
0000
0000
0000
0000
0000
0001
0000
0000
0000
0000
1000
0000
0000
0000
0000
0000
,
0000
0000
0000
0000
0000
0000
0000
0000
0100
0000
0000
0000
0000
0000
0000
0000
0010
0000
0000
0000
0000
0000
0000
0000
0000
0000
0000
0000
0000
0000
0000
0000
1000
0000
0000
0000
0000
0000
0000
0000
0000
0000
1000
0000
0000
0000
0000
0001
0000
0000
0000
0000
0000
0100
0000
0000
0000
0000
0001
0000
0000
0000
0000
0000
,
0000
0000
0000
0000
0000
0000
0000
0000
1000
0000
0000
0000
0000
0000
0000
0000
0100
0000
0000
0000
0000
0000
0000
0000
0000
0000
0000
0000
0000
0000
0000
0000
0100
0000
0000
0000
0000
0000
0000
0000
0000
0000
0100
0000
0000
0000
0000
0010
0000
0000
0000
0000
0000
0100
0000
0000
0000
0000
0010
0000
0000
0000
0000
0000
,
0000
0000
0000
0000
0000
0000
0000
0000
0001
0000
0000
0000
0000
0000
0000
0000
0100
0000
0000
0000
0000
0000
0000
0000
0000
0000
0000
0000
0000
0000
0000
0000
0100
0000
0000
0000
0000
0000
0000
0000
0000
0000
0010
0000
0000
0000
0000
1000
0000
0000
0000
0000
0000
0010
0000
0000
0000
0000
1000
0000
0000
0000
0000
0000
,
1001
0000
0101
0000
0010
0001
0100
0000
,
1001
0000
1100
0000
0010
1000
0100
0000
,
0001
0100
0010
0001
1000
0100
0010
0000
,
1000
0100
0010
1000
0001
0100
0010
0000
,
0001
0010
1000
0001
0001
0010
1000
0000
,
1000
0010
0001
1000
1000
0010
0001
0000
,
1000
0001
0100
0100
0001
1000
0100
0000
,
0001
1000
0100
0100
1000
0001
0100
0000
,
0010
0001
1000
0100
0010
0001
0001
0000
,
0010
1000
0001
0100
0010
1000
1000
0000
,
1000
0100
0010
0001
0100
0001
0001
0000
,
0001
0100
0010
1000
0100
1000
1000
0000
,
0001
1000
0001
1000
0100
0010
0010
0000
,
1000
0001
1000
0001
0100
0010
0010
0000
,
0010
0001
0010
0000
0001
0000
1000
0000
0100
0000
0000
0000
0000
0000
0000
0000
,
0010
1000
0010
0000
1000
0000
0001
0000
0100
0000
0000
0000
0000
0000
0000
0000
,
1001
0000
0000
0000
,
0100
0000
1000
0000
0010
0000
1000
0000
0001
0010
0000
0000
0001
0010
0001
0000
,
1000
0100
0010
0100
1000
0001
0000
0000
,
0000
0000
0000
0000
,
1001
0000
0000
0000
,
0100
0000
0001
0000
0010
0000
0001
0000
1000
0010
0000
0000
1000
0010
1000
0000
,
0001
0100
0010
0100
0001
1000
0000
0000
,
0010
0000
0000
0000
0010
0000
0000
0000
0100
1000
0000
0000
0001
0010
0000
0000
,
0001
0100
0001
0001
1000
0100
1000
0000
,
1000
0100
1000
1000
0001
0100
0001
0000
,
0010
0100
1001
0000
0010
0100
1001
0000
,
0010
0100
0010
0100
0010
0100
1001
0000
,
1000
0100
1000
1000
0001
0100
0001
0000
,
0001
0100
0001
0001
1000
0100
1000
0000
,
0100
0010
1001
0000
0100
0010
1001
0000
,
0100
0010
0100
0010
0100
0010
1001
0000
,
0000
1010
0000
1001
0100
0010
0001
0100
,
0000
0101
0000
1001
0100
0010
1000
0001
,
0000
1100
0000
1001
0100
0010
0001
1000
,
0000
0011
0000
1001
0100
0010
1000
0100
,
0000
0011
0000
1001
0100
0010
1000
0100
,
0000
1100
0000
1001
0100
0010
0001
1000
,
0000
0101
0000
1001
0100
0010
1000
0001
,
0000
1010
0000
1001
0100
0010
0001
0100
,
0000
0000
0000
0000
0000
0000
0000
0000
0001
0000
0000
0000
0000
0000
0000
0000
1000
0000
0000
0000
0000
0000
0000
0000
0000
0000
0000
0000
0000
0000
0000
0000
0001
0000
0000
0000
0000
0000
0000
0000
0000
0000
0001
0000
0000
0000
0000
0100
0000
0000
0000
0000
0000
0001
0000
0000
0000
0000
0100
0000
0000
0000
0000
0000
,
0000
0000
0000
0000
0000
0000
0000
0000
1000
0000
0000
0000
0000
0000
0000
0000
0001
0000
0000
0000
0000
0000
0000
0000
0000
0000
0000
0000
0000
0000
0000
0000
1000
0000
0000
0000
0000
0000
0000
0000
0000
0000
1000
0000
0000
0000
0000
0100
0000
0000
0000
0000
0000
1000
0000
0000
0000
0000
0100
0000
0000
0000
0000
0000
,
0000
0000
0000
0000
0000
0000
0000
0000
0010
0000
0000
0000
0000
0000
0000
0000
0100
0000
0000
0000
0000
0000
0000
0000
0000
0000
0000
0000
0000
0000
0000
0000
0100
0000
0000
0000
0000
0000
0000
0000
0000
0000
1000
0000
0000
0000
0000
0001
0000
0000
0000
0000
0000
1000
0000
0000
0000
0000
0001
0000
0000
0000
0000
0000
,
0000
0000
0000
0000
0000
0000
0000
0000
0100
0000
0000
0000
0000
0000
0000
0000
0010
0000
0000
0000
0000
0000
0000
0000
0000
0000
0000
0000
0000
0000
0000
0000
0001
0000
0000
0000
0000
0000
0000
0000
0000
0000
0001
0000
0000
0000
0000
1000
0000
0000
0000
0000
0000
0100
0000
0000
0000
0000
1000
0000
0000
0000
0000
0000
,
0000
0000
0000
0000
0000
0000
0000
0000
0001
0000
0000
0000
0000
0000
0000
0000
0100
0000
0000
0000
0000
0000
0000
0000
0000
0000
0000
0000
0000
0000
0000
0000
0100
0000
0000
0000
0000
0000
0000
0000
0000
0000
0100
0000
0000
0000
0000
0010
0000
0000
0000
0000
0000
0100
0000
0000
0000
0000
0010
0000
0000
0000
0000
0000
,
0000
0000
0000
0000
0000
0000
0000
0000
1000
0000
0000
0000
0000
0000
0000
0000
0100
0000
0000
0000
0000
0000
0000
0000
0000
0000
0000
0000
0000
0000
0000
0000
0100
0000
0000
0000
0000
0000
0000
0000
0000
0000
0010
0000
0000
0000
0000
0001
0000
0000
0000
0000
0000
0010
0000
0000
0000
0000
0001
0000
0000
0000
0000
0000
,
0000
0000
0000
0000
0000
0000
0000
0000
0001
0000
0000
0000
0000
0000
0000
0000
1000
0000
0000
0000
0000
0000
0000
0000
0000
0000
0000
0000
0000
0000
0000
0000
0110
0000
0000
0000
0000
0000
0000
0000
0000
0000
0010
0000
0000
0000
0000
0100
0000
0000
0000
0000
0000
0001
0000
0000
0000
0000
1000
0000
0000
0000
0000
0000
,
0000
0000
0000
0000
0000
0000
0000
0000
0010
0000
0000
0000
0000
0000
0000
0000
0100
0000
0000
0000
0000
0000
0000
0000
0000
0000
0000
0000
0000
0000
0000
0000
1001
0000
0000
0000
0000
0000
0000
0000
0000
0000
1000
0000
0000
0000
0000
0001
0000
0000
0000
0000
0000
0100
0000
0000
0000
0000
0010
0000
0000
0000
0000
0000
,
1001
0000
0000
0000
,
1000
0100
0010
0001
0100
0001
0100
0010
,
1000
0100
0010
0100
1000
0001
0000
0001
,
1000
0010
0100
0001
0010
0100
1000
0010
,
0100
0001
0010
0100
1000
0010
0000
0010
,
0100
0001
0010
0100
1000
0010
0100
0001
,
0010
0100
1000
0010
0100
0010
0000
0010
,
0100
0001
0010
0100
1000
0010
0100
0001
,
0010
0100
1000
0010
0100
0001
0000
0001
,
0010
0100
0010
0000
1001
0000
0000
0000
,
0001
0100
0001
0010
0100
1000
0000
1000
,
0010
0100
0001
0010
0100
0010
0100
1000
,
0010
0100
0001
0010
0100
1000
0000
1000
,
0100
0010
0001
0100
0010
0100
0001
0010
,
0100
1000
0100
0010
0001
0100
0000
0100
,
0010
1000
0100
0010
0001
0100
0010
0100
,
0001
0010
0100
1000
0001
0100
0000
0100
,
0001
1000
0100
0010
0000
1001
0000
0000
,
0100
0100
0100
0010
0010
0010
0000
0000
,
0001
1000
0010
0100
0000
1001
0000
0000
,
0100
0100
0100
0100
0010
0010
0000
0000
,
0001
0100
0010
1000
0000
1100
0000
0000
,
0001
0100
0100
0100
0100
0100
0000
0000
,
0010
1000
0100
0010
0000
0101
0000
0000
,
0100
0100
0100
0100
0100
0100
0000
0000
,
1000
0100
0001
0000
1001
0000
1001
0000
,
0010
1000
0010
0100
0000
1001
0000
0000
,
0100
0010
0100
1000
0000
1001
0000
0000
,
1000
0100
0010
0001
0000
1100
0000
0000
,
0001
0100
0001
0010
0000
0110
0000
0000
,
1000
0001
0100
0010
0000
1001
0000
0000
,
0100
0010
0001
0100
0000
0110
0000
0000
,
1000
0100
0010
0001
0000
0101
0000
0000
,
0010
1000
0100
0010
0000
0011
0000
0000
,
1001
0000
0000
0101
0000
0000
0101
0000
0000
0000
0010
0000
1000
0000
0100
0000
,
1001
0000
0000
1001
0000
0000
0110
0000
0110
0000
0000
0000
0000
0000
0000
0000
;

//---------------dance-single - ----------------
#NOTES:
     dance-single:
     :
     Challenge:
     9:
     0.658,0.746,0.310,0.041,0.240:
0000
0000
0000
0000
,
0000
0000
0000
0000
,
0000
0000
0000
0000
,
0000
0000
0000
0000
,
1000
0100
0001
0100
1000
0010
0100
0100
,
0001
0100
1000
0100
0001
0010
0100
0100
,
1000
0010
0001
0010
1000
0100
0010
0010
,
0001
0010
1000
0010
0001
0100
0010
0010
,
2002
0000
0000
3003
,
1000
0000
0100
0000
1100
0000
0000
0000
0001
0010
0001
0000
1000
0000
0000
0000
,
0001
0100
0101
0000
0010
1000
1010
0000
,
0100
0010
0100
1000
0100
0001
1001
0000
,
1000
0100
1100
0000
0010
0001
0011
0000
,
0100
0000
0010
0000
1000
0000
0000
0000
0100
0010
0100
0000
0101
0000
0000
0000
,
0100
0000
1000
0000
0010
0000
0001
0000
1000
0100
0010
0000
0110
0000
0000
0000
,
1000
0010
0001
0010
0100
0001
1001
0000
,
0100
0010
1010
0000
0010
0100
0101
0000
,
1100
0000
0101
0000
0010
0010
0010
0000
,
0100
1000
0100
0010
0100
0001
1000
0000
,
0010
0000
0001
1000
0001
0000
0000
0000
0100
0000
1000
0001
1000
0000
0000
0000
,
0100
0010
1000
0000
0001
0000
0000
0000
0100
0010
0001
0000
1000
0000
0000
0000
,
0100
0010
0011
0000
1000
1000
1001
0000
,
1000
0100
0010
0000
0100
0001
1000
0000
,
0010
0100
0110
0000
1000
0001
1001
0000
,
0001
0100
0000
0000
0010
1000
0000
0000
0001
0000
0100
0000
0010
0000
0010
0000
,
1000
0100
0000
0000
0110
0000
0000
0000
0001
0100
0000
0000
0110
0000
0000
0000
,
0001
0100
0001
0010
0000
0001
1000
0001
,
0010
0000
0100
1000
0100
0000
0010
0000
0001
0000
0100
0000
1000
0000
0100
0000
,
0001
0000
0010
0100
0010
0000
0001
0000
0101
0000
0000
0000
1010
0000
0000
0000
,
0100
0101
1100
0100
,
0010
0100
0010
0001
0010
1000
1001
0000
,
1000
0100
0010
0000
0001
0000
0001
0000
0001
0100
0010
0000
1000
0000
1000
0000
,
1000
0100
0000
0000
1000
0001
0000
0000
0201
0000
0010
0000
0310
0000
0000
0000
,
2100
0100
3001
0000
0000
0010
0100
1000
,
0000
0010
0100
0001
0000
1000
0000
0100
,
0000
0010
0001
0000
0000
0100
0010
2000
,
0000
0000
3001
0000
0000
0100
1000
0000
,
0102
0000
0100
0000
1003
0000
0000
0000
0000
0000
0010
0000
0000
0001
0000
0000
,
0000
0010
0100
1000
0000
0001
0100
0000
,
0000
0010
1000
0000
0000
0010
0100
0001
,
0110
1010
1001
0011
,
0010
0100
0000
0000
1000
0100
0000
0000
0010
0001
0010
0000
1001
0000
0000
0000
,
0100
0010
0100
0000
0001
0000
0001
0000
0010
0100
0010
0000
0001
0000
0000
0000
,
1000
0100
1100
0000
0010
0001
0011
0000
,
1000
0100
1000
0000
0001
0000
0000
0000
0001
0100
0001
0000
1000
0000
0000
0000
,
0100
0010
0011
0000
0100
1000
1100
0000
,
0100
0001
0100
1000
0010
0100
0110
0000
,
0010
1000
1010
0000
0001
0100
0101
0000
,
1000
0100
0000
1000
0001
0000
1000
0010
0000
0100
0000
0000
1001
0000
0000
0000
,
0100
0000
0000
0000
0010
1000
0000
0000
0001
0100
0000
0000
0010
0000
0010
0000
,
1000
0100
0001
1000
0000
0010
0001
0100
,
0000
0010
1000
0100
0001
0100
0000
0010
,
0000
0000
0001
0000
0100
0000
0010
0000
1000
0100
1000
0000
0001
0000
0001
0000
,
0100
0000
0000
0000
0010
1000
0000
0000
0100
0001
0000
0000
0010
0000
0000
0000
,
0100
0000
1000
0000
0001
0000
0100
0000
0000
0000
0001
0100
0001
0000
1000
0000
,
0100
0010
0100
0000
0001
0000
0001
0000
0100
0010
0100
0000
1000
0000
1000
0000
,
0001
0100
0000
0000
0010
1000
0000
0000
0200
0000
0000
0000
0300
0000
0000
0000
,
1000
0010
0000
1000
0010
0000
1000
0010
0000
1000
0010
0000
1000
0000
0001
0000
,
1000
0001
0000
1000
0001
0000
1000
0001
0000
1000
0001
0000
1000
0000
0001
0000
,
0100
0001
0000
0100
0001
0000
0100
0001
0000
0100
0001
0000
0100
0000
0001
0000
,
0100
0001
0000
0100
0001
0000
0010
0100
0000
0010
0100
0000
1000
0000
0001
0000
,
1000
0001
0000
1000
0001
0000
1000
0001
0000
1000
0001
0000
1000
0000
0001
0000
,
1000
0001
0000
1000
0001
0000
0010
0100
0000
0010
0100
0000
1000
0000
0001
0000
,
1000
0100
0000
0010
0001
0000
0100
0010
0000
1000
0100
0000
0010
0000
0001
0000
,
1001
0000
0000
0100
0100
0100
0000
0000
,
1000
0000
0000
0001
0000
0000
1000
0000
0000
0001
0000
0000
0010
0000
0100
0000
,
1000
0000
0000
0001
0000
0000
1000
0000
0000
0001
0000
0000
0100
0000
0010
0000
,
1000
0000
0000
0001
0000
0000
1000
0000
0000
0001
0000
0000
0010
0000
0100
0000
,
1000
0000
0000
0001
0000
0000
1000
0000
0000
0001
0000
0000
0100
0000
0010
0000
,
1000
0000
0000
0100
0000
0000
0010
0000
0000
0001
0000
0000
0100
0000
0010
0000
,
1000
0000
0000
0100
0000
0000
0010
0000
0000
0001
0000
0000
0100
0000
0010
0000
,
1000
0000
0000
0100
0000
0000
0010
0000
0000
0001
0000
0000
0100
0000
0010
0000
,
1000
0000
0000
0100
0000
0000
0010
0000
0000
0001
0000
0000
0100
0000
0010
0000
,
1000
0100
0001
0100
1000
0100
0001
0100
,
1000
0010
0001
0100
1000
0010
0001
0100
,
0010
0100
0001
0100
0010
0100
0001
0100
,
1000
0010
0100
0001
1000
0010
0100
0001
,
1000
0100
0010
0001
0100
0010
1000
0001
,
0100
0010
1000
0100
0010
0001
0100
0010
,
1000
0001
0100
0010
1000
0001
0100
0010
,
1000
0100
0010
0001
1000
0100
0010
0000
,
1001
0000
0100
0001
1000
0100
0010
1001
,
0000
0000
0100
0001
1000
0100
0010
1001
,
0000
0000
0010
0100
0000
1000
0000
0001
,
0000
0100
0010
0000
0000
0000
0000
0000
,
1001
0000
0100
0001
1000
0100
0010
1001
,
0000
0000
0100
0001
1000
0100
0010
1001
,
0000
0010
0000
0100
0000
0001
0000
1000
,
0000
0001
0100
0000
0000
0010
1000
0100
,
0110
0000
0001
0100
0110
0000
1000
0100
,
0110
0000
0001
0100
0010
1000
0100
0010
,
0011
0000
1000
0100
0010
0001
0000
1100
,
0000
0000
0000
0000
0000
0001
0100
0010
,
1001
0000
0100
0010
1001
0000
0100
0010
,
1001
0000
0100
0010
1000
0100
0010
0001
,
1001
0000
0100
0010
1000
0001
0000
0110
,
0000
0000
0000
0000
,
1000
0000
0000
0001
0000
0000
1000
0000
0000
0001
0000
0000
0010
0000
0100
0000
,
1000
0000
0000
0001
0000
0000
1000
0000
0000
0001
0000
0000
0100
0000
0010
0000
,
1000
0000
0000
0001
0000
0000
1000
0000
0000
0001
0000
0000
0010
0000
0100
0000
,
1000
0000
0000
0001
0000
0000
1000
0000
0000
0001
0000
0000
0100
0000
0010
0000
,
1000
0000
0000
0100
0000
0000
0010
0000
0000
0001
0000
0000
0100
0000
0010
0000
,
1000
0000
0000
0001
0000
0000
0100
0000
0000
0010
0000
0000
1000
0000
0100
0000
,
0010
0000
0000
0001
0000
0000
0100
0000
0000
0010
0000
0000
1000
0000
0100
0000
,
0010
0000
0000
0001
0000
0000
1000
0000
0000
0010
0000
0000
0100
0000
0000
0000
,
0001
0000
1000
0000
0010
1000
0100
0000
,
0010
0001
0100
0000
0010
1000
0100
0000
,
0010
0000
1000
0000
0010
1000
0100
0000
,
0010
1000
0100
0001
0100
1000
0010
0000
,
1000
0000
0100
0000
0001
0001
0100
0000
,
1000
1000
0100
0000
0001
0001
0100
0000
,
1000
0000
0001
0000
0100
0100
1000
0000
,
0010
1000
0100
0001
0100
1000
0010
0000
,
1000
0000
0010
0000
1001
0000
0100
0100
,
0010
0000
0010
0000
1000
0000
0001
0100
,
1000
0100
0001
1000
,
0001
0000
1000
0100
1000
0000
0001
0100
,
0010
0000
0010
0000
1000
0001
0100
0010
,
1000
0000
1000
0000
0010
1000
0100
1000
,
0001
0000
1000
0000
0001
0100
0010
1000
,
0001
1000
0001
0100
0010
1000
0100
1000
,
0001
0001
0100
0001
,
1000
0100
0001
0100
1000
0100
0001
1000
,
0001
1000
0001
1000
,
0010
1000
0100
0001
0100
1000
0010
0001
,
0010
0010
1000
0001
,
0100
1000
0100
0001
0010
0001
0100
1000
,
0100
0001
0010
0001
0100
1000
0100
0001
,
1000
0100
0001
0100
1000
0001
0100
0000
,
0010
0000
0010
0000
1000
0010
0001
0000
,
0010
1000
0001
0001
,
0010
0000
0010
0000
0001
0010
1000
0000
,
0010
0001
1000
0001
,
0010
0000
0010
0000
0100
0001
0010
0000
,
0100
0000
0100
0000
1000
0001
0100
0010
,
1000
0000
1000
0000
1000
0100
0001
0100
,
1000
0010
1000
0100
0001
0100
1000
0010
,
1000
1000
0001
0001
,
1000
0001
1000
0001
,
1000
0010
0001
0010
1000
0100
0010
0001
,
0100
0010
1000
0100
0001
0100
1000
0001
,
1000
1000
0001
0001
,
1000
0001
1000
1000
,
0001
0100
1000
0100
0001
1000
0100
0001
,
0100
1000
0010
1000
0100
1000
0001
0000
,
1000
0010
1000
0001
0010
0001
0100
0001
,
0100
1000
0100
1000
0100
0001
0010
0001
,
0010
0001
0100
1000
0100
0001
1000
0100
,
1000
0100
1000
0100
0001
0100
0001
0100
,
0001
0100
1000
0100
1000
0100
1000
0100
,
0001
0100
0001
0100
0001
0100
1000
0001
,
0100
0001
0100
0001
0100
1000
0100
0001
,
0010
0001
0010
0001
0100
0010
1000
0100
,
2002
0000
0000
3003
,
0100
0000
1000
0000
0010
0000
1000
0000
0001
0010
0000
0000
0001
0010
0001
0000
,
1000
0100
0010
0100
1000
0001
0000
0000
,
0000
0000
0000
0000
0000
0000
0000
0000
1000
0000
0000
0000
0000
0000
0000
0000
0001
0000
0000
0000
0000
0000
0000
0000
0000
0000
0000
0000
0000
0000
0000
0000
1000
0000
0000
0000
0000
0000
0000
0000
0000
0000
1000
0000
0000
0000
0000
0100
0000
0000
0000
0000
0000
1000
0000
0000
0000
0000
0100
0000
0000
0000
0000
0000
,
0000
0000
0000
0000
0000
0000
0000
0000
0001
0000
0000
0000
0000
0000
0000
0000
1000
0000
0000
0000
0000
0000
0000
0000
0000
0000
0000
0000
0000
0000
0000
0000
0001
0000
0000
0000
0000
0000
0000
0000
0000
0000
0001
0000
0000
0000
0000
0100
0000
0000
0000
0000
0000
0001
0000
0000
0000
0000
0100
0000
0000
0000
0000
0000
,
0000
0000
0000
0000
0000
0000
0000
0000
1000
0000
0000
0000
0000
0000
0000
0000
0001
0000
0000
0000
0000
0000
0000
0000
0000
0000
0000
0000
0000
0000
0000
0000
1000
0000
0000
0000
0000
0000
0000
0000
0000
0000
1000
0000
0000
0000
0000
0100
0000
0000
0000
0000
0000
1000
0000
0000
0000
0000
0100
0000
0000
0000
0000
0000
,
0000
0000
0000
0000
0000
0000
0000
0000
0001
0000
0000
0000
0000
0000
0000
0000
1000
0000
0000
0000
0000
0000
0000
0000
0000
0000
0000
0000
0000
0000
0000
0000
0001
0000
0000
0000
0000
0000
0000
0000
0000
0000
0001
0000
0000
0000
0000
0100
0000
0000
0000
0000
0000
0001
0000
0000
0000
0000
0100
0000
0000
0000
0000
0000
,
0000
0000
0000
0000
0000
0000
0000
0000
0010
0000
0000
0000
0000
0000
0000
0000
0100
0000
0000
0000
0000
0000
0000
0000
0000
0000
0000
0000
0000
0000
0000
0000
0100
0000
0000
0000
0000
0000
0000
0000
0000
0000
0001
0000
0000
0000
0000
1000
0000
0000
0000
0000
0000
0001
0000
0000
0000
0000
1000
0000
0000
0000
0000
0000
,
0000
0000
0000
0000
0000
0000
0000
0000
0100
0000
0000
0000
0000
0000
0000
0000
0010
0000
0000
0000
0000
0000
0000
0000
0000
0000
0000
0000
0000
0000
0000
0000
1000
0000
0000
0000
0000
0000
0000
0000
0000
0000
1000
0000
0000
0000
0000
0001
0000
0000
0000
0000
0000
0100
0000
0000
0000
0000
0001
0000
0000
0000
0000
0000
,
0000
0000
0000
0000
0000
0000
0000
0000
1000
0000
0000
0000
0000
0000
0000
0000
0100
0000
0000
0000
0000
0000
0000
0000
0000
0000
0000
0000
0000
0000
0000
0000
0100
0000
0000
0000
0000
0000
0000
0000
0000
0000
0100
0000
0000
0000
0000
0010
0000
0000
0000
0000
0000
0100
0000
0000
0000
0000
0010
0000
0000
0000
0000
0000
,
0000
0000
0000
0000
0000
0000
0000
0000
0001
0000
0000
0000
0000
0000
0000
0000
0100
0000
0000
0000
0000
0000
0000
0000
0000
0000
0000
0000
0000
0000
0000
0000
0100
0000
0000
0000
0000
0000
0000
0000
0000
0000
0010
0000
0000
0000
0000
1000
0000
0000
0000
0000
0000
0010
0000
0000
0000
0000
1000
0000
0000
0000
0000
0000
,
1001
0000
0101
0000
0010
0001
0100
0000
,
1001
0000
1100
0000
0010
1000
0100
0000
,
0001
0100
0010
0001
1000
0100
0010
0000
,
1000
0100
0010
1000
0001
0100
0010
0000
,
0001
0010
1000
0001
0001
0010
1000
0000
,
1000
0010
0001
1000
1000
0010
0001
0000
,
1000
0001
0100
0100
0001
1000
0100
0000
,
0001
1000
0100
0100
1000
0001
0100
0000
,
0010
0001
1000
0100
0010
0001
0001
0000
,
0010
1000
0001
0100
0010
1000
1000
0000
,
1000
0100
0010
0001
0100
0001
0001
0000
,
0001
0100
0010
1000
0100
1000
1000
0000
,
0001
1000
0001
1000
0100
0010
0010
0000
,
1000
0001
1000
0001
0100
0010
0010
0000
,
0010
0001
0010
0000
0001
0000
1000
0000
0100
0000
0000
0000
0000
0000
0000
0000
,
0010
1000
0010
0000
1000
0000
0001
0000
0100
0000
0000
0000
0000
0000
0000
0000
,
2002
0000
0000
3003
,
0100
0000
1000
0000
0010
0000
1000
0000
0001
0010
0000
0000
0001
0010
0001
0000
,
1000
0100
0010
0100
1000
0001
0000
0000
,
0000
0000
0000
0000
,
2002
0000
0000
3003
,
0100
0000
0001
0000
0010
0000
0001
0000
1000
0010
0000
0000
1000
0010
1000
0000
,
0001
0100
0010
0100
0001
1000
0000
0000
,
0010
0000
0000
0000
0010
0000
0000
0000
0100
1000
0000
0000
0001
0010
0000
0000
,
0001
0100
0001
0001
1000
0100
1000
0000
,
1000
0100
1000
1000
0001
0100
0001
0000
,
0010
0100
1001
0000
0010
0100
1001
0000
,
0010
0100
0010
0100
0010
0100
1001
0000
,
1000
0100
1000
1000
0001
0100
0001
0000
,
0001
0100
0001
0001
1000
0100
1000
0000
,
0100
0010
1001
0000
0100
0010
1001
0000
,
0100
0010
0100
0010
0100
0010
1001
0000
,
0000
1010
0000
1001
0100
0010
0001
0100
,
0000
0101
0000
1001
0100
0010
1000
0001
,
0000
1100
0000
1001
0100
0010
0001
1000
,
0000
0011
0000
1001
0100
0010
1000
0100
,
0000
0011
0000
1001
0100
0010
1000
0100
,
0000
1100
0000
1001
0100
0010
0001
1000
,
0000
0101
0000
1001
0100
0010
1000
0001
,
0000
1010
0000
1001
0100
0010
0001
0100
,
0000
0000
0000
0000
0000
0000
0000
0000
0001
0000
0000
0000
0000
0000
0000
0000
1000
0000
0000
0000
0000
0000
0000
0000
0000
0000
0000
0000
0000
0000
0000
0000
0001
0000
0000
0000
0000
0000
0000
0000
0000
0000
0001
0000
0000
0000
0000
0100
0000
0000
0000
0000
0000
0001
0000
0000
0000
0000
0100
0000
0000
0000
0000
0000
,
0000
0000
0000
0000
0000
0000
0000
0000
1000
0000
0000
0000
0000
0000
0000
0000
0001
0000
0000
0000
0000
0000
0000
0000
0000
0000
0000
0000
0000
0000
0000
0000
1000
0000
0000
0000
0000
0000
0000
0000
0000
0000
1000
0000
0000
0000
0000
0100
0000
0000
0000
0000
0000
1000
0000
0000
0000
0000
0100
0000
0000
0000
0000
0000
,
0000
0000
0000
0000
0000
0000
0000
0000
0010
0000
0000
0000
0000
0000
0000
0000
0100
0000
0000
0000
0000
0000
0000
0000
0000
0000
0000
0000
0000
0000
0000
0000
0100
0000
0000
0000
0000
0000
0000
0000
0000
0000
1000
0000
0000
0000
0000
0001
0000
0000
0000
0000
0000
1000
0000
0000
0000
0000
0001
0000
0000
0000
0000
0000
,
0000
0000
0000
0000
0000
0000
0000
0000
0100
0000
0000
0000
0000
0000
0000
0000
0010
0000
0000
0000
0000
0000
0000
0000
0000
0000
0000
0000
0000
0000
0000
0000
0001
0000
0000
0000
0000
0000
0000
0000
0000
0000
0001
0000
0000
0000
0000
1000
0000
0000
0000
0000
0000
0100
0000
0000
0000
0000
1000
0000
0000
0000
0000
0000
,
0000
0000
0000
0000
0000
0000
0000
0000
0001
0000
0000
0000
0000
0000
0000
0000
0100
0000
0000
0000
0000
0000
0000
0000
0000
0000
0000
0000
0000
0000
0000
0000
0100
0000
0000
0000
0000
0000
0000
0000
0000
0000
0100
0000
0000
0000
0000
0010
0000
0000
0000
0000
0000
0100
0000
0000
0000
0000
0010
0000
0000
0000
0000
0000
,
0000
0000
0000
0000
0000
0000
0000
0000
1000
0000
0000
0000
0000
0000
0000
0000
0100
0000
0000
0000
0000
0000
0000
0000
0000
0000
0000
0000
0000
0000
0000
0000
0100
0000
0000
0000
0000
0000
0000
0000
0000
0000
0010
0000
0000
0000
0000
0001
0000
0000
0000
0000
0000
0010
0000
0000
0000
0000
0001
0000
0000
0000
0000
0000
,
0000
0000
0000
0000
0000
0000
0000
0000
0001
0000
0000
0000
0000
0000
0000
0000
1000
0000
0000
0000
0000
0000
0000
0000
0000
0000
0000
0000
0000
0000
0000
0000
0110
0000
0000
0000
0000
0000
0000
0000
0000
0000
0010
0000
0000
0000
0000
0100
0000
0000
0000
0000
0000
0001
0000
0000
0000
0000
1000
0000
0000
0000
0000
0000
,
0000
0000
0000
0000
0000
0000
0000
0000
0010
0000
0000
0000
0000
0000
0000
0000
0100
0000
0000
0000
0000
0000
0000
0000
0000
0000
0000
0000
0000
0000
0000
0000
1001
0000
0000
0000
0000
0000
0000
0000
0000
0000
1000
0000
0000
0000
0000
0001
0000
0000
0000
0000
0000
0100
0000
0000
0000
0000
0010
0000
0000
0000
0000
0000
,
2002
0000
0000
3003
,
1000
0100
0010
0001
0100
0001
0100
0010
,
1000
0100
0010
0100
1000
0001
0000
0001
,
1000
0010
0100
0001
0010
0100
1000
0010
,
0100
0001
0010
0100
1000
0010
0000
0010
,
0100
0001
0010
0100
1000
0010
0100
0001
,
0010
0100
1000
0010
0100
0010
0000
0010
,
0100
0001
0010
0100
1000
0010
0100
0001
,
0010
0100
1000
0010
0100
0001
0000
0001
,
0010
0100
0010
0000
1001
0000
0000
0000
,
0001
0100
0001
0010
0100
1000
0000
1000
,
0010
0100
0001
0010
0100
0010
0100
1000
,
0010
0100
0001
0010
0100
1000
0000
1000
,
0100
0010
0001
0100
0010
0100
0001
0010
,
0100
1000
0100
0010
0001
0100
0000
0100
,
0010
1000
0100
0010
0001
0100
0010
0100
,
0001
0010
0100
1000
0001
0100
0000
0100
,
0001
1000
0100
0010
0000
1001
0000
0000
,
0100
0100
0100
0010
0010
0010
0000
0000
,
0001
1000
0010
0100
0000
1001
0000
0000
,
0100
0100
0100
0100
0010
0010
0000
0000
,
0001
0100
0010
1000
0000
1100
0000
0000
,
0001
0100
0100
0100
0100
0100
0000
0000
,
0010
1000
0100
0010
0000
0101
0000
0000
,
0100
0100
0100
0100
0100
0100
0000
0000
,
1000
0100
0001
0000
1001
0000
1001
0000
,
0010
1000
0010
0100
0000
1001
0000
0000
,
0100
0010
0100
1000
0000
1001
0000
0000
,
1000
0100
0010
0001
0000
1100
0000
0000
,
0001
0100
0001
0010
0000
0110
0000
0000
,
1000
0001
0100
0010
0000
1001
0000
0000
,
0100
0010
0001
0100
0000
0110
0000
0000
,
1000
0100
0010
0001
0000
0101
0000
0000
,
0010
1000
0100
0010
0000
0011
0000
0000
,
1001
0000
0000
0101
0000
0000
0101
0000
0000
0000
0010
0000
1000
0000
0100
0000
,
1001
0000
0000
1001
0000
0000
0110
0000
0110
0000
0000
0000
0000
0000
0000
0000
;
