#TITLE:Boogieman Mix;
#SUBTITLE:(DDR ULTRAMIX 3);
#ARTIST:Tony the TGR;
#TITLETRANSLIT:;
#SUBTITLETRANSLIT:;
#ARTISTTRANSLIT:;
#CREDIT:;
#BANNER:HARD - BOOGIEMAN Mix.png;
#BACKGROUND:HARD - BOOGIEMAN Mix-bg.png;
#LYRICSPATH:;
#CDTITLE:./CDTITLES/Dance Dance Revolution Ultramix 3.png;
#MUSIC:HARD - BOOGIEMAN Mix.mp3;
#OFFSET:-1.760;
#SAMPLESTART:81.180;
#SAMPLELENGTH:12.000;
#SELECTABLE:YES;
#BPMS:0.000=140.000,187.000=149.900,191.000=160.000,195.000=170.000,316.000=175.000,348.000=180.000,582.003=220.000,710.000=125.000,726.000=248.000,798.000=260.000,806.000=280.000,822.000=300.000;
#STOPS:582.000=1.752
;
#BGCHANGES:;

//---------------dance-single - ----------------
#NOTES:
     dance-single:
     :
     Easy:
     5:
     0.308,0.416,0.174,0.146,0.000:
0000
0000
0000
0000
,
0000
0000
0000
0000
,
0000
0000
0000
0000
,
1000
0100
0000
0001
,
0100
0000
1000
0200
,
0000
0000
0000
0300
,
0002
0000
0000
0003
,
0100
1000
0000
0001
,
0100
0000
1000
0200
,
0000
0000
0000
0302
,
0000
0000
0000
0003
,
0001
0001
1000
1000
,
0001
0001
1000
0000
,
0100
0100
0100
0000
,
0010
0010
0010
0000
,
0100
0100
1001
0000
,
0000
0000
1000
0100
,
1000
0100
0010
0001
,
0010
0001
1000
0000
,
0100
0000
0010
0000
,
0001
0000
1001
0000
,
0000
0110
0000
0000
,
1001
0000
0000
1100
,
0000
0000
0101
0000
,
0000
0001
0001
0000
,
0000
0110
0000
0000
,
1001
0000
0000
0101
,
0000
0000
1100
0000
,
0000
1000
1000
0000
,
1000
0000
0001
0000
,
1000
0000
0100
0010
,
0001
0000
0001
0000
,
0010
0000
0001
0010
,
0100
1000
0001
1000
,
0001
0000
1000
0100
,
0010
0001
1000
0100
,
1000
0001
0100
0001
,
0010
0100
1000
0000
,
0001
0001
0001
0000
,
1000
1000
1000
0000
,
0010
0010
0010
0000
,
0100
0100
1001
0000
,
0001
0000
1000
0100
,
0010
0001
1000
0001
,
0010
0100
2000
3000
,
0020
0030
0200
0300
,
0002
0003
0001
1000
,
1001
0000
1000
0001
,
1001
0000
0200
0300
,
0002
0000
0000
0000
,
0000
0000
0000
0000
,
1000
0000
1000
0000
,
1000
0000
1000
0003
,
0010
0010
0010
0010
,
0010
0010
0010
0010
,
0010
0010
0010
0010
,
0010
0010
0010
0010
,
0100
0000
0100
0000
,
0010
0000
0010
0000
,
1000
0000
1000
0000
,
0001
0000
0001
0000
,
1000
1000
1000
0000
,
0001
0001
0001
0000
,
1000
0000
1000
0000
,
0010
0000
0110
0000
,
0001
0001
0001
0000
,
1000
1000
1000
0000
,
0001
0000
0001
0000
,
1000
0000
0110
0000
,
0010
0010
0010
0000
,
0100
0100
0100
0000
,
0001
0000
0001
0000
,
1000
0000
1000
0000
,
0010
0010
0010
0000
,
0100
0100
0100
0000
,
0001
0001
0001
0001
,
1000
1000
1000
0000
,
0010
0000
0100
0000
,
0010
0000
0100
0000
,
0001
0001
0001
0001
,
0001
0001
0001
0001
,
1000
1000
1000
1000
,
1000
1000
1000
1000
,
0010
0010
0010
0010
,
0010
0010
0010
0010
,
0100
0100
0100
0100
,
0100
0100
0100
0100
,
0100
0100
0100
0000
,
0001
0000
0001
0000
,
0010
0010
0010
0000
,
0100
0000
0100
0000
,
1000
1000
1000
0000
,
0001
0000
0001
0000
,
0100
0100
0100
0000
,
0010
0000
0010
0000
,
1001
0001
0100
0000
,
0001
1000
0100
0000
,
0010
0001
1000
0000
,
0010
1000
0001
0000
,
0010
0001
0100
0000
,
0010
1000
0100
0000
,
1001
0000
1001
0000
,
0010
1000
0001
0010
,
0001
2000
0000
0010
,
0000
0010
0000
3010
,
1000
0200
0000
0010
,
0000
0010
0300
0010
,
0002
1000
0000
1000
,
0000
1000
0000
1003
,
0010
0200
0000
0001
,
0000
0001
0300
0001
,
2000
0100
0000
0100
,
0000
3100
0000
0100
,
0020
0001
0000
0031
,
1001
0000
0000
0000
,
1010
0000
0000
0000
,
0101
0000
0000
0000
,
0110
0000
1001
0000
,
0110
0000
1001
0000
,
0001
0100
0000
0001
,
1000
0100
0000
1000
,
0001
0010
0000
0001
,
0100
0010
0000
0100
,
0001
0010
0000
0001
,
1000
0100
0000
1000
,
0010
0100
0000
0010
,
1000
0001
0000
1000
,
1001
0000
0000
0000
,
1001
0000
0110
0000
,
1001
0000
0000
0000
,
0110
0000
1001
0000
,
0110
0000
0000
0000
,
1001
0000
0110
0000
,
1001
0000
0000
0000
,
0110
0000
0110
0000
,
2002
0000
0000
3003
,
0000
0000
0000
0010
,
1000
0001
0200
0000
,
0000
0300
0000
0001
,
0010
0100
2000
0000
,
0000
3000
0000
0010
,
0100
0001
2000
0000
,
0000
3000
0000
0100
,
1000
0001
0200
0000
,
0000
0000
0000
0000
,
0000
0000
0000
0000
0300
0000
0000
0000
0000
0000
0000
0000
2002
3000
0000
0000
,
0000
0000
0003
2000
,
0000
0000
3000
1002
,
0000
0000
0003
0200
,
0000
0000
0300
0220
,
0000
0000
0330
2000
,
0000
0000
3000
1002
,
0000
0000
0003
0020
,
0000
0000
0030
0001
,
0000
0001
0000
0010
,
0000
0100
0000
1000
,
0000
1000
0000
0001
,
0001
0001
0000
1000
,
0000
1000
0000
0010
,
0000
0100
0000
0001
,
0000
0001
0000
1000
,
1000
1000
0000
0001
,
0000
1000
0000
0100
,
0000
0010
0000
0100
,
0000
1000
0000
0010
,
0000
0000
0000
1000
,
0000
0001
0000
0100
,
0000
0010
0000
0100
,
0000
0001
0000
0010
,
0000
0000
0000
1000
,
0000
1000
0000
1000
,
0000
1000
0000
0001
,
0000
0001
0000
0001
,
0000
0001
0000
2000
,
0000
0000
0000
0000
,
0000
0000
3000
2002
,
0000
0000
0000
0000
,
0000
0000
3003
0001
,
1000
0001
0001
1000
,
0001
1000
1000
0010
,
0100
0010
0010
0100
,
0010
0100
0100
0002
,
0000
0000
0003
0001
,
0000
0001
0000
2000
,
0000
0000
3000
1000
,
0000
1000
0000
0020
,
0000
0000
0030
0010
,
0000
0010
0000
2000
,
0000
0000
3000
0002
,
0000
0000
0003
0200
,
0000
0000
0300
0100
,
0000
0100
0000
0002
,
0000
0000
0003
0001
,
0000
0001
0000
0020
,
0000
0000
0030
0010
,
0000
0010
0000
0002
,
0000
0000
0003
2000
,
0000
0000
3000
0002
,
0000
0000
0003
2000
,
0000
0000
3000
0002
,
0000
0000
0003
0010
,
0000
0100
0000
2000
,
0000
0000
3000
0002
,
0000
0000
0003
2000
,
0000
0000
3000
0002
,
0000
0003
0000
0000
0000
0000
1000
0000
,
0000
1000
0000
0000
0000
0000
0001
0000
,
0000
0001
0000
0000
0000
0000
1000
0000
,
0000
1000
0000
0000
0000
0000
0100
0000
,
0000
0110
0000
0000
0000
0000
0001
0000
,
0000
0001
0000
0000
0000
0000
1000
0000
,
0000
1000
0000
0000
0000
0000
0001
0000
,
0000
0001
0000
0000
0000
0000
0100
0000
,
0000
0100
0000
0000
0110
0000
0000
0000
,
0010
0000
0010
0000
,
1000
0000
1000
0000
,
0001
0000
0001
0000
,
0100
0000
0010
1000
,
0000
1000
0000
1000
,
0000
1000
0000
0000
1000
0000
0001
0000
,
0000
1001
0000
0010
,
0000
0110
0000
0001
,
0000
0001
0000
0001
,
0000
0001
0000
0000
0001
0000
1000
0000
,
0000
1001
0000
0010
,
0000
0110
0000
1000
,
0000
0001
0000
1000
,
0000
0001
0000
0000
1000
0000
0001
0000
,
0000
1001
0000
0100
,
0000
0110
0000
0010
,
1000
0010
1000
0001
,
1000
0001
1000
0001
,
0100
0001
0100
0010
,
0000
0100
0000
0000
0110
0000
0000
0000
,
0100
0000
0100
0000
,
0010
0000
0010
0000
,
1000
0000
0001
0000
,
1000
0000
0001
1000
,
0000
1000
0000
0100
,
0000
0100
0000
0010
,
0000
0010
0000
0001
,
0000
1001
0000
0001
,
0000
0001
0000
0100
,
0000
0100
0000
0010
,
0000
0010
0000
1000
,
0000
1001
0000
1000
,
0000
0100
0000
0001
,
0000
0100
0000
1000
,
0000
0100
0000
0010
,
0000
0110
0000
0001
,
0000
0010
0000
1000
,
0000
0010
0000
0001
,
0000
0010
0000
0100
,
0000
0110
0000
0010
,
0000
0000
0010
0001
,
0000
0000
0001
1000
,
0000
0000
1000
0100
,
0000
0000
0100
0010
,
0000
0000
0010
0001
,
0000
0000
0001
1000
,
0000
0000
1000
0100
,
0000
0110
0000
0010
,
0000
0010
0000
0001
,
0000
1000
0000
0001
,
0000
0100
0000
0010
,
0100
0000
0000
0010
,
0000
0010
0000
1000
,
0000
0001
0000
1000
,
0000
0100
0000
0010
,
0100
0000
0010
1000
,
0000
0001
0000
0100
,
0000
0001
0000
0010
,
0000
0001
0000
0010
,
0100
0000
0000
0001
,
0000
1000
0000
0100
,
0000
1000
0000
0010
,
0000
1000
0000
0100
,
0000
0010
0000
0000
0110
0000
0000
0000
,
0100
0000
0100
0000
,
0010
0000
0010
0001
,
0000
1000
0000
0001
,
0000
1000
0000
0010
,
0000
0010
0000
0000
0010
0000
0000
0010
,
0000
0010
0000
1000
,
0000
0001
0000
1000
,
0000
1001
0000
0000
0000
0000
0100
0000
,
0000
0100
0000
0100
,
0010
0100
0010
1000
,
0000
0001
0000
1000
,
0000
1001
0000
0000
0000
0000
1000
0000
,
0100
0010
0001
0010
,
0100
1000
0001
1000
,
0000
0001
0000
1000
,
0000
1001
0000
0000
0000
0000
0100
0000
,
0000
0010
0000
1000
,
0000
0001
0000
0000
1000
0000
0100
0000
,
0000
0010
0000
0001
,
0000
1001
0000
0000
0000
0000
0000
0000
;

//---------------dance-single - ----------------
#NOTES:
     dance-single:
     :
     Medium:
     6:
     0.483,0.707,0.327,0.313,0.010:
0000
0000
0000
0000
,
0000
0000
0000
0000
,
0000
0000
0000
0000
,
0001
0020
0000
0031
,
2000
0000
3010
0100
,
0020
0000
0000
0000
0000
0000
0030
0100
,
0000
0001
0000
0100
0000
0010
1000
0000
,
0001
2000
0000
3010
,
0200
0000
0301
0010
,
0020
0000
0000
0000
0030
0001
0000
1000
,
0000
0010
0000
0100
0000
0001
0000
0001
,
1000
0100
1000
0000
0001
0100
0001
0000
,
0010
0100
0010
0100
0010
0000
1001
0000
,
0001
0100
1000
0100
,
0000
0001
0100
1000
0100
0000
0001
0000
,
0020
0000
0230
0000
,
2300
0000
0000
0000
3001
0100
0001
0000
,
0010
0200
0000
2300
,
3000
0001
0010
0001
0000
0000
0100
0000
,
0100
0001
1000
0010
,
1000
0100
0001
0100
2002
0000
3003
0000
,
0001
0202
0303
1000
,
2200
3300
0100
0220
,
0330
0010
0022
0033
,
0001
1001
2002
3003
,
1000
2200
3300
0001
,
0202
0303
0100
0220
,
0330
0010
2020
3030
,
1000
1001
0001
1000
,
0100
0010
0100
1000
,
0001
0010
1000
0100
,
0001
0010
0001
1000
,
0001
0000
0100
0000
0001
1000
0001
1000
,
0001
1000
0000
0000
1000
0100
1000
0100
,
2000
0000
3020
0000
,
0230
0000
0301
1001
,
1000
0110
0001
1001
,
1000
0100
0001
0100
1000
0000
0000
0001
,
0100
0001
0100
0001
0100
0000
0000
0100
,
1000
0100
1000
0100
1000
0000
0000
0010
,
0100
0010
0100
0010
0100
0000
0000
0001
,
0010
0001
0010
0001
0020
0000
0000
0000
,
0230
0000
0000
0000
1300
0001
1000
0000
,
0100
0010
0100
0000
0010
0001
0010
0000
,
0001
1000
0001
0000
2000
0000
0000
0000
,
3020
0000
0230
0000
,
0302
0000
0000
0000
1003
0000
0001
1000
,
0100
0000
2000
0000
3002
0000
1003
0100
,
1000
0000
0002
0000
0103
0000
1001
1000
,
0002
0000
1000
0000
,
1000
0000
0100
0003
,
2000
0000
0001
0000
,
0001
0000
0100
3000
,
1001
1001
1001
1001
,
0010
0100
0010
0100
,
0110
0110
0110
0110
,
0001
1000
0010
1001
,
0101
0000
1100
0000
0010
1000
0100
0000
,
0101
0000
1100
0000
0010
1000
0100
0000
,
0101
1000
0101
1000
,
0101
0000
0010
1000
0200
0000
0300
0000
,
0101
0000
1100
0000
0001
1000
0100
0000
,
0101
0000
1100
0000
0001
1000
0100
0000
,
0010
0010
1000
1000
,
0001
0010
2002
3003
,
0001
0000
0001
0000
0001
0100
0100
0000
,
1000
0000
1000
0000
1000
0100
0100
0000
,
0001
1000
0001
1001
,
0010
0100
2002
3003
,
0001
0001
1000
1000
,
0010
0100
0001
0110
,
0010
1100
0001
1100
,
0010
0000
1001
0000
0010
0100
0010
0000
,
1000
1000
0001
0001
,
0010
0100
1000
0110
,
0010
0101
1000
0101
,
0010
1001
0220
0330
,
0110
0000
0110
0000
1000
0001
1000
0000
,
0110
0000
0110
0000
0001
1000
0001
0000
,
1100
0101
1100
0110
,
0011
0000
1001
0000
0010
0100
0100
0000
,
0101
1100
0101
0110
,
1010
1001
0000
0000
,
0000
0000
0000
0000
,
0000
0000
0000
0000
,
0000
0000
0000
0000
,
0000
0000
0000
0000
,
1000
0000
0000
0100
0000
0000
0010
0000
,
0001
0000
1000
0000
0100
0010
0001
0000
,
1000
0000
0000
0010
0000
0000
0100
0000
,
0001
0000
1000
0000
0010
0100
0001
0000
,
1000
0000
0000
0001
0000
0000
0010
0000
,
0100
0000
1000
0000
0001
0100
0010
0000
,
1000
0000
0000
0001
0000
0000
0100
0000
,
0010
0000
1000
0100
0010
0001
1000
0001
,
0100
0000
0001
0000
1000
0002
0000
0000
,
0013
0000
0100
0010
0000
0001
1000
0000
,
0100
0000
1000
0000
0001
2000
0000
0000
,
3010
0000
0100
0010
0000
1000
0001
0000
,
0010
0000
0100
0000
1000
0200
0000
0000
,
0310
0000
0001
1000
0000
0010
0100
0000
,
0010
0000
0100
0000
0001
0200
0000
0000
,
0310
0000
1000
0001
1000
0100
0010
0001
,
1000
0001
1000
0001
,
0100
0100
0100
0100
,
0010
1000
0010
1000
,
0001
0001
0001
0001
,
1001
1000
0010
0100
,
0110
0010
0001
0010
,
1010
1000
0101
0100
,
0011
0101
1010
1100
,
0001
0000
0000
0001
0000
0000
0001
0000
,
0100
0000
0000
0100
0000
0000
0100
0000
,
0010
0000
0000
0010
0000
0000
0010
0000
,
1000
0000
0000
1000
0000
0000
1000
0000
,
1100
0000
0000
0010
0000
0000
0001
0000
,
1000
0000
0000
0010
0000
0000
0100
0000
,
0001
0000
0000
1000
0000
0000
0100
0000
,
0010
0000
0000
0001
0000
0000
0100
0000
,
0101
0000
0000
1000
0000
0000
0001
0000
,
0010
0000
0000
0100
0000
0000
1000
0000
,
1001
0000
0000
0100
0000
0000
0010
0000
,
1001
0000
0000
0100
0000
0000
0001
0000
,
0110
0000
0000
0100
0000
0000
1000
0000
,
0110
0000
0000
0001
0000
0000
1000
0000
,
1001
0000
0110
0000
,
0101
1100
0101
1100
,
2000
0000
0000
3020
0000
0000
1030
0000
,
0002
0000
0000
0023
0000
0000
0130
0000
,
2000
0000
0000
3002
0000
0000
1003
0000
,
0020
0000
0000
0230
0000
0000
0301
0000
,
1000
0000
0000
0001
0000
0010
0100
0000
,
1000
0000
0000
0001
0000
0100
0010
0000
,
1000
0000
0000
0100
0000
0010
0001
0000
,
0100
0000
0000
0010
0000
1000
0001
0000
,
2000
0000
0000
3200
0000
0000
1300
0000
,
0002
0000
0000
0203
0000
0000
0310
0000
,
2000
0000
0000
3002
0000
0000
1003
0000
,
0200
0000
0000
0320
0000
0000
0031
0000
,
1000
0000
0000
0001
0000
0100
0010
0000
,
1000
0000
0000
0001
0000
0010
0100
0000
,
1000
0000
0000
0010
0000
0100
0001
0000
,
0010
0000
0000
0100
0000
1000
0001
0000
,
0220
0000
0000
0000
,
0000
0000
0000
0000
,
0000
0000
0000
0000
0330
0000
0000
0000
0000
0000
0000
0000
2002
3003
0000
0000
,
0000
0001
0000
1001
,
1000
0001
1000
0010
,
0000
1000
0000
1001
,
0001
1000
0001
0010
,
0000
0001
0000
1001
,
1000
0001
1000
0010
,
0000
1000
0000
1001
,
0001
1000
0001
0010
,
0000
0001
0000
0000
0100
0000
0010
0000
,
0000
0000
0000
0000
0000
1000
0010
0000
,
0000
0100
0000
0000
0001
0000
1000
0000
,
0100
0000
1000
0100
0000
0000
0010
0000
,
0000
1000
0000
0000
0100
0000
0010
0000
,
0000
0000
0000
0000
0000
0001
0010
0000
,
0000
0100
0000
0000
1000
0000
0001
0000
,
0100
0000
0001
0100
0000
0000
0010
0000
,
0000
0000
0010
1000
0000
0010
0100
0000
,
0100
0001
0000
0000
0000
0000
0001
0000
,
0000
0000
0010
0001
0000
0010
0100
0000
,
0100
1000
0000
0000
0000
0000
0001
0000
,
0000
0000
1000
0001
0000
0001
0100
0000
,
0100
0010
0000
0000
0000
0000
1000
0000
,
0000
0100
0000
0000
1000
0000
0001
0000
,
1000
0001
0000
0000
0000
0000
0100
0000
,
0000
0110
0000
1001
,
0000
0100
0000
1001
,
0000
0001
0000
1001
,
0000
1000
0000
0002
,
0000
0000
0000
1000
,
0000
1000
0000
0000
1003
0000
2000
0000
,
0000
0000
0000
0001
,
0000
0001
0000
3001
0000
0000
0001
0100
,
0001
0000
1000
0010
1000
0000
0001
0010
,
0001
0000
1000
0100
1000
0000
0010
0100
,
0010
0000
0100
0010
0100
0000
1000
0001
,
1000
0000
0001
1000
0001
0000
1000
0000
,
0001
2000
0000
0000
0000
0000
3100
0000
,
0010
0001
1000
0002
,
0000
0203
0000
0000
0302
0000
0000
0000
,
0000
1003
0100
1000
,
0001
0200
0000
0000
0000
0000
0000
0000
,
0000
0310
0100
0002
,
0000
0023
0000
0000
0000
0000
0230
0000
,
0000
2300
0000
0000
0000
0000
3001
0000
,
1000
0002
0000
0000
0000
0000
1003
0000
,
0001
0100
0010
2000
,
0000
3200
0000
0000
0320
0000
0000
0000
,
0030
0100
1000
0001
,
0010
0002
0000
0000
0000
0000
0103
0000
,
0010
1000
0010
0100
,
0000
0002
0000
0000
0000
0000
1003
0000
,
0001
0100
0010
1000
,
0000
2001
0000
0000
0000
0000
3001
0000
,
0000
1002
0000
0000
0000
0000
1003
0000
,
0000
2001
0000
0000
0000
0000
3001
0000
,
1000
0010
0100
0010
,
0000
0120
0000
0000
0000
0000
0130
0000
,
0000
0210
0000
0000
0000
0000
0310
0000
,
0000
0120
0000
0000
0000
0000
0130
0000
,
0000
1001
0000
0000
0000
0000
1000
0000
,
0000
0100
0000
0000
0000
0000
1000
0000
,
0000
1001
0000
0000
0000
0000
0001
0000
,
0000
0100
0000
0000
0000
0000
1000
0000
,
0000
1001
0000
0000
0000
0000
0010
0000
,
0000
1000
0000
0000
0000
0000
0010
0000
,
0000
0110
0000
0000
0000
0000
0100
0000
,
0000
0001
0000
0000
0000
0000
0100
0000
,
0000
0010
0000
0000
0110
0000
0000
0000
,
0100
0000
0100
0000
,
0010
0000
0010
1000
,
0001
1000
0001
1000
,
0001
1000
0001
1000
,
0010
0000
1000
0000
0010
0000
1000
0010
,
0000
1000
0000
0000
0010
0000
1000
0000
,
0000
1000
0000
0000
0000
0000
0001
0000
,
0000
0001
0000
0000
0000
0000
0001
0000
,
0010
0000
0001
0000
0010
0000
0001
0010
,
0000
0001
0000
0000
0010
0000
0001
0000
,
0000
0001
0000
0000
0000
0000
1000
0000
,
0000
1000
0000
0000
0000
0000
0100
0000
,
0010
0100
0010
0100
,
0010
0100
0000
0010
0000
0000
1000
0000
,
0000
1000
0000
0000
0000
0000
0001
0000
,
0000
1001
0000
0000
0000
0000
1000
0000
,
0100
1000
0100
1000
,
0001
1000
0001
0010
,
0001
0010
0001
0010
,
0000
0100
0000
0000
0110
0000
0000
0000
,
0100
0000
1000
0000
,
0001
0000
0010
0100
,
0010
0100
0010
0100
,
0010
0100
0010
0001
,
0001
0010
0010
0100
,
0100
1000
1000
0001
,
0001
0100
0100
0010
,
0010
0110
0000
1000
,
1000
0010
0010
0100
,
0100
0001
0001
1000
,
1000
0100
0100
0010
,
0010
0110
0000
0001
,
0001
0010
0010
1000
,
1000
0010
0010
0001
,
0001
0100
0100
0010
,
0100
0110
0000
1000
,
1000
0100
0100
0001
,
0001
0100
0100
1000
,
1000
0100
0100
0010
,
0100
0000
0010
0100
0000
0000
0001
0000
,
0000
1000
0000
0000
0000
0000
0001
0000
0000
0000
0000
0000
0100
0000
0000
0000
,
0000
0010
0000
0000
0000
0000
0100
0000
0000
0000
0000
0000
0010
0000
0000
0000
,
0000
0100
0000
0000
0000
0000
0010
0000
0000
0000
0000
0000
1000
0000
0000
0000
,
0000
0001
0000
0000
0000
0000
1000
0000
0000
0000
0000
0000
0100
0000
0000
0000
,
0000
0010
0000
0000
0000
0000
0001
0000
0000
0000
0000
0000
0010
0000
0000
0000
,
0000
0100
0000
0000
0000
0000
1000
0000
0000
0000
0000
0000
0001
0000
0000
0000
,
0000
1000
0000
0000
0000
0000
0001
0000
0000
0000
0000
0000
0010
0000
0000
0000
,
0000
1001
0000
2000
,
0000
0000
3000
0001
,
0100
0010
2000
0000
,
3001
0002
0000
1003
,
0100
0000
0000
0001
,
1000
0000
0100
1000
0000
0000
0001
0000
,
1000
0000
0100
1000
0000
0000
0020
0000
,
0200
0000
0000
0000
,
0330
0100
0010
2000
,
0000
0000
3000
1000
,
0100
0010
0001
1000
,
0001
0000
1000
0000
0001
1000
0000
0000
,
0010
0000
0000
0000
,
0002
0000
0000
0100
0003
0000
0001
0000
,
0100
0001
2000
0000
,
3000
0002
0000
1003
,
0000
0001
0000
0000
1001
0000
0000
0000
,
0100
0000
0010
0000
,
0100
0000
0010
0100
,
0010
0100
0010
0100
,
0010
0100
0010
1000
,
0000
0001
0000
0000
1000
0000
0000
0001
,
0000
1000
0001
0020
,
0000
0032
0000
1003
,
0000
1001
0000
0000
0000
0000
2000
0000
,
3000
0200
0300
1000
,
0001
1000
0100
1000
,
0001
1000
0000
0100
,
0000
0110
0000
0000
0000
0000
0001
0000
,
0010
0001
1000
0001
,
0010
0100
0010
0001
,
1000
0100
1000
0010
,
0000
0110
0000
0000
0000
0000
0100
0000
,
0000
1000
0000
0001
,
0000
1000
0000
0000
0010
0000
0100
0000
,
0000
0001
0000
1000
,
0000
0110
0000
0000
0000
0000
0000
0000
;

//---------------dance-single - ----------------
#NOTES:
     dance-single:
     :
     Hard:
     9:
     0.668,0.706,0.411,0.188,0.021: // measure 1
0000
0000
0000
0000
,  // measure 2
0000
0000
0000
0000
,  // measure 3
0000
0000
0000
0000
,  // measure 4
0011
1001
0000
1001
,  // measure 5
0110
0000
1100
1001
,  // measure 6
0001
0010
0100
1000
0010
1000
0001
0100
,  // measure 7
0001
1000
0100
0010
0001
1000
0100
0000
,  // measure 8
0011
1001
0000
1001
,  // measure 9
0110
0000
0000
0110
0000
0010
0001
0200
,  // measure 10
0000
1000
0000
0001
0000
1000
0000
0301
,  // measure 11
0000
0001
0010
0100
1000
0010
1000
0001
,  // measure 12
0100
0001
1000
0100
0010
0001
1000
0100
,  // measure 13
0010
0001
0100
0001
1001
0000
0110
0000
,  // measure 14
0000
0010
0001
0000
0101
0000
1001
0000
,  // measure 15
0000
1000
0100
0000
0010
0100
1000
0000
,  // measure 16
0010
0100
0001
0000
0010
0100
1000
0000
,  // measure 17
0010
0100
0001
0000
1100
0000
1001
0000
,  // measure 18
0000
1000
0100
0000
0011
0000
1001
0000
,  // measure 19
0000
0001
0100
0000
0010
1000
0100
0000
,  // measure 20
0010
0001
0100
0000
0010
1000
0100
0001
,  // measure 21
0100
1000
0010
0001
0010
0000
1000
0100
,  // measure 22
0010
0000
1001
0000
0001
0010
0100
0000
,  // measure 23
1001
0000
1000
0100
0010
0000
1001
0000
,  // measure 24
0001
0010
0100
0000
1001
0000
1000
0100
,  // measure 25
0010
0000
1001
0000
0110
0000
0100
0001
,  // measure 26
0010
0000
0110
0000
0100
1000
0010
0000
,  // measure 27
0110
0000
0100
0001
0010
0000
0110
0000
,  // measure 28
0100
1000
0010
0000
0110
0000
0100
0001
,  // measure 29
0010
0000
0110
0000
0100
1000
0100
0010
,  // measure 30
0001
0010
0000
0001
0010
0100
1000
0001
,  // measure 31
1000
0010
0000
1000
0100
0010
0001
1000
,  // measure 32
0001
0100
0000
0001
0100
1000
0100
0001
,  // measure 33
0010
0000
0100
0000
0000
0000
1000
0100
1000
0000
0100
0000
0010
0000
0001
0000
,  // measure 34
1000
0000
0001
0000
0000
0000
0001
0100
0001
0000
0100
0000
0010
0000
1000
0000
,  // measure 35
0001
1000
0100
0010
0002
0000
0000
0000
,  // measure 36
2003
0000
3020
0100
,  // measure 37
0230
1000
2300
0100
,  // measure 38
3100
0001
0010
0100
1000
0000
0000
0001
,  // measure 39
0010
0000
0100
1000
0100
0000
1000
0001
1000
0000
0100
0000
0000
0000
0010
0000
,  // measure 40
0001
0100
1000
0100
0001
0010
0000
0001
,  // measure 41
0010
0000
0100
1000
0100
0000
1000
0001
1000
0000
0100
0000
0000
0000
0010
0000
,  // measure 42
0001
0100
1000
0100
0002
0000
0000
0000
,  // measure 43
0203
0000
0000
0000
0310
1000
0100
0000
,  // measure 44
0010
0001
0100
0000
0010
1000
0100
0001
,  // measure 45
0100
1000
0010
0000
1000
0100
0010
0001
,  // measure 46
1000
0001
0100
0001
0010
0100
1000
0001
,  // measure 47
1000
0100
1000
0010
0200
0000
0301
0010
,  // measure 48
0200
0000
1000
0000
0320
0000
0031
0100
,  // measure 49
0002
0000
1000
0000
0103
0000
1001
0100
,  // measure 50
1000
0000
0001
1000
0100
0000
1000
0001
,  // measure 51
0000
0001
0010
0100
1000
0000
2000
0000
,  // measure 52
3000
0001
0010
0100
0010
0001
1000
0100
,  // measure 53
0000
0001
0100
1000
0010
0001
0100
0000
,  // measure 54
2100
0001
0100
0001
,  // measure 55
0100
0000
0001
0000
0100
0100
3100
0000
,  // measure 56
0102
1000
0100
1000
,  // measure 57
0100
0000
1000
0000
0100
0100
0103
0000
,  // measure 58
0010
1000
0100
0001
0100
0010
1000
0000
,  // measure 59
0100
0001
0010
0100
1000
0001
0110
0000
,  // measure 60
1000
0001
0010
0100
1000
0010
0100
0001
,  // measure 61
1000
0010
0100
0001
0220
0000
0330
0000
,  // measure 62
0001
0100
0010
1000
0100
0010
1000
0000
,  // measure 63
0100
0001
0010
0100
1000
0010
1001
0000
,  // measure 64
1000
0100
0001
0010
0100
0001
1000
0100
,  // measure 65
0010
0001
1000
0010
0220
0000
0330
0000
,  // measure 66
0001
1000
0100
1000
0001
1000
0110
0000
,  // measure 67
1000
0001
0100
0001
1000
0001
0110
0000
,  // measure 68
0010
1000
0100
0001
0100
1000
1100
0000
,  // measure 69
0100
0001
0010
0100
2200
0000
3300
0000
,  // measure 70
0010
0100
0001
0100
0010
0100
0001
0000
,  // measure 71
1000
0100
0010
0100
1000
0010
0100
0000
,  // measure 72
0001
1000
0100
0010
0001
1000
0100
1000
,  // measure 73
0010
0001
0100
0010
0001
0100
1001
0000
,  // measure 74
0100
0001
0010
0001
0100
0001
1001
0000
,  // measure 75
0010
1000
0001
1000
0010
1000
0101
0000
,  // measure 76
0100
0010
1000
0100
0001
0010
0110
0000
,  // measure 77
1000
0001
0001
0100
2002
0000
3003
0000
,  // measure 78
1000
0001
0100
0001
0001
0010
0100
0000
,  // measure 79
1000
0100
0010
0100
0100
1000
0010
0000
,  // measure 80
0010
1000
0100
0001
0010
1000
0100
0001
,  // measure 81
0010
1000
0100
0001
0010
1000
0100
0001
,  // measure 82
0001
0010
0100
0010
0001
0100
1000
0010
,  // measure 83
0100
0010
0001
1000
0010
0100
0100
0010
,  // measure 84
0100
0001
1000
0010
0100
1000
0010
0001
,  // measure 85
0100
0010
0001
1000
0100
0010
0010
0100
,  // measure 86
0010
1000
0100
0001
0010
1000
0001
0100
,  // measure 87
1000
0010
0100
0001
0010
1000
0100
0001
,  // measure 88
0001
0000
0100
0000
0010
0100
1000
0000
,  // measure 89
0100
0000
0002
0010
0003
0010
0200
0000
,  // measure 90
1300
0000
0100
0000
0010
0100
0001
0000
,  // measure 91
0100
0000
2000
0010
3000
0010
0200
0000
,  // measure 92
0301
0000
1000
0000
0001
0010
0100
0000
,  // measure 93
0001
0000
0200
1000
0300
0001
0200
0000
,  // measure 94
0310
0000
0100
0000
0001
0100
1000
0100
,  // measure 95
0001
0000
0000
0000
1000
0000
0100
0000
0001
0000
0100
0000
1000
0001
1000
0000
,  // measure 96
0001
0000
1000
0000
0010
1000
0100
0000
,  // measure 97
0010
0001
0100
0010
0001
1000
0100
0001
,  // measure 98
1000
0000
0001
0000
0100
1000
0010
0000
,  // measure 99
0100
0001
0010
0100
0001
1000
0010
0001
,  // measure 100
1000
0000
0001
0000
0100
0001
0010
0000
,  // measure 101
0100
1000
0010
0100
1000
0001
0010
1000
,  // measure 102
0001
0000
1000
0000
0010
0001
0100
0000
,  // measure 103
0010
1000
0100
0010
1000
0001
0100
1000
,  // measure 104
0100
2000
0010
0010
,  // measure 105
0001
0001
0100
0100
,  // measure 106
3001
0012
0010
1000
,  // measure 107
1000
0100
0100
1003
,  // measure 108
0200
0010
1000
1000
,  // measure 109
0010
0010
0001
0301
,  // measure 110
0010
1020
1000
0100
,  // measure 111
0100
0001
0001
0130
,  // measure 112
2010
0001
0010
3001
,  // measure 113
2100
0001
0100
3001
,  // measure 114
0012
1000
0010
1003
,  // measure 115
2100
0001
0100
3001
,  // measure 116
0012
0100
0010
1003
,  // measure 117
1000
0100
0010
0001
,  // measure 118
0102
1003
1200
0301
,  // measure 119
0012
0103
1020
0130
,  // measure 120
1001
0000
0010
0000
0000
0100
0001
0000
,  // measure 121
1000
0000
0001
0000
0000
0010
0100
0000
,  // measure 122
1000
0000
0001
0000
0000
1000
0010
0000
,  // measure 123
0100
0000
0001
0000
0000
1000
0100
0010
,  // measure 124
0002
0000
2003
0000
3000
0010
0100
0000
,  // measure 125
0002
0000
2003
0000
3000
0100
0010
0000
,  // measure 126
0002
0000
2003
0000
3000
0001
0100
0000
,  // measure 127
0020
0000
0230
0000
0300
0001
1000
0000
,  // measure 128
1020
0000
0031
0000
0000
0100
0001
0000
,  // measure 129
0012
0000
1003
0000
0000
0100
1000
0000
,  // measure 130
1200
0000
0310
0000
0000
0001
0100
0000
,  // measure 131
0102
0000
0013
0000
0000
1000
0001
0010
,  // measure 132
0200
0000
2300
0000
3000
0001
0100
0000
,  // measure 133
0020
0000
2030
0000
3000
0001
0010
0000
,  // measure 134
0200
0000
0320
0000
0030
0100
1000
0000
,  // measure 135
0002
0000
0203
0000
0300
0010
1000
0001
,  // measure 136
1001
0000
1000
0010
0100
0001
0010
0001
,  // measure 137
0100
0000
0001
1000
0100
1000
0010
0100
,  // measure 138
0001
0000
0010
0100
1000
0001
1000
0100
,  // measure 139
0001
0000
0100
1000
0001
0100
0001
0010
,  // measure 140
1001
0000
0001
0100
0010
1000
0100
1000
,  // measure 141
0010
0000
1000
0001
0010
0001
0100
0010
,  // measure 142
1000
0000
0100
0010
0001
1000
0001
0010
,  // measure 143
1000
0000
0010
0001
1000
0010
1000
0100
,  // measure 144
0020
0000
0000
0000
,  // measure 145
0000
0000
0000
0000
,  // measure 146
0000
0000
0000
0000
0030
0000
0000
0000
2002
3003
0000
0000
0000
0000
0000
0000
,  // measure 147
0001
0000
1000
0100
0000
0000
0100
0000
,  // measure 148
1000
0001
0101
0000
,  // measure 149
0100
0000
0010
0100
0000
0000
0001
0000
,  // measure 150
0010
0100
1100
0000
,  // measure 151
1000
0000
0010
0100
0000
0000
0001
0000
,  // measure 152
1000
0010
0110
0000
,  // measure 153
0010
0000
0001
0100
0000
0000
1000
0000
,  // measure 154
0001
0000
0010
0000
0100
0000
0001
1000
,  // measure 155
0000
1000
0100
0000
0010
0000
0001
0000
,  // measure 156
0010
0001
0010
0000
0010
0000
0100
1000
,  // measure 157
0000
1000
0100
0000
1000
0000
0010
0000
,  // measure 158
0010
1000
0000
0000
0001
0000
0100
0000
,  // measure 159
0010
1000
0010
0000
1000
0000
0010
0000
,  // measure 160
0100
0001
0100
0000
0100
0000
0010
0100
,  // measure 161
0000
0100
0001
0000
1000
0000
0010
0000
,  // measure 162
1000
0100
0000
0000
0110
0000
0000
0000
,  // measure 163
0001
1000
0000
1000
0100
0000
0100
0010
,  // measure 164
0000
0000
0110
0000
,  // measure 165
1000
0001
0000
0001
0100
0000
0100
0010
,  // measure 166
0000
0010
1010
0000
,  // measure 167
1000
0100
0000
0100
0010
0000
0010
0001
,  // measure 168
0000
0000
0001
0000
0011
0000
0000
1000
,  // measure 169
0000
0000
0010
0000
0100
0000
0100
0001
,  // measure 170
0000
0000
1001
0000
,  // measure 171
0110
0000
0001
0000
,  // measure 172
0110
0000
1000
0000
,  // measure 173
0110
0000
0001
0000
,  // measure 174
0110
0000
0000
0000
1000
0001
1000
0001
,  // measure 175
2000
0000
0000
0000
0001
0000
0000
0001
,  // measure 176
0000
0000
3001
0000
0010
0100
0010
0100
,  // measure 177
0020
0000
0000
0000
0100
0000
0000
0100
,  // measure 178
0000
0130
0000
0000
0010
1000
0100
0010
,  // measure 179
0100
1000
0010
0100
0001
0100
0010
1000
,  // measure 180
0001
0000
0000
1000
0100
0000
0010
0000
0010
0000
0001
0000
0100
0000
0010
0000
,  // measure 181
0001
1000
0100
0010
1000
0100
0010
0001
,  // measure 182
0100
0010
1000
0100
0010
0000
0001
0100
,  // measure 183
0000
0001
1000
0000
0100
1000
0100
0000
,  // measure 184
1000
0100
1000
0000
0010
0000
0100
0001
,  // measure 185
0000
0001
0010
0000
0001
1000
0001
0000
,  // measure 186
1000
0001
1000
0000
0100
0000
0100
1000
,  // measure 187
0000
1000
0010
0000
0100
0010
0100
0000
,  // measure 188
0010
0100
0010
0000
0100
0000
0100
0001
,  // measure 189
0000
0001
0010
0000
0010
0001
0010
0000
,  // measure 190
0001
0010
0001
0000
1000
0000
1000
0100
,  // measure 191
0000
0100
1000
0000
0001
0100
0001
0000
,  // measure 192
1000
0100
1000
0000
1000
0000
0001
0100
,  // measure 193
0000
0100
1000
0000
0100
0010
0100
0000
,  // measure 194
0010
0100
0010
0000
0100
0000
0001
1000
,  // measure 195
0000
1000
0100
0000
0100
0010
0100
0000
,  // measure 196
0010
0100
0010
0000
0001
0000
1000
0010
,  // measure 197
0000
0010
0100
0000
0001
1000
0001
1000
,  // measure 198
0001
1000
0001
1000
0001
0000
1000
0100
,  // measure 199
0000
0100
1000
0000
1001
0000
0001
0010
,  // measure 200
0000
0010
0001
0000
1001
0000
1000
0100
,  // measure 201
0000
0100
0010
0000
0011
0000
0001
0000
,  // measure 202
0101
0000
0001
0000
1000
0000
0001
0100
,  // measure 203
0000
0010
1000
0000
1010
0000
0010
1000
,  // measure 204
0000
0001
0100
0000
0101
0000
0001
1000
,  // measure 205
0000
0010
0100
0000
0100
0000
1000
0000
,  // measure 206
0001
0000
0000
0000
1010
0000
0000
1001
,  // measure 207
0000
0000
0100
0000
0101
0000
0000
1001
,  // measure 208
0000
0000
0010
0000
0011
0000
0000
1001
,  // measure 209
0000
0000
0100
0000
1100
0000
0000
0110
,  // measure 210
0000
0000
0000
0000
0011
0000
0000
1001
,  // measure 211
0000
0000
0100
0000
1100
0000
0000
1001
,  // measure 212
0000
0000
0010
0000
1010
0000
0000
1001
,  // measure 213
0000
0000
0100
0000
0101
0000
0000
0110
,  // measure 214
0000
1010
1000
0010
,  // measure 215
1000
0010
0100
0001
,  // measure 216
0100
0000
0001
0000
1000
0001
1000
0001
,  // measure 217
1000
0001
1000
0001
1000
0001
1000
0001
,  // measure 218
1000
0001
1000
0000
0100
0000
0010
0000
,  // measure 219
0100
0000
0010
0000
0100
0000
0010
0100
,  // measure 220
0000
0000
1000
0000
1001
0000
0000
1100
,  // measure 221
0000
0000
0010
0000
0011
0000
0000
1001
,  // measure 222
0000
0001
1000
0001
,  // measure 223
1000
0000
0001
0000
1000
0000
0001
1000
,  // measure 224
0000
0000
0010
0000
0110
0000
0000
1010
,  // measure 225
0000
0000
0100
0000
0101
0000
0000
0110
,  // measure 226
0000
0100
0010
1000
,  // measure 227
0001
0000
0100
0000
0010
0000
1000
0001
,  // measure 228
0000
0000
0100
0000
0110
0000
0000
1010
,  // measure 229
0000
0000
0001
0000
1001
0000
0000
1100
,  // measure 230
0000
0000
0001
0000
0010
0001
0010
0000
,  // measure 231
0001
0000
0001
0000
1000
0100
1000
0000
,  // measure 232
0100
0000
0100
0000
0010
0001
0010
0000
,  // measure 233
0100
1000
0100
0000
0010
0000
0000
0100
,  // measure 234
0000
0010
0100
1000
,  // measure 235
0100
0010
0100
0001
,  // measure 236
0100
0000
0010
0000
0100
0010
0100
0010
,  // measure 237
0100
0010
0100
0010
0100
0010
0100
0010
,  // measure 238
0100
0010
0100
0000
0010
0000
0001
0000
,  // measure 239
0010
0100
0010
1000
,  // measure 240
0010
0100
0100
0001
,  // measure 241
0100
0010
0100
1000
,  // measure 242
1100
0000
0010
1000
,  // measure 243
0010
0100
0010
0001
,  // measure 244
0010
0100
0100
1000
,  // measure 245
0100
0010
0100
0001
,  // measure 246
0101
0000
0000
0000
0010
0001
0010
0000
,  // measure 247
0001
0000
1000
0000
0010
1000
0010
0000
,  // measure 248
1000
0000
0001
0000
1000
0001
1000
0000
,  // measure 249
0001
1000
0100
0010
,  // measure 250
0110
0000
0000
0000
0100
1000
0100
0000
,  // measure 251
1000
0000
0001
0000
0100
0001
0100
0000
,  // measure 252
0001
0000
1000
0000
0001
1000
0001
0000
,  // measure 253
1000
0001
1000
0000
0100
0000
0010
0000
,  // measure 254
0001
0000
1000
0000
0000
0000
0000
0000
0011
0000
0000
0000
0000
1001
0000
0000
,  // measure 255
0000
0000
0101
0000
0000
0000
0000
0000
0110
0000
0000
0000
0000
1010
0000
0000
,  // measure 256
0000
0000
1001
0000
0000
0000
0000
0000
1100
0000
0000
0000
0000
1001
0000
0000
,  // measure 257
0000
0000
1010
0000
0000
0000
0000
0000
0110
0000
0000
0000
0000
0101
0000
0000
,  // measure 258
0000
0000
1001
0000
0000
0000
0000
0000
0101
0000
0000
0000
0000
0110
0000
0000
,  // measure 259
0000
0000
1010
0000
0000
0000
0000
0000
1001
0000
0000
0000
0000
1100
0000
0000
,  // measure 260
0000
0000
0110
0000
0000
0000
0000
0000
0011
0000
0000
0000
0000
1001
0000
0000
,  // measure 261
0000
1100
0000
0000
0011
0000
0000
0000
,  // measure 262
1001
0000
0000
0000
0100
0000
0000
0010
,  // measure 263
1000
0000
0001
0000
0100
0001
0100
0000
,  // measure 264
0010
1000
0000
0100
,  // measure 265
1000
0001
1000
1100
,  // measure 266
0000
0000
0001
0010
,  // measure 267
0100
0010
0000
0100
1000
0000
0001
0000
,  // measure 268
1000
0010
0000
1000
0000
0000
0001
0000
,  // measure 269
0000
0100
0010
0100
,  // measure 270
0010
1000
0010
0000
1000
0000
0000
0001
,  // measure 271
1000
0000
0100
0000
1000
0100
1000
0000
,  // measure 272
0001
0010
0100
0010
,  // measure 273
0001
0000
1000
0100
0000
0000
1100
0000
,  // measure 274
0000
0000
0001
0010
,  // measure 275
0000
0100
0000
0000
1000
0100
1000
0000
,  // measure 276
0001
1000
0000
0000
,  // measure 277
0100
0000
0000
0000
0011
0000
0000
1001
,  // measure 278
0000
1100
0100
0010
,  // measure 279
0100
1000
0100
0010
,  // measure 280
0100
0000
1000
0000
0001
1000
0001
1000
,  // measure 281
0001
1000
0001
1000
0001
1000
0001
1000
,  // measure 282
0001
1000
0001
0000
1000
0001
0000
1000
,  // measure 283
0010
0000
1000
0001
0000
1000
0100
0000
,  // measure 284
1000
0001
1000
0001
0010
0000
0000
0000
,  // measure 285
0100
0000
0000
0000
1000
0000
0000
1001
,  // measure 286
0000
0000
0001
0000
,  // measure 287
0100
0000
0001
0010
,  // measure 288
0001
1000
0100
1000
,  // measure 289
0001
0000
0000
0000
1000
0100
0000
1100
,  // measure 290
0000
0000
0000
0000
0001
0010
0001
0000
,  // measure 291
1000
0000
1000
0000
1000
0100
1000
0000
,  // measure 292
0001
0001
1000
0100
,  // measure 293
0010
0000
0001
0000
0010
0000
0000
0110
,  // measure 294
0000
0000
0000
0000
1000
0100
1000
0100
,  // measure 295
1000
0100
1000
0100
1000
0001
1000
0001
,  // measure 296
1000
0001
1000
0001
0010
0001
0010
0001
,  // measure 297
0010
0001
0010
0001
0010
0000
0000
1001
;
