#TITLE:HAPPY FEET Mix;
#SUBTITLE:(DDR HOTTEST PARTY -Side A-);
#ARTIST:Nightime;
#TITLETRANSLIT:;
#SUBTITLETRANSLIT:;
#ARTISTTRANSLIT:;
#CREDIT:;
#BANNER:;
#BACKGROUND:HOT-A-bg.png;
#LYRICSPATH:;
#CDTITLE:;
#MUSIC:HOT-A.mp3;
#OFFSET:-0.050;
#SAMPLESTART:171.240;
#SAMPLELENGTH:12.000;
#SELECTABLE:YES;
#BPMS:0.000=150.000,676.000=155.000,836.000=160.000;
#STOPS:176.000=0.790
,432.250=0.400
,447.250=0.400
;
#BGCHANGES:;

//---------------dance-single - ----------------
#NOTES:
     dance-single:
     :
     Hard:
     8:
     0.587,0.569,0.306,0.158,0.146: // measure 1
0000
0000
0000
0000
,  // measure 2
0000
0000
0000
0000
,  // measure 3
0000
0000
0000
0000
,  // measure 4
0000
0000
0000
0000
,  // measure 5
0020
0000
1000
0000
1000
0000
1030
0100
,  // measure 6
0020
0000
0001
0000
0001
0000
0031
0100
,  // measure 7
2000
0000
0100
0000
0100
0000
3100
0001
,  // measure 8
2000
0000
0100
0000
0100
0000
3100
0010
,  // measure 9
0002
0000
1000
0000
1000
0000
1003
0100
,  // measure 10
0002
0000
0100
0000
0100
0000
0103
1000
,  // measure 11
0020
0100
0100
0130
,  // measure 12
0001
0100
1000
0000
1000
0100
0001
0000
,  // measure 13
0210
0301
1001
0000
,  // measure 14
1010
0101
0011
1100
,  // measure 15
1002
0010
0000
0013
,  // measure 16
0011
1100
1010
0101
,  // measure 17
1002
0100
0000
0103
,  // measure 18
0101
1100
1010
0011
,  // measure 19
1001
0000
1100
0000
,  // measure 20
0101
1100
0010
0110
,  // measure 21
0001
0100
0010
0000
0001
0100
0010
0000
,  // measure 22
1000
0100
0010
0000
1000
0000
1010
0000
,  // measure 23
0001
0100
0010
0000
0001
0100
0010
0000
,  // measure 24
1000
0000
0100
0000
0001
0010
0100
0000
,  // measure 25
1000
0100
0010
0000
1000
0100
0010
0000
,  // measure 26
0001
0100
0010
0000
1000
0000
0100
0000
,  // measure 27
0001
0100
1000
0000
0001
0100
1000
0000
,  // measure 28
1000
0010
0001
0010
1000
0100
0010
0000
,  // measure 29
0001
1000
0100
0000
0010
0000
0011
0000
,  // measure 30
1000
0001
0100
0000
0010
0000
1010
0000
,  // measure 31
0100
0000
0010
0000
1000
0001
0100
0000
,  // measure 32
0100
0001
1000
0001
0010
0000
0000
0000
,  // measure 33
0100
0000
1000
0000
0100
1000
0010
0000
,  // measure 34
0100
0000
0001
0000
0100
0001
0010
0000
,  // measure 35
0011
0000
1100
0000
,  // measure 36
0101
0000
1010
0000
,  // measure 37
1000
0010
1000
0100
1000
0001
1000
0100
,  // measure 38
0010
0001
0100
0010
0100
0001
0100
0000
,  // measure 39
0001
0100
0001
0010
0001
1000
0001
0010
,  // measure 40
0100
1000
0010
0100
0010
1000
0010
0000
,  // measure 41
1000
0100
1000
0010
1000
0001
1000
0010
,  // measure 42
0100
0001
0010
1000
0010
0001
0100
0000
,  // measure 43
0001
0100
0001
0010
0001
1000
0001
0010
,  // measure 44
0100
1000
0010
0001
0010
1000
0100
0000
,  // measure 45
1001
0000
1000
0000
0010
1000
0100
0000
,  // measure 46
0010
0000
0010
0000
0001
0100
1000
0000
,  // measure 47
1000
0100
0001
0000
1000
0100
0001
0100
,  // measure 48
1000
0010
1000
0000
0001
0000
0100
0000
,  // measure 49
1001
0000
0001
0000
0010
0001
0100
0000
,  // measure 50
0010
0000
0010
0000
1000
0100
0001
0000
,  // measure 51
0001
0100
1000
0000
0001
0100
1000
0100
,  // measure 52
0001
0010
0001
0000
1000
0000
0100
0000
,  // measure 53
1001
0000
0101
0000
0001
0010
0001
0000
,  // measure 54
1001
0000
1100
0000
1000
0010
1000
0000
,  // measure 55
0100
1000
0100
0000
0010
0001
0100
0001
,  // measure 56
0010
0000
0100
0000
1000
0010
1000
0010
,  // measure 57
1000
0000
1000
0000
0001
0100
0001
0000
,  // measure 58
1010
0000
0101
0000
0010
1000
0100
0000
,  // measure 59
0010
1000
0100
0000
0110
0000
1001
0000
,  // measure 60
0110
0000
0000
0000
0000
0000
0000
0000
1000
0000
0000
0010
0000
0000
1000
0000
,  // measure 61
0000
0000
0010
0000
1000
0000
0000
0000
0100
0000
0000
0010
0000
0000
0100
0000
,  // measure 62
0000
0000
0010
0000
0100
0000
0000
0000
0001
0000
0000
0010
0000
0000
0001
0000
,  // measure 63
0000
0000
0010
0000
0001
0000
0000
0000
0100
0000
0000
0010
0000
0000
0100
0000
,  // measure 64
0000
0010
0110
0000
0001
1000
0001
0010
,  // measure 65
0000
0000
0100
0000
0000
1000
0000
0000
0010
0000
0100
0000
0010
0000
1000
0000
,  // measure 66
0000
0000
0100
0000
0000
0010
0000
0000
0001
0000
1000
0000
0001
0000
0100
0000
,  // measure 67
0000
0000
0010
0000
0000
1000
0000
0000
0100
0000
0010
0000
0100
0000
1000
0000
,  // measure 68
0000
0000
0001
0000
0000
0100
0000
0000
0010
0000
1000
0000
0001
0000
0010
0000
,  // measure 69
0000
0000
1100
0000
0000
0001
0000
0000
0100
0000
0010
0000
1000
0000
0100
0000
,  // measure 70
0000
0000
0011
0000
0000
0100
0000
0000
1000
0000
0010
0000
0100
0000
0001
0000
,  // measure 71
0000
0000
1010
0000
0000
0100
0000
0000
0001
0000
1000
0000
0001
0000
1000
0000
,  // measure 72
0002
0000
2000
3003
1001
0000
0001
0000
,  // measure 73
0010
1000
0100
0000
0010
0000
0100
0000
,  // measure 74
1000
0100
0010
0000
0001
0000
1000
0010
,  // measure 75
0100
0001
1000
0000
0001
0010
0001
1000
,  // measure 76
0100
0001
0100
0010
0001
1000
0010
0100
,  // measure 77
1000
0100
0001
0100
0010
1000
0100
1000
,  // measure 78
0001
0010
0100
1000
0001
0000
1000
0100
,  // measure 79
0010
0001
0100
0000
0001
0000
1000
0000
,  // measure 80
0001
0100
0010
0000
1000
0000
0001
0000
,  // measure 81
1000
0000
0100
0000
0010
0000
0000
0000
0001
1000
0001
0000
0010
0000
0100
0000
,  // measure 82
1000
0010
0100
0001
1000
0100
0010
0100
,  // measure 83
0000
1000
0100
0001
0100
0010
0001
0100
,  // measure 84
0000
0010
0001
0010
1000
0001
0010
1000
,  // measure 85
0000
0010
0001
0100
0001
1000
0100
1000
,  // measure 86
0000
0010
0100
0001
0010
0001
0100
1000
,  // measure 87
0000
0100
0001
1000
0100
0010
1000
0010
,  // measure 88
0000
0001
1000
0001
0100
0001
0010
0100
,  // measure 89
0000
1000
0010
0100
0001
1000
0100
0010
,  // measure 90
0000
0001
1000
0001
1001
0000
0000
1100
,  // measure 91
0000
0000
0011
0000
0000
0001
0000
0000
0101
0000
0000
0000
0000
0000
0110
0000
,  // measure 92
0000
0000
1010
0000
0000
1000
0000
0000
0001
0100
0000
0001
0000
0100
0000
0010
,  // measure 93
0000
0000
0010
0000
0000
1000
0000
0000
0001
0000
0000
1000
0000
0000
0001
0000
,  // measure 94
0100
0001
0000
1000
0000
0100
0000
0000
0010
0100
0000
1000
0000
0010
0000
0100
,  // measure 95
0000
0001
0000
0000
0100
0000
0000
0100
0000
0000
0100
0000
0000
0100
0000
0000
,  // measure 96
0001
1000
0000
0100
0000
0010
0000
0000
1001
0000
0010
0000
0100
0000
0110
0000
,  // measure 97
0000
0000
1000
0000
0000
0001
0000
0000
0110
0000
1000
0000
0001
0000
0110
0000
,  // measure 98
0000
0000
1000
0000
0000
0100
0000
0000
0011
0000
0010
0000
0100
0000
1100
0000
,  // measure 99
0000
0000
0001
0000
0000
0001
0000
0000
0100
0000
0010
0000
0100
0000
0010
0000
,  // measure 100
0200
0000
0310
0000
0010
1000
0001
1000
,  // measure 101
0010
1000
0100
1000
0001
1000
0100
1000
,  // measure 102
0010
1000
0100
1000
0002
0000
0000
1003
,  // measure 103
0000
0000
0100
0000
0000
0010
0000
0000
0001
0000
0010
0000
0001
0000
0010
0000
,  // measure 104
0002
0000
0013
0000
0010
0001
1000
0001
,  // measure 105
0010
0001
0100
0001
1000
0001
0100
0001
,  // measure 106
0010
0001
0100
0001
2000
0000
0000
3001
,  // measure 107
0000
0000
0010
0000
0000
0001
0000
0000
1000
0000
0100
0000
1000
0000
0100
0000
,  // measure 108
2000
0000
3100
0000
0001
1000
0001
1000
,  // measure 109
0000
0010
0001
0000
1000
0000
0001
0000
1000
0000
0001
0000
0000
0000
0100
0000
,  // measure 110
0101
0001
1000
0000
0000
0010
1000
0001
,  // measure 111
0010
0100
1000
0001
1000
0001
2000
0000
,  // measure 112
3001
0000
0000
0000
0010
0000
0100
0000
0010
0000
0001
0000
0000
0010
1000
0000
,  // measure 113
0001
1000
0100
0010
0000
0001
1001
1000
,  // measure 114
0100
0000
0000
0010
0001
1000
0001
0100
,  // measure 115
0001
1000
0001
1000
0002
0000
1003
0000
,  // measure 116
1100
0000
0101
0001
0010
0100
1000
0000
,  // measure 117
0001
0010
0100
0001
0100
1000
0001
0000
,  // measure 118
1000
0000
0010
0000
1000
0000
0100
0000
0010
0000
0001
1000
0000
0000
0000
0000
,  // measure 119
0010
0100
0001
0010
0100
0001
0100
0000
,  // measure 120
1000
0010
1000
0001
0010
0100
1000
0010
,  // measure 121
0110
0000
0000
0001
1000
0100
0001
0100
,  // measure 122
0010
0000
0001
1000
0010
1000
0100
0010
,  // measure 123
0001
1000
0001
0000
1000
0100
0010
0001
,  // measure 124
2002
0000
0000
3003
,  // measure 125
1000
0000
0000
1000
0100
0000
0000
0100
0010
0000
0000
0010
0001
0000
0000
0001
,  // measure 126
1000
0000
0000
1000
0010
0000
0000
0010
0100
0000
0000
0100
0001
0000
1000
0000
,  // measure 127
0001
0000
0000
0001
0010
0000
0000
0010
0100
0000
0000
0100
1000
0000
0000
1000
,  // measure 128
0010
0000
0000
0010
1000
0000
0000
1000
0001
0000
0000
0001
0100
0000
0010
0000
,  // measure 129
0100
0000
0101
0000
0010
1000
0100
0000
,  // measure 130
0100
0000
1100
0000
0010
0001
0100
0000
,  // measure 131
0010
1000
0100
0001
0100
1000
0010
0001
,  // measure 132
0010
1000
0100
0001
0100
1000
0010
0001
,  // measure 133
0010
0000
0000
1000
0100
0000
0000
0010
0001
0000
0000
0100
0010
0000
0000
1000
,  // measure 134
0001
0000
0000
0010
0001
0000
0000
1000
0010
0000
0000
1000
0100
0000
0010
0000
,  // measure 135
0001
0000
0000
1000
0010
0000
0000
0100
0010
0000
0000
1000
0100
0000
0000
0010
,  // measure 136
0001
0000
0000
0100
0010
0000
0000
0100
0001
0000
0000
1000
0010
0000
0100
0000
,  // measure 137
0001
0000
0011
0000
0010
0100
1000
0000
,  // measure 138
1000
0000
1010
0000
0010
0100
0001
0000
,  // measure 139
1000
0100
0001
0100
1000
0100
0001
0100
,  // measure 140
1000
0010
0001
0010
1000
0010
0001
0010
,  // measure 141
1000
0100
1000
0100
0020
0000
0001
0000
,  // measure 142
1000
0001
1000
0031
,  // measure 143
0100
0001
0100
0001
0020
0000
0001
0000
,  // measure 144
1000
0001
1000
0031
,  // measure 145
1000
0010
0100
0001
,  // measure 146
0011
0100
1000
1001
,  // measure 147
1001
0010
0100
1000
,  // measure 148
1010
0100
0001
1001
,  // measure 149
0220
0000
0000
0330
,  // measure 150
2002
0000
0000
0003
,  // measure 151
0200
0000
0000
0000
0000
0000
3000
1300
,  // measure 152
0100
0000
0010
0000
,  // measure 153
0001
1000
0101
1100
,  // measure 154
0010
0001
0100
0001
1000
0010
1000
0100
,  // measure 155
0010
0100
1000
0001
0100
0010
0100
0000
,  // measure 156
0001
1000
0001
0010
0100
1000
0010
1000
,  // measure 157
0001
0100
0010
1000
0100
0010
0001
0000
,  // measure 158
1000
0100
0010
0100
1000
0001
0010
0001
,  // measure 159
0100
0010
1000
0100
0010
0001
0100
0000
,  // measure 160
0010
1000
0001
0010
0100
1000
0010
0100
,  // measure 161
0001
0010
0100
0010
0001
1000
0001
0000
,  // measure 162
1000
0010
0100
0001
,  // measure 163
1000
0010
0100
0001
,  // measure 164
1000
0100
1000
0000
0001
0010
0001
0000
,  // measure 165
1000
0010
0001
0010
1000
0010
0100
0000
,  // measure 166
0001
1000
0001
0000
0010
0100
0010
0000
,  // measure 167
0001
0100
0010
1000
0100
0010
0001
0000
,  // measure 168
1000
1000
0001
0000
0001
0001
0100
0000
,  // measure 169
2002
0000
0000
3003
,  // measure 170
0010
1000
0100
1000
0001
0100
0010
0001
,  // measure 171
0010
1000
0100
0000
0100
0010
0001
0100
,  // measure 172
0001
1000
0010
0100
1000
0100
0001
0000
,  // measure 173
0001
1000
0100
0001
0100
0010
0001
0100
,  // measure 174
0010
1000
0001
0000
0001
0100
0010
1000
,  // measure 175
0100
0010
0100
0001
0100
0010
0001
0100
,  // measure 176
0010
0100
0000
0000
0100
0010
1000
0000
,  // measure 177
1000
0001
0010
0000
0010
0100
1000
0100
,  // measure 178
1000
0000
0001
0100
0000
0000
0001
0000
1000
0100
0000
0000
1000
0000
0001
0010
,  // measure 179
0000
0100
1000
0100
0010
0001
0100
0001
,  // measure 180
1000
0000
0010
0100
0000
0000
0001
0000
0010
0100
0000
0000
1000
0000
0100
0010
,  // measure 181
0000
0001
1000
0010
1000
0100
0010
0001
,  // measure 182
0100
0000
0001
0010
0000
0000
0100
0000
1000
0010
0000
0000
0100
0000
0001
1000
,  // measure 183
0000
0010
1000
0010
0100
0001
0010
0100
,  // measure 184
0010
0000
0001
0100
0000
0000
0010
0000
1000
0100
0000
0000
0010
0000
0001
1000
,  // measure 185
0000
0010
0100
0010
0100
0000
1001
0000
,  // measure 186
1000
0100
0010
0000
0001
0100
0010
0000
,  // measure 187
1000
0010
1000
0001
0010
0100
1000
0000
,  // measure 188
0001
0100
0010
0000
1000
0100
0010
0000
,  // measure 189
0001
0010
0001
1000
0010
0100
0001
0000
,  // measure 190
1000
0100
0100
0000
0001
0100
0100
0000
,  // measure 191
0010
1000
0100
0001
0100
1000
0010
0000
,  // measure 192
0001
0100
0100
0000
1000
0100
0100
0000
,  // measure 193
2002
0000
0000
3003
,  // measure 194
0200
0001
0001
0000
0010
0310
0100
0001
,  // measure 195
0010
0000
0100
0000
1000
0001
0100
0000
,  // measure 196
0020
1000
1000
0000
0100
0130
0010
1000
,  // measure 197
0001
0000
0010
0000
0100
0001
1000
0000
,  // measure 198
0002
1000
1000
0000
0010
0013
0001
0100
,  // measure 199
1000
0000
0100
0000
0001
0010
0100
0000
,  // measure 200
2000
0001
0001
0000
0010
3010
1000
0100
,  // measure 201
0001
0000
0100
0000
1000
0010
0100
0000
,  // measure 202
0001
0010
0000
0001
0000
1000
0000
0001
0000
1000
0000
0010
0100
0000
0001
0000
,  // measure 203
2002
0000
0000
3003
,  // measure 204
1000
0010
0000
1000
0000
0001
0000
1000
0000
0001
0000
0010
0100
0000
1000
0000
,  // measure 205
2002
0000
0000
3003
,  // measure 206
0010
1000
0000
0100
0000
1000
0000
0100
0000
1000
0000
0001
0010
0000
0100
0000
,  // measure 207
0220
0000
0000
0330
,  // measure 208
0010
0001
0000
0100
0000
0001
0000
0100
0000
0001
0000
1000
0010
0000
0100
0000
,  // measure 209
0220
0000
0000
0330
,  // measure 210
0001
0000
0000
0010
0000
0000
0001
0000
0000
0010
0000
0000
0100
0000
1000
0000
,  // measure 211
0010
0000
0000
1000
0000
0000
0010
0000
0000
1000
0000
0000
0100
0000
0010
0000
,  // measure 212
0001
0000
0000
1000
0000
0000
0001
0000
0000
1000
0000
0000
0001
0000
0100
0000
,  // measure 213
0010
0000
0000
0100
0000
0000
0010
0000
0000
0100
0000
0000
0010
0000
1000
0000
,  // measure 214
0100
0000
0000
1000
0000
0000
0001
0000
0000
0010
0000
0000
0001
0000
1000
0000
,  // measure 215
0010
0000
0000
0100
0000
0000
0001
0000
0000
0010
0000
0000
0001
0000
1000
0000
,  // measure 216
0010
0000
0000
0100
0000
0000
0001
0000
0000
1000
0000
0000
0100
0000
0010
0000
,  // measure 217
0001
0000
0000
1000
0000
0000
0010
0000
0000
0100
0000
0000
0001
0000
1000
0000
,  // measure 218
0200
0000
0000
0000
0010
0300
0010
0000
,  // measure 219
0010
0100
1000
0001
1000
0100
0000
0020
,  // measure 220
0000
0001
0000
0001
0000
1000
0000
1000
,  // measure 221
0000
0001
0000
0001
0000
0100
0030
0100
,  // measure 222
2000
0000
0001
3001
,  // measure 223
0001
1000
0001
0100
0010
1000
0000
0200
,  // measure 224
0000
0001
0000
0001
0000
1000
0000
1000
,  // measure 225
0000
0001
0000
0001
0000
0010
0300
0010
,  // measure 226
0100
1000
0010
0001
0010
1000
0100
0000
,  // measure 227
0010
0001
0100
1000
0100
0001
0010
0000
,  // measure 228
0100
1000
0010
0100
0001
1000
0001
0000
,  // measure 229
1001
0110
1100
0101
,  // measure 230
1001
0020
2030
3200
,  // measure 231
0301
0000
0100
0000
1000
0010
0100
0000
,  // measure 232
0001
0000
1000
0001
0100
1000
0100
0001
,  // measure 233
0011
0101
1100
1010
,  // measure 234
1001
0200
0302
0023
,  // measure 235
1030
0000
0010
0000
0001
0100
0010
0000
,  // measure 236
1000
0000
0001
1000
0010
0001
0010
1000
,  // measure 237
1100
1010
0011
0101
,  // measure 238
0010
1000
0100
1000
0010
1000
0100
1000
,  // measure 239
0002
0000
0103
0020
0000
1030
0002
0000
,  // measure 240
0013
0001
1001
0000
1000
0100
1001
0000
,  // measure 241
0010
1000
1001
0000
0001
0100
1001
0000
,  // measure 242
0100
0001
0010
0001
0100
0001
0010
0001
,  // measure 243
2000
0000
3010
0200
0000
0301
2000
0000
,  // measure 244
3001
1000
0101
0000
0001
0010
1100
0000
,  // measure 245
0100
1000
0010
1000
0001
0010
0001
0100
,  // measure 246
1001
0200
0302
0023
,  // measure 247
1030
0000
0010
0000
0001
0100
0010
0000
,  // measure 248
1000
0000
0001
1000
0010
0001
0010
1000
,  // measure 249
1100
1010
0011
0101
,  // measure 250
1001
0020
2030
3200
,  // measure 251
0301
0000
0100
0000
1000
0010
0100
0000
,  // measure 252
0001
0000
1000
0001
0100
1000
0100
0001
,  // measure 253
0011
0101
1100
1010
,  // measure 254
1001
1100
0101
1100
,  // measure 255
1010
0011
0101
1100
,  // measure 256
1001
0101
1100
0101
,  // measure 257
0011
1010
1100
0101
,  // measure 258
0010
0001
0100
0000
0010
1000
0100
0000
,  // measure 259
0001
0100
1000
0000
0001
0010
1000
0000
,  // measure 260
0100
1000
0010
0000
0100
0001
0010
0000
,  // measure 261
1000
0010
0001
0000
1000
0100
0001
0000
,  // measure 262
0010
1000
0010
1000
0001
0100
0001
0100
,  // measure 263
0001
0010
0001
0010
0100
1000
0100
1000
,  // measure 264
0010
0001
0010
1000
0010
0001
0010
1000
,  // measure 265
0100
0000
0010
0000
0100
0000
1000
0000
0001
0000
0100
0000
0010
0000
1000
0001
;

//---------------dance-single - ----------------
#NOTES:
     dance-single:
     :
     Medium:
     5:
     0.389,0.442,0.224,0.165,0.000: // measure 1
0000
0000
0000
0000
,  // measure 2
0000
0000
0000
0000
,  // measure 3
0000
0000
0000
0000
,  // measure 4
0000
0000
0000
0000
,  // measure 5
1000
0100
1000
0010
,  // measure 6
0001
0100
0001
0010
,  // measure 7
1000
0100
1000
0001
,  // measure 8
0100
0010
0100
0000
,  // measure 9
0001
0010
0001
0100
,  // measure 10
1000
0010
1000
0100
,  // measure 11
0001
0010
0001
1000
,  // measure 12
0010
0100
0010
0000
,  // measure 13
1000
0001
0100
0000
,  // measure 14
0010
0100
0001
0010
,  // measure 15
0110
0000
0100
0000
,  // measure 16
1000
0001
1001
0000
,  // measure 17
0110
0000
1001
0000
,  // measure 18
0001
0010
0100
1000
,  // measure 19
1010
0000
0101
0000
,  // measure 20
1001
0100
1001
0000
,  // measure 21
0010
1000
0100
0001
,  // measure 22
0100
1000
0110
0000
,  // measure 23
0001
0100
1000
0100
,  // measure 24
0110
0001
0110
0000
,  // measure 25
0001
1000
0100
0000
0100
0000
0000
0000
,  // measure 26
1000
0001
0010
0000
0010
0000
0000
0000
,  // measure 27
0001
0010
0100
0000
1000
0000
1010
0000
,  // measure 28
0101
0000
1001
0000
,  // measure 29
0010
0100
1000
0001
,  // measure 30
0100
0000
0010
1000
0010
0000
0000
0000
,  // measure 31
1000
0010
0100
0001
,  // measure 32
0010
0100
1000
0100
0010
0000
0001
0000
,  // measure 33
0011
0000
1100
0000
,  // measure 34
0001
0010
0100
0010
0001
0000
0000
0000
,  // measure 35
0100
0000
0000
0010
1000
0000
0000
0001
,  // measure 36
0200
0000
0310
0000
,  // measure 37
0100
0010
0100
0000
0010
0100
0010
0000
,  // measure 38
1000
0100
0010
0001
,  // measure 39
0100
0001
0100
0000
0001
0100
0001
0000
,  // measure 40
0010
0100
1000
0010
,  // measure 41
1000
0010
1000
0000
0010
1000
0010
0000
,  // measure 42
1000
0001
0010
0100
,  // measure 43
1000
0100
1000
0000
0100
1000
0100
0000
,  // measure 44
1000
0010
0001
0100
,  // measure 45
0100
0001
0100
1000
,  // measure 46
0110
0000
0001
0100
,  // measure 47
1000
0100
0110
0001
,  // measure 48
0110
0000
0000
0000
0001
1000
0100
0000
,  // measure 49
0100
0000
0000
0000
1000
0001
0010
0000
,  // measure 50
0010
0000
0000
0000
0001
0010
0100
0000
,  // measure 51
1000
1010
0101
0000
,  // measure 52
1001
0000
0010
0100
,  // measure 53
1000
0000
0001
0000
0100
0000
0010
1000
,  // measure 54
0010
1010
0100
0001
,  // measure 55
0100
0001
2000
0100
,  // measure 56
0100
0000
3100
0000
1000
0100
0001
0000
,  // measure 57
0001
0000
0000
0000
0001
0100
1000
0000
,  // measure 58
1000
0000
1000
0001
,  // measure 59
0100
0010
0200
0010
,  // measure 60
0010
0000
0310
0000
1000
0000
0000
1001
,  // measure 61
0000
0000
0000
0000
0001
0000
0000
1001
,  // measure 62
0000
0000
0110
0000
0010
0000
0000
1001
,  // measure 63
0000
0000
0000
0000
0001
0000
0000
1001
,  // measure 64
0000
0000
0000
0000
0010
0000
0000
0100
,  // measure 65
0000
0000
1000
0000
1000
0000
0000
0001
,  // measure 66
0000
0000
0010
0000
0010
0000
0000
0100
,  // measure 67
0000
0000
1000
0000
1000
0000
0000
0001
,  // measure 68
0000
0000
0010
0000
0010
0000
0000
0100
,  // measure 69
0000
0000
1000
0000
1000
0000
0000
0001
,  // measure 70
0000
0000
0010
0000
0010
0000
0000
0100
,  // measure 71
0000
1000
1000
0001
,  // measure 72
0110
1001
0100
0010
,  // measure 73
0001
0010
0100
1000
,  // measure 74
0010
0100
0001
0000
0100
0000
0010
0000
,  // measure 75
1000
0010
0100
0001
,  // measure 76
0010
0100
1000
0000
0010
0000
0100
0000
,  // measure 77
0001
0100
0010
1000
,  // measure 78
0100
0010
0001
0000
0010
0000
0100
0000
,  // measure 79
1000
0100
0010
0001
,  // measure 80
0100
0010
1000
0000
0200
0000
0010
0000
,  // measure 81
0000
0310
0002
1000
,  // measure 82
0000
1003
1010
0100
,  // measure 83
0001
0000
0011
0100
,  // measure 84
1000
0000
0101
0010
,  // measure 85
1000
0000
1100
0010
,  // measure 86
0001
0000
1001
0010
,  // measure 87
0100
0000
1100
0001
,  // measure 88
0010
0000
0101
1000
,  // measure 89
0010
0000
0110
1000
,  // measure 90
0001
0000
1000
0000
1100
0000
0000
1001
,  // measure 91
0000
0000
0000
0000
0101
0000
0000
1001
,  // measure 92
0000
0000
0100
0010
,  // measure 93
0100
0100
0010
0010
,  // measure 94
1000
0001
0100
0001
,  // measure 95
0100
0100
0010
0010
,  // measure 96
1000
0000
0001
0000
2000
0000
0000
3001
,  // measure 97
0000
0000
0000
0000
0002
0000
0000
1003
,  // measure 98
0000
0000
0000
0000
1001
0000
0000
1001
,  // measure 99
0000
0000
1000
0001
,  // measure 100
1000
0000
0001
0000
0010
0000
0000
0001
,  // measure 101
0000
0000
1000
0000
1000
0000
0000
0001
,  // measure 102
0000
0000
0010
0000
0010
0000
0000
0001
,  // measure 103
0000
0100
0100
0001
,  // measure 104
1100
0000
0101
0000
0010
0000
0000
1000
,  // measure 105
0000
0000
0001
0000
0001
0000
0000
0100
,  // measure 106
0000
0000
0010
0000
0010
0000
0000
1000
,  // measure 107
0000
0001
0001
1000
,  // measure 108
0001
0000
1000
0000
0100
0010
0100
0000
,  // measure 109
0110
0000
0001
1000
0001
0000
0000
0000
,  // measure 110
1001
0000
0100
0010
0100
0000
0000
0000
,  // measure 111
1001
0010
0100
1000
,  // measure 112
0001
0000
1000
0001
1000
0000
1100
0000
,  // measure 113
0010
0001
0100
0000
0000
0000
0101
0000
,  // measure 114
0010
1000
0100
0000
0000
0000
1001
0000
,  // measure 115
1000
0001
1100
0011
,  // measure 116
0001
1000
0010
0001
,  // measure 117
0100
0000
1000
0000
0010
0000
0001
0100
,  // measure 118
1000
0001
0011
1000
,  // measure 119
0100
0000
0001
0000
0010
0000
1000
0100
,  // measure 120
0001
1000
1100
1000
,  // measure 121
0100
0000
0010
0000
0001
0000
0010
0001
,  // measure 122
0100
0001
0101
0001
,  // measure 123
0100
0000
0010
0000
1000
0000
0010
1000
,  // measure 124
0100
0020
0000
0000
,  // measure 125
0030
1002
0000
0100
,  // measure 126
0103
0020
0000
1000
,  // measure 127
1030
2001
0000
0100
,  // measure 128
3100
0020
0000
0001
,  // measure 129
0031
0200
0010
0010
,  // measure 130
0310
2000
0001
0001
,  // measure 131
3001
0020
0100
0100
,  // measure 132
0130
2000
0001
0001
,  // measure 133
3001
0020
0001
0100
,  // measure 134
0031
0200
0010
0001
,  // measure 135
0310
2000
0100
0001
,  // measure 136
3100
0002
0100
1000
,  // measure 137
0103
0010
1000
0100
,  // measure 138
0001
0010
1000
0100
,  // measure 139
1001
0010
0001
0100
,  // measure 140
1000
2002
0000
0000
,  // measure 141
3003
0000
0100
0010
0100
0010
0200
0000
,  // measure 142
0010
0000
0010
0000
,  // measure 143
0310
0000
0001
1000
0001
1000
0002
0000
,  // measure 144
1003
0000
0100
0010
,  // measure 145
0100
0000
1000
0010
1000
0010
1000
0000
,  // measure 146
0002
0000
0103
0000
,  // measure 147
0000
0000
0001
0010
0001
0010
0001
0000
,  // measure 148
2000
0000
0000
0100
,  // measure 149
3100
0000
0220
0000
0000
0000
0000
0330
,  // measure 150
0000
2002
0000
0000
,  // measure 151
0000
0000
0000
0000
,  // measure 152
3000
1000
1003
0000
0000
0000
0100
0000
,  // measure 153
0000
0100
0000
0010
,  // measure 154
0010
0001
0011
0100
,  // measure 155
1000
0001
0011
0100
,  // measure 156
1000
0000
0001
1000
0100
0100
0000
0001
,  // measure 157
0100
0100
0020
0000
0000
0000
0000
0000
,  // measure 158
0030
1000
1100
0010
,  // measure 159
0001
1000
1100
0010
,  // measure 160
0001
0000
1000
0010
0100
0100
0000
0001
,  // measure 161
0010
0010
0200
0000
0000
0000
0000
0000
,  // measure 162
0300
1000
0010
1000
,  // measure 163
0100
0001
0010
0001
,  // measure 164
1000
0010
1000
0100
,  // measure 165
0010
0001
0100
0000
0010
0001
0100
0000
,  // measure 166
0001
1000
0010
0100
,  // measure 167
0001
1000
0100
0000
1000
0010
0100
0000
,  // measure 168
0001
0010
0100
1000
,  // measure 169
0001
0010
0100
0000
1000
0001
0100
0000
,  // measure 170
0010
1000
0001
0010
,  // measure 171
0100
1000
0001
0100
,  // measure 172
0010
1000
0100
0001
,  // measure 173
0100
1000
0010
0001
,  // measure 174
0010
0100
0001
1000
,  // measure 175
0100
0010
0001
1000
,  // measure 176
0001
0010
0100
1001
,  // measure 177
1000
0010
0100
1001
,  // measure 178
0020
1030
0200
0301
,  // measure 179
0100
1000
0001
0000
0100
0000
0001
0000
,  // measure 180
0200
0301
0020
1030
,  // measure 181
0010
0001
1000
0000
0010
0000
0100
0000
,  // measure 182
0002
1003
2000
3010
,  // measure 183
0100
0001
1000
0000
0100
0000
0010
0000
,  // measure 184
0200
1300
0020
0130
,  // measure 185
0001
0010
0100
0000
1000
0000
0001
0000
,  // measure 186
1000
0100
0010
0001
,  // measure 187
0100
0000
0010
0000
1000
0100
0001
0000
,  // measure 188
0100
0010
0001
0100
,  // measure 189
0010
0000
1000
0000
0001
0100
1000
0000
,  // measure 190
0100
0010
1000
0100
,  // measure 191
0010
0000
0001
0000
1000
0010
0001
0000
,  // measure 192
0010
1000
0100
1000
,  // measure 193
0010
0000
0100
0000
0001
0010
1000
0000
,  // measure 194
0010
0100
0010
1001
,  // measure 195
0100
0000
0010
0000
0001
1000
0100
1000
,  // measure 196
0010
0100
0010
1001
,  // measure 197
0100
0000
0100
0000
0100
0000
1000
0100
,  // measure 198
0010
0001
1000
1001
,  // measure 199
0100
0000
0010
0000
0001
1000
0100
0010
,  // measure 200
0100
1000
0001
0100
,  // measure 201
0220
0000
0000
0330
,  // measure 202
0001
0001
0001
0000
1000
1000
1000
0000
,  // measure 203
0100
0010
0001
0000
,  // measure 204
0100
0100
0100
0000
0010
0010
0010
0000
,  // measure 205
1000
0001
0100
0000
,  // measure 206
0001
0010
0001
0000
1000
0010
1000
0000
,  // measure 207
0100
0010
0100
0000
,  // measure 208
1000
0010
1000
0000
0001
0010
0001
0000
,  // measure 209
0100
0010
0100
0000
,  // measure 210
0001
1000
0100
0100
,  // measure 211
1000
0001
0100
0101
,  // measure 212
0010
1000
0100
0100
,  // measure 213
0010
0001
0100
0110
,  // measure 214
0010
0001
1000
1000
,  // measure 215
0010
1000
0001
1001
,  // measure 216
0100
1000
0100
0010
,  // measure 217
0100
0001
0100
1001
,  // measure 218
0110
0100
0010
0100
,  // measure 219
1000
0000
0010
0000
0100
0010
0000
0010
,  // measure 220
2000
3000
0200
0300
,  // measure 221
0002
0003
0020
0130
,  // measure 222
1000
0010
0100
0010
,  // measure 223
1000
0000
0100
0000
0010
0100
0000
0100
,  // measure 224
2000
3000
0020
0030
,  // measure 225
0002
0003
0200
0300
,  // measure 226
1000
0100
1000
0000
0010
0000
0000
0000
,  // measure 227
0001
0100
0001
0000
0010
0000
0000
0000
,  // measure 228
0100
1000
0010
0001
,  // measure 229
0011
1010
0011
1010
,  // measure 230
1001
0100
1000
0010
,  // measure 231
0001
0100
0001
0010
,  // measure 232
1000
0000
0100
0001
0100
0000
1000
0000
,  // measure 233
0010
0100
1000
0100
,  // measure 234
0000
0010
0001
0100
,  // measure 235
1000
0010
1000
0100
,  // measure 236
0001
0000
0010
1000
0010
0000
0001
0000
,  // measure 237
0100
0010
0001
0010
,  // measure 238
2002
0000
0000
3000
,  // measure 239
1000
0000
0000
0103
0000
0000
0200
0000
,  // measure 240
0020
0000
0000
0330
,  // measure 241
0000
0001
0010
0100
,  // measure 242
0220
0000
0000
0300
,  // measure 243
0100
0000
0000
0031
0000
0000
0002
0000
,  // measure 244
2000
0000
0000
0000
,  // measure 245
0000
3003
1000
0001
,  // measure 246
1001
0010
0001
0100
,  // measure 247
1000
0010
1000
0100
,  // measure 248
0001
0000
0010
1000
0010
0000
0001
0000
,  // measure 249
0100
0010
0001
0010
,  // measure 250
0000
0100
1000
0010
,  // measure 251
0001
0100
0001
0010
,  // measure 252
1000
0000
0100
0001
0100
0000
1000
0000
,  // measure 253
0010
0100
1000
0100
,  // measure 254
0002
1000
1000
2003
,  // measure 255
0100
0100
0010
3010
,  // measure 256
0002
0100
0100
0100
,  // measure 257
1003
2000
0001
3002
,  // measure 258
0100
1000
1000
0023
,  // measure 259
0031
2000
3100
0020
,  // measure 260
0032
0010
1000
1003
,  // measure 261
0200
0310
2000
3001
,  // measure 262
1001
0000
1100
0000
,  // measure 263
0110
0000
0101
0000
,  // measure 264
1001
0000
0110
0000
,  // measure 265
1001
0000
0110
0000
;

//---------------dance-single - ----------------
#NOTES:
     dance-single:
     :
     Easy:
     3:
     0.219,0.347,0.060,0.103,0.000: // measure 1
0000
0000
0000
0000
,  // measure 2
0000
0000
0000
0000
,  // measure 3
0000
0000
0000
0000
,  // measure 4
0000
0000
0000
0000
,  // measure 5
0010
0000
0001
0000
,  // measure 6
1000
0100
0010
0000
,  // measure 7
0001
0000
1000
0000
,  // measure 8
0001
0100
0010
0000
,  // measure 9
0100
0000
0010
0000
,  // measure 10
0100
0000
0010
0000
,  // measure 11
0010
0000
0100
0000
,  // measure 12
0010
1000
0001
1000
,  // measure 13
1001
0000
0010
0000
,  // measure 14
0001
0000
1000
0000
,  // measure 15
0001
0000
0100
0000
,  // measure 16
0010
0000
0100
0000
,  // measure 17
0001
0000
1000
0000
,  // measure 18
0001
0000
0100
0000
,  // measure 19
0001
0000
1000
0000
,  // measure 20
0001
0100
0010
0000
,  // measure 21
0010
1000
0100
0000
,  // measure 22
0010
0000
0100
0000
,  // measure 23
1000
0010
1000
0100
,  // measure 24
0020
0000
0000
0030
,  // measure 25
0001
0100
0010
0000
,  // measure 26
0001
0000
1000
0000
,  // measure 27
0010
0000
0100
0001
,  // measure 28
0020
0000
0000
0030
,  // measure 29
0100
0000
0001
0000
,  // measure 30
1000
0001
0010
0000
,  // measure 31
0100
0000
1000
0000
,  // measure 32
0001
1000
0100
0000
,  // measure 33
1000
0000
0001
0000
,  // measure 34
0010
0001
1000
0000
,  // measure 35
0100
1000
0001
0000
,  // measure 36
0210
0000
0000
0300
,  // measure 37
0100
0000
0010
0000
,  // measure 38
0010
1000
0100
0001
,  // measure 39
0100
0000
0100
0000
,  // measure 40
0010
0001
0100
1000
,  // measure 41
0100
0000
0100
0000
,  // measure 42
0010
1000
0100
0001
,  // measure 43
0100
0000
0010
0000
,  // measure 44
0010
1000
0100
0001
,  // measure 45
0010
0000
0100
0000
,  // measure 46
0010
0000
0001
0100
,  // measure 47
0001
0010
0200
0000
,  // measure 48
0000
0300
1000
0010
,  // measure 49
0100
0000
1000
0000
,  // measure 50
0001
0000
0100
0000
,  // measure 51
0010
1000
0200
0000
,  // measure 52
0000
0300
0100
0000
,  // measure 53
0110
0000
0010
0000
,  // measure 54
0110
0000
1000
0100
,  // measure 55
0001
0100
2000
0000
,  // measure 56
0000
3000
1000
0000
,  // measure 57
0001
0000
0001
0000
,  // measure 58
1001
0000
1000
0100
,  // measure 59
0001
0100
2000
0000
,  // measure 60
0000
3000
0100
0000
,  // measure 61
0000
0000
0010
0000
,  // measure 62
0000
0000
1000
0000
,  // measure 63
0000
0000
0001
0000
,  // measure 64
0000
0000
0010
1000
,  // measure 65
0100
0000
0010
0001
,  // measure 66
0100
0000
0010
1000
,  // measure 67
0100
0000
0010
0001
,  // measure 68
0100
0000
0001
1000
,  // measure 69
0100
0000
1000
0001
,  // measure 70
0100
0000
0010
0010
,  // measure 71
0010
0000
1001
0000
,  // measure 72
0000
0000
1000
0000
,  // measure 73
0010
0000
0001
0000
,  // measure 74
0010
0000
1000
0000
,  // measure 75
0010
0000
0001
0010
,  // measure 76
0100
1000
0001
0000
,  // measure 77
0100
0000
1000
0000
,  // measure 78
0100
0000
0001
0000
,  // measure 79
0100
0000
1000
0100
,  // measure 80
0010
0001
1000
0000
,  // measure 81
1000
0000
0001
0000
,  // measure 82
0001
0000
1000
0100
,  // measure 83
1000
0001
0010
0001
,  // measure 84
0100
0000
0001
0100
,  // measure 85
0001
1000
0010
1000
,  // measure 86
0100
0000
1000
1000
,  // measure 87
0001
0001
0010
0100
,  // measure 88
1000
0000
0001
0001
,  // measure 89
1000
1000
0010
0100
,  // measure 90
0001
0000
1001
0000
,  // measure 91
0000
0000
1001
0000
,  // measure 92
0000
0000
2000
0000
,  // measure 93
3001
0000
0002
0000
,  // measure 94
1003
0000
2000
0000
,  // measure 95
3100
0000
0002
0000
,  // measure 96
0103
0000
2000
0000
,  // measure 97
3000
0000
0002
0000
,  // measure 98
0003
0000
0020
0000
,  // measure 99
0030
0000
1001
0000
,  // measure 100
0000
0000
1000
0000
,  // measure 101
0100
0000
1000
0100
,  // measure 102
0010
0000
0001
0100
,  // measure 103
0010
0000
1001
0000
,  // measure 104
0000
0000
0001
0000
,  // measure 105
0100
0000
0001
0100
,  // measure 106
0010
0000
1000
0100
,  // measure 107
0010
0000
1001
0000
,  // measure 108
0000
0000
0100
0000
,  // measure 109
0010
0100
0000
0000
,  // measure 110
0001
1000
0000
0000
,  // measure 111
0010
1001
0000
0000
,  // measure 112
0000
0100
0000
0010
,  // measure 113
0100
0000
0000
0001
,  // measure 114
1000
0000
0000
0010
,  // measure 115
1001
0000
1000
0000
,  // measure 116
0010
0000
0100
0000
,  // measure 117
1000
1000
1000
0000
,  // measure 118
0001
0010
0001
0000
,  // measure 119
1000
0100
1000
0000
,  // measure 120
0001
0010
1000
0000
,  // measure 121
1000
0010
0001
0000
,  // measure 122
1000
0000
1000
0000
,  // measure 123
0001
0000
0001
0000
,  // measure 124
0220
0000
0000
0000
,  // measure 125
0330
0000
0000
0000
,  // measure 126
0000
0000
0000
0000
,  // measure 127
0001
0010
1000
0010
,  // measure 128
0001
0010
1000
0010
,  // measure 129
0010
0000
0000
0000
,  // measure 130
0100
0000
0000
0000
,  // measure 131
2000
0000
3000
0000
,  // measure 132
0002
0000
0003
0000
,  // measure 133
0010
0000
0001
0001
,  // measure 134
0100
0000
1000
1000
,  // measure 135
0010
0001
0010
1000
,  // measure 136
0010
0001
0010
1000
,  // measure 137
0001
0000
0000
0000
,  // measure 138
0000
0000
0000
0000
,  // measure 139
0002
0000
0003
0000
,  // measure 140
0200
0000
0300
0000
,  // measure 141
1000
1000
0000
0000
,  // measure 142
0010
0000
0000
0000
,  // measure 143
0001
0001
0000
0000
,  // measure 144
0000
0000
1000
0001
,  // measure 145
0010
0000
0010
0000
,  // measure 146
0010
0010
0010
0010
,  // measure 147
0001
0000
1000
0000
,  // measure 148
0100
0000
0010
0000
,  // measure 149
0200
0000
0000
0000
,  // measure 150
0300
0000
0000
0000
,  // measure 151
0000
0000
0000
0000
,  // measure 152
1000
0000
0010
0000
,  // measure 153
1001
0110
1001
0110
,  // measure 154
0000
0000
0000
0000
,  // measure 155
0000
0000
0000
0000
,  // measure 156
1000
0001
0100
0000
,  // measure 157
0001
1000
0100
0000
,  // measure 158
1000
0000
0100
0000
,  // measure 159
0001
0000
0010
0000
,  // measure 160
1000
0100
0001
0100
,  // measure 161
1000
0100
0001
0100
,  // measure 162
1000
0000
0000
0000
,  // measure 163
0000
0000
0000
0000
,  // measure 164
0010
0001
0100
1000
,  // measure 165
0010
0001
0100
1000
,  // measure 166
0110
1001
0110
0000
,  // measure 167
1000
0000
0100
0000
,  // measure 168
0010
0000
0001
0000
,  // measure 169
0001
0000
0100
0000
,  // measure 170
0010
0000
1000
0100
,  // measure 171
1000
0000
0001
0100
,  // measure 172
0001
0000
1000
0010
,  // measure 173
1000
0000
0001
0010
,  // measure 174
0001
0000
1000
0001
,  // measure 175
1000
0000
0001
1000
,  // measure 176
0001
0000
0010
0100
,  // measure 177
0010
0000
0100
0010
,  // measure 178
0100
0000
1000
0000
,  // measure 179
0010
0000
0001
0000
,  // measure 180
0100
0000
1000
0000
,  // measure 181
0010
0000
0001
0000
,  // measure 182
0100
0000
0001
0000
,  // measure 183
0010
0000
1000
0000
,  // measure 184
0100
0000
0001
0000
,  // measure 185
0010
0000
1000
0000
,  // measure 186
0100
0000
0100
0000
,  // measure 187
0020
0000
0030
0000
,  // measure 188
0001
0000
0001
0000
,  // measure 189
2000
0000
3000
0000
,  // measure 190
0010
0000
0010
0000
,  // measure 191
0200
0000
0300
0000
,  // measure 192
0001
0000
0001
0000
,  // measure 193
2000
0000
3000
0000
,  // measure 194
0200
0000
0300
0000
,  // measure 195
0010
0001
1000
0000
,  // measure 196
0020
0000
0030
0000
,  // measure 197
0100
0001
1000
0000
,  // measure 198
0002
0000
0003
0000
,  // measure 199
0010
0100
1000
0000
,  // measure 200
0002
0000
0003
0000
,  // measure 201
0100
0010
1000
0000
,  // measure 202
0001
0000
0001
0000
,  // measure 203
1000
0100
0010
0000
,  // measure 204
0100
0000
0100
0000
,  // measure 205
1000
0010
0100
0000
,  // measure 206
0010
0000
0010
0000
,  // measure 207
0100
0001
0010
0000
,  // measure 208
0100
0000
0100
0000
,  // measure 209
1000
0010
0100
0000
,  // measure 210
0002
0000
1003
0000
,  // measure 211
2000
0000
3001
0000
,  // measure 212
0020
0000
0130
0000
,  // measure 213
0200
0000
0310
0000
,  // measure 214
0002
0000
0103
0000
,  // measure 215
2000
0000
3100
0000
,  // measure 216
0002
0000
0013
0000
,  // measure 217
2000
0000
3010
0000
,  // measure 218
2000
0000
3000
0000
,  // measure 219
0100
0000
0100
0000
,  // measure 220
1000
1000
0000
0000
,  // measure 221
0001
0001
0000
0000
,  // measure 222
0200
0000
0300
0000
,  // measure 223
0010
0000
0010
0000
,  // measure 224
1000
1000
0000
0000
,  // measure 225
0001
0001
0000
0000
,  // measure 226
0010
0000
0010
0010
,  // measure 227
0100
0000
0100
0100
,  // measure 228
1000
0000
1000
1000
,  // measure 229
0001
1000
0001
1000
,  // measure 230
0001
0000
0100
0000
,  // measure 231
1000
0000
0010
0000
,  // measure 232
0001
0000
0100
0000
,  // measure 233
1000
1000
0001
0001
,  // measure 234
1000
0000
0100
0000
,  // measure 235
0001
0000
0010
0000
,  // measure 236
1000
0000
0100
0000
,  // measure 237
0001
0001
1000
1000
,  // measure 238
2000
0000
0000
3000
,  // measure 239
0010
0000
0001
0000
,  // measure 240
0200
0000
0000
0300
,  // measure 241
0000
1000
0100
0002
,  // measure 242
0000
0000
0000
0003
,  // measure 243
0010
0000
1000
0000
,  // measure 244
0200
0000
0000
0300
,  // measure 245
0000
0000
1000
0001
,  // measure 246
0100
0000
1000
0000
,  // measure 247
0010
0000
0001
0000
,  // measure 248
0100
0000
1000
0000
,  // measure 249
0010
0010
0100
0100
,  // measure 250
0010
0000
1000
0000
,  // measure 251
0100
0000
0001
0000
,  // measure 252
0010
0000
1000
0000
,  // measure 253
0100
0100
0010
0010
,  // measure 254
0110
0000
0000
0000
,  // measure 255
1001
0000
0000
0000
,  // measure 256
0110
0000
0000
0000
,  // measure 257
1001
0000
0000
0000
,  // measure 258
0100
0000
0100
0000
,  // measure 259
1000
0000
1000
0000
,  // measure 260
0010
0000
0010
0000
,  // measure 261
0001
0000
0001
0000
,  // measure 262
0100
0000
1000
0000
,  // measure 263
0010
0000
0001
0000
,  // measure 264
0100
0000
0100
0000
,  // measure 265
0010
0000
0010
0000
;
