#TITLE:Touch the SKY Mix;
#SUBTITLE:(Dancing WipEouT 2);
#ARTIST:baconman;
#TITLETRANSLIT:;
#SUBTITLETRANSLIT:;
#ARTISTTRANSLIT:;
#CREDIT:;
#BANNER:WipEouT2.png;
#BACKGROUND:WipEouT2-bg.png;
#LYRICSPATH:;
#CDTITLE:;
#MUSIC:WipEouT2.ogg;
#OFFSET:-7.220;
#SAMPLESTART:216.000;
#SAMPLELENGTH:24.000;
#SELECTABLE:YES;
#BPMS:0.000=134.700,152.000=140.000,329.000=145.000,507.000=145.060,720.000=154.600,924.000=155.000;
#STOPS:392.000=0.820
,426.000=1.280
,718.500=1.600
;
#BGCHANGES:;

//---------------dance-single - ----------------
#NOTES:
     dance-single:
     :
     Hard:
     8:
     0.556,0.587,0.211,0.076,0.226:
0001
0000
0000
1000
0000
0000
0100
0000
0000
1000
0000
0000
0100
0000
1000
0000
,
0010
0000
0000
0100
0000
0000
0001
0000
0000
0100
0000
0000
0010
0000
1000
0000
,
0010
0000
0000
0100
0000
0000
0001
0000
1000
0000
0100
0000
1000
0000
0100
0000
,
0010
0000
0000
0001
0000
0000
0100
0000
0000
1000
0000
0000
0100
0000
0001
0000
,
1001
0000
0000
0001
0000
0000
0010
0000
0000
0001
0000
0000
0010
0000
0001
0000
,
0100
0000
0000
0010
0000
0000
1000
0000
0000
0010
0000
0000
0100
0000
0001
0000
,
0100
0000
0000
0010
0000
0000
1000
0000
0001
0000
0010
0000
0001
0000
0010
0000
,
0100
0000
0000
1000
0000
0000
0010
0000
0000
0001
0000
0000
0010
0000
1000
0000
,
1100
0100
0010
0001
0000
0001
0000
1000
,
0000
0010
1000
0100
0010
0100
1000
0001
,
0100
0001
0010
0100
1000
0000
0100
0000
,
0001
0100
0001
1000
0100
1000
0010
0100
,
0001
0000
0001
0100
1000
0100
0000
0000
,
0001
1000
0100
0010
0001
0100
0010
1000
,
0100
0000
0001
0000
0010
0100
0000
1000
,
0000
0001
0010
0100
1000
0001
0010
0100
,
1100
0001
1100
0001
,
0010
0000
1000
0100
0000
0001
0000
0000
,
0101
1000
0101
1000
,
0100
0000
0001
0010
0000
1000
0000
0000
,
0011
1000
0011
1000
,
0011
0000
0110
0000
1100
0000
0001
0100
,
0001
1000
0100
0000
0001
0100
1000
0000
,
0100
0001
0100
0000
0010
0000
1000
0100
,
0010
0000
1000
0000
0001
0100
0001
0000
,
1000
0000
0010
0000
0100
0000
0001
0001
,
0100
0000
1000
0000
0010
0100
1000
0001
,
0000
0000
1000
0000
0001
0100
1000
0000
,
0000
0101
0000
0000
1000
0000
0100
0000
,
1000
0100
0010
0001
1000
0100
0010
0001
,
0101
0000
1000
0010
0100
0000
0001
0000
,
0000
0010
0001
0100
0001
1000
0001
0100
,
0000
1100
0000
0001
0100
0000
1000
0000
,
0000
0010
1000
0010
1000
0100
0001
0100
,
1000
0000
0001
0100
0001
0000
1100
0000
,
0000
0001
0010
0100
1000
0001
0010
0001
,
0000
0100
0010
0000
1000
0001
0100
0000
,
0001
0000
0010
0000
1000
0000
0100
1000
,
0001
0000
0000
1000
0000
0000
0100
0000
0000
1000
0000
0000
0100
0000
1000
0000
,
0010
0000
0000
0100
0000
0000
0001
0000
0000
0100
0000
0000
0010
0000
1000
0000
,
0010
0000
0000
0100
0000
0000
0001
0000
1000
0000
0100
0000
1000
0000
0100
0000
,
0010
0000
0000
0001
0000
0000
0100
0000
0000
1000
0000
0000
0100
0000
0001
0000
,
1001
0000
0000
0001
0000
0000
0010
0000
0000
0001
0000
0000
0010
0000
0001
0000
,
0100
0000
0000
0010
0000
0000
1000
0000
0000
0010
0000
0000
0100
0000
0001
0000
,
0100
0000
0000
0010
0000
0000
1000
0000
0001
0000
0010
0000
0001
0000
0010
0000
,
0100
0000
0000
1000
0000
0000
0010
0000
0000
0001
0000
0000
0010
0000
1000
0000
,
1100
0000
0000
0010
0000
0000
0001
0000
0000
1000
0000
0000
0100
0000
0000
0000
,
0010
0000
0000
0001
0000
0000
0100
0000
0000
0001
0000
0000
0100
0000
0001
0000
,
0010
0000
0000
0100
0000
0000
1000
0000
0000
0001
0000
0000
0010
0000
0000
0000
,
0100
0000
0000
1000
0000
0000
0010
0000
0000
0100
0000
0000
0001
0000
0000
0000
,
0001
0000
0010
0000
0100
0000
0010
0000
0001
0000
0000
0100
0000
0000
1000
0000
,
0100
0000
0000
0001
0000
0000
0100
0000
0010
0000
0000
1000
0000
0000
0100
0000
,
1000
1100
0000
0010
0001
1000
0000
0010
,
0001
0000
1000
0000
0001
0000
0000
0000
0010
0000
0000
0010
0000
0000
0100
0000
,
1000
0000
0100
0000
0010
0000
0100
0000
1000
0000
0000
0010
0000
0000
0001
0000
,
0010
0000
0000
1000
0000
0000
0010
0000
0100
0000
0000
0001
0000
0000
0010
0000
,
0001
0011
0000
0100
1000
0001
0000
0100
,
2002
0000
0000
3003
,
0000
0000
0100
0000
1000
0000
0010
0000
0100
0000
0000
0001
0000
0000
0001
0000
,
1000
0000
0000
1000
0000
0000
0001
0000
0100
0000
0000
0010
0000
0000
0010
0000
,
2010
0000
0000
0000
3000
0000
0000
0001
,
0100
0000
0000
0100
0000
0000
0001
0000
1000
0000
0000
1000
0000
0000
0010
0000
,
1010
0000
0000
0000
0001
0000
1000
0000
0100
0000
0000
0000
0101
0000
0000
0100
,
0001
0000
0000
0000
0001
0000
1000
0000
0100
0000
0000
0000
0101
0000
0000
0001
,
1000
0000
0000
0000
1000
0000
0001
0000
0100
0000
0000
0000
1100
0000
0000
0100
,
1000
0000
0000
0000
1000
0000
0001
0000
0100
0001
0000
0001
1000
0000
0100
0000
,
0000
0000
0010
0000
0001
0000
0100
0000
0101
0000
0000
1000
0000
0000
0100
0000
,
1000
0000
0000
0001
0000
0000
1000
0000
0010
0000
0000
0000
1000
0000
0100
2000
,
0000
0000
0000
0000
3000
0000
0000
0010
,
0100
0000
0000
0100
0000
0000
0001
0000
0010
0000
0000
0001
0000
0000
0100
0000
,
0101
0000
0000
0000
1000
0000
0001
0000
0010
0000
0000
0000
1010
0000
0000
0010
,
1000
0000
0000
0000
1000
0000
0001
0000
0010
0000
0000
0000
1010
0000
0000
1000
,
0001
0000
0000
0000
0001
0000
1000
0000
0010
0000
0000
0000
0011
0000
0000
0010
,
0001
0000
0000
0000
0001
0000
1000
0000
0010
0000
0000
0100
0000
0000
0100
0000
,
0100
0001
0010
0000
0100
0001
0010
0000
,
0100
1000
0010
0000
0100
1000
0010
0000
,
2010
3001
0102
1003
,
1000
0001
0000
0001
0100
0000
0001
1000
,
1100
0000
0001
0100
0010
0000
0010
0100
,
0101
0000
1000
0100
0001
0000
0001
0100
,
1100
0000
1000
0100
0101
0000
1100
0000
,
2002
0000
0000
0000
0000
0000
0000
0000
3003
0000
0000
0000
0100
0010
0100
0010
,
0100
0000
0000
0000
0001
0000
0001
0100
0000
0000
0100
0000
0001
0000
1000
0000
,
0100
0000
0000
0000
1000
0100
0000
0100
1000
0000
0001
0000
0100
0000
0000
0000
,
0000
0001
0010
0100
1000
0010
0100
0000
,
1000
0100
0010
0001
1000
0010
0100
0000
,
1001
0000
0000
0000
1000
0000
0100
0010
0000
0000
0010
0000
0100
1000
0000
1000
,
0001
0000
0000
0000
0001
1000
0000
1000
0100
0000
0010
0000
0001
0000
0000
0000
,
0000
0001
0100
0001
0100
0010
0100
0000
,
0010
0000
1000
0000
0010
0000
1000
0001
0000
0001
1000
0000
0100
0000
1000
0000
,
0100
0010
0001
0100
1000
0000
0100
0001
,
0000
1100
0000
0010
0001
0100
0010
1000
,
0100
1000
0100
0010
0001
1000
0010
0100
,
0000
0100
0010
1000
0100
0001
0100
1000
,
0001
0100
0010
1000
0100
0000
0001
0100
,
0000
1010
0000
0100
1000
0010
0100
0001
,
0010
0001
0010
0100
1000
0001
0100
0010
,
0000
0010
0100
0001
0010
0100
1000
0001
,
0101
0000
0000
1000
0100
1000
0001
1000
,
1010
0000
0001
0100
0002
0000
1000
0000
,
0100
0000
1003
0001
0010
0001
1000
0001
,
0101
0000
1000
0010
2000
0000
0001
0000
,
0010
0000
3001
0100
0010
1000
0001
0100
,
1000
0000
0001
0010
0100
0000
0011
0000
,
0100
0000
1010
0000
0001
0000
1000
0100
,
0000
0000
0010
0001
0100
0000
0001
0000
,
0010
0000
0100
1000
1001
0000
1000
0000
,
0010
0000
0100
0001
0000
0000
1000
0000
0001
0000
0000
0000
0000
0000
0001
0000
,
0100
0000
0010
1000
0000
0000
0100
0000
0010
0000
0100
0000
0010
0000
0000
0000
,
0001
0000
1000
0100
0000
0000
0000
0000
0001
0000
0100
0000
0001
0000
0000
0000
,
1100
0001
1100
0001
,
0100
0000
0001
0100
0000
0000
0000
0000
1010
0000
0000
0000
0000
0000
0001
0000
,
0010
0000
0001
0010
0000
0000
0100
0000
1000
0000
0100
0000
1000
0000
0000
0000
,
0001
0000
1000
0010
0000
0000
0000
0000
0100
0000
0001
0000
1000
0000
0000
0000
,
0101
0000
1000
0000
0001
1000
1100
0000
,
0000
0010
1000
0000
1100
0000
0001
0100
,
1000
0000
0001
0010
1000
0000
0100
1000
,
0100
0010
0001
1000
0010
0100
0000
0100
,
0010
1000
0100
0001
0100
1000
0010
0100
,
0001
0010
0100
0000
1000
0100
0000
0011
,
0000
0100
1000
0010
0100
0001
0010
0001
,
0010
0100
1000
0001
0100
0010
0000
0010
,
0100
0001
0010
0100
1000
0001
0101
0000
,
0010
0000
1000
0200
0000
0000
0000
0000
0000
0000
0300
0000
0000
0000
0010
0000
,
0001
0000
0100
0001
0000
0000
0010
0000
0100
0000
0010
0000
0100
0000
0000
0000
,
1000
0000
0001
0200
0000
0000
0000
0000
0300
0000
0000
0000
0100
0000
0000
0000
,
0000
0000
0100
0000
0000
0000
0010
1000
,
0000
0100
0000
0000
0010
0000
0001
0000
0100
0000
0010
0000
1000
0000
0100
0010
,
0000
0010
0100
0000
1000
0000
0001
0000
0100
0000
0100
0000
0000
0000
0001
0000
,
0010
0000
0100
0000
1000
0000
0100
0000
0010
0000
0001
0000
1000
0000
0001
0100
,
0000
0100
0010
0000
0010
1000
0000
1000
0100
1000
0100
0000
0000
0000
1000
0000
,
0100
0000
0101
0000
0000
0000
0001
0000
0100
0000
1100
0000
0000
0000
0000
1000
,
0100
0000
0000
0100
0010
0000
0000
0010
0001
0000
0000
0001
0100
0000
0010
0000
,
1000
0200
0000
0310
0001
0200
0000
0310
,
1000
0100
0010
0001
0100
0010
1000
0002
,
0000
0000
0000
0000
0000
0000
0000
2000
,
0000
0000
0000
0000
0000
0000
0000
0000
0000
0000
3003
0000
0000
0000
1000
0100
,
0000
0100
1000
0000
0001
0000
0100
0000
0001
0000
0010
0000
0100
0000
1000
0100
,
1000
0100
1000
0000
0010
0000
0100
0000
0001
0000
0101
0000
0000
0000
0010
0000
,
1000
0100
0000
0100
1000
0000
0001
0000
0010
0000
0100
0000
0000
0000
1000
0100
,
0000
0100
0010
0000
0001
0000
0100
0000
0001
0000
0010
0000
0000
0000
0001
0010
,
0000
0010
0001
0000
1000
0000
0010
0000
1000
0000
0100
0000
0010
0000
0001
0010
,
0001
0010
0001
0000
0100
0000
0010
0000
1000
0000
1010
0000
0000
0000
0100
0000
,
0001
0010
0000
0010
0001
0000
1000
0000
0100
0010
0000
0010
0001
0000
1000
0100
,
0000
0010
0001
0000
1000
0100
0000
0010
0001
1000
0001
0000
0000
0000
1000
0100
,
0000
0100
1000
0000
0001
0000
1000
0000
0010
0000
1000
0000
0001
0000
0010
0001
,
0010
0001
0010
0000
0001
0000
0100
0000
0010
0000
1000
0000
0000
0000
0001
0000
,
0100
0010
0100
0001
0000
0001
1000
0000
0100
0000
0010
0000
0000
0000
0010
0100
,
0000
0100
0010
0000
0001
1000
0001
0000
0100
0000
1000
0000
0000
0000
0001
0010
,
0000
0010
0001
0000
1000
0000
0001
0000
0100
0000
0001
0000
1000
0000
0100
1000
,
0100
1000
0100
0000
1000
0000
0010
0000
0100
0000
0001
0000
0000
0000
1000
0000
,
0010
0100
0001
0000
0100
0010
1000
0000
0001
0100
0001
0000
1000
0000
0100
0010
,
0000
0001
0100
0000
0010
1000
0000
0001
0100
0010
1000
0000
0000
0000
1000
0100
,
0000
0100
0010
0000
0001
0000
0100
0000
1000
0000
0100
0000
0001
0000
0010
0100
,
0010
0100
0010
0000
0001
0000
1000
0000
0100
0000
0001
0000
0000
0000
0100
1000
,
0000
1000
0010
0000
0100
0000
0001
0000
1000
0000
1100
0000
0000
0000
0010
0001
,
0000
0001
0100
0000
0010
1000
0100
0000
0010
0000
0011
0000
0000
0000
0001
0010
,
0000
0010
0100
0000
1000
0000
0010
0000
0001
0000
0010
0000
1000
0000
0100
0010
,
0100
0010
0100
0000
1000
0000
0001
0000
0010
0000
1000
0000
0000
0000
0010
0000
,
0001
1000
0001
0000
0100
0000
0001
0000
1000
0001
1000
0000
0010
0000
1000
0100
,
0000
0100
1000
0000
0001
0100
0000
0001
0010
0100
1000
0000
0000
0000
0001
0000
,
0100
0000
0001
0000
0010
0000
0100
0000
0000
1000
0000
0000
0100
0000
0010
0000
,
0001
0000
0100
0000
0001
0000
0010
0000
0000
0100
0000
0000
1000
0000
0001
0000
,
0100
0000
0001
0000
0100
0000
1000
0000
0000
0100
0000
0000
0001
0000
1000
0000
,
0000
0001
0000
0000
0010
0000
0100
0000
0100
0000
0100
0000
0000
0000
1000
0000
,
0010
0000
1000
0000
0100
0000
0010
0000
0000
0001
0000
0000
0010
0000
0100
0000
,
1000
0000
0010
0000
1000
0000
0100
0000
0000
0010
0000
0000
0001
0000
1000
0000
,
0010
0000
1000
0000
0010
0000
0001
0000
0000
0010
0000
0000
1000
0000
0001
0000
,
0000
1000
0000
0000
0100
0000
0010
0000
0010
0000
0010
0000
0000
0000
0001
0000
,
0100
0000
0001
0000
0100
0000
1000
0000
0000
1000
0000
0000
1000
0000
0100
0000
,
0010
0000
0100
0000
0010
0000
1000
0000
0000
0100
0000
0000
0010
0000
0001
0000
,
0010
0000
0001
0000
1000
0000
0100
0000
0000
0001
0000
0000
0100
0000
1000
0000
,
0100
1000
0010
0010
1000
0100
0000
1000
,
0010
0000
1000
0000
0010
0000
0001
0000
0000
0001
0000
0000
0001
0000
0010
0000
,
0100
0000
0010
0000
0100
0000
0001
0000
0000
0010
0000
0000
0100
0000
1000
0000
,
0100
0000
1000
0000
0001
0000
0010
0000
0000
1000
0000
0000
0010
0000
0002
0000
,
0000
2003
0000
3100
0100
0100
0000
0010
,
0010
0010
0000
0001
0001
0001
0000
0010
,
0100
0010
0100
1001
1001
1001
0000
2002
,
0000
0000
0000
0000
0000
3003
0000
0000
,
1000
0000
0000
0100
0000
0000
0010
0000
0000
0000
0001
0000
0100
0000
0010
0000
,
1000
0000
0000
0100
0000
0000
0010
0000
0000
0000
0001
0000
0100
0000
0010
0000
,
1000
0100
1000
0000
0001
0100
0001
0000
,
1000
0000
0010
0000
0100
0000
0001
0000
0100
0000
1000
0000
0100
0001
0000
0000
,
0010
0100
1000
0000
0001
1000
0010
0100
,
0001
0000
0000
0010
0000
0000
0100
0000
0000
0000
1000
0000
0010
0000
0100
0000
,
0001
0010
0001
0000
1000
0010
1000
0000
,
0001
0100
0010
0000
0100
0010
1000
0000
,
0001
0000
0000
0100
0000
0000
1000
0000
0000
0000
0100
0000
0001
0000
0000
0000
,
1000
0000
0000
0100
0000
0000
0001
0000
0000
0000
0100
0000
1000
0000
0000
0000
,
0001
0100
0010
0000
0010
0100
0001
0000
,
1000
0000
0010
0000
0100
0000
0001
0000
0100
0000
0010
0000
1000
0100
0000
0000
,
0100
0010
0001
0000
1000
0001
0100
0010
,
1000
0000
0000
0100
0000
0000
0010
0000
0000
0000
0001
0000
0100
0000
0010
0000
,
1000
0100
1000
0000
0001
0100
0001
0000
,
1100
0000
0000
0101
0000
0000
1001
0000
0000
0000
0010
0000
0100
0000
0000
0000
,
1001
0000
0100
0010
0001
0100
0000
1000
,
0000
0000
0000
0001
0010
0001
0100
0000
,
0000
0010
0100
1000
0001
0100
0000
1000
,
0000
0000
0000
0100
0001
0010
0100
1000
,
0010
0000
0000
1000
0000
0000
0001
0000
0000
0000
0000
0000
0000
0000
0100
0000
,
0001
0010
0010
0100
0000
1000
0100
0001
,
0000
0000
0000
0001
0100
0000
1000
0000
,
0101
0000
0010
1000
0000
1100
0100
0010
,
0002
0000
0000
0203
0000
0000
0320
0000
,
0000
1000
0000
0130
,
2000
0000
0000
3200
0000
0300
0010
0001
,
0000
0100
1000
0000
0100
0010
0000
0000
,
2010
0000
3002
0000
,
0103
0000
0010
1000
0100
0000
0010
0001
,
0100
0000
1000
0100
1000
0100
0001
0100
,
0001
0000
0010
0010
0000
1000
0010
0100
,
0101
0000
0000
0000
0001
0010
0100
1000
,
1100
0000
0010
0001
0100
1000
0000
0100
,
0000
0001
0000
0000
0010
0100
0010
0100
,
0000
0000
1000
0000
0100
0001
0000
1010
,
0000
0000
0000
0100
0001
1000
0100
1000
,
0010
0100
0100
0000
0000
0000
0010
1000
,
0000
0000
0001
0100
0000
1000
0100
0000
,
0000
0010
0001
0010
0001
1000
0100
1000
,
1100
0000
0100
0110
0000
0001
0011
0000
,
1001
0000
1000
0100
1000
0100
0000
0001
,
0000
0100
0000
0000
1000
0010
1000
0100
,
0000
0000
0010
0001
0100
0001
0000
1100
,
0000
0000
0000
0000
0100
1000
0010
0001
,
0000
0010
1000
0000
0000
0000
0001
0100
,
0000
0000
1000
0010
0000
0101
0000
0000
,
0000
1000
0010
0100
0001
0000
1000
0001
,
0100
0000
0100
0100
0000
0010
0010
1000
,
0200
0001
0000
0310
,
1000
0000
0000
0001
0000
0000
2002
0000
0000
0000
0000
0000
3003
0000
0000
0000
,
1100
0000
0000
0010
0000
0000
0001
0000
0000
0000
1000
0000
0100
0000
0010
0000
,
0001
0000
0000
0100
0000
0000
0010
0000
0000
0000
1000
0000
0100
0000
0010
0000
,
0001
0100
0001
0001
1000
0010
1000
0001
,
2000
0000
3010
0000
0100
0001
0010
0001
,
0010
0100
1000
0000
1000
0001
0100
0100
,
0001
0000
0000
0100
0000
0000
1000
0000
0000
0000
0100
0000
0001
0000
0000
0000
,
1000
0100
0010
0001
1000
0010
0100
0001
,
0001
0100
0010
0000
1000
0100
0010
0001
,
0011
0000
0000
0100
0000
0000
1000
0000
0000
0000
0001
0000
0010
0000
0100
0000
,
1000
0000
0000
0010
0000
0000
0100
0000
0000
0000
0001
0000
0010
0000
0100
0000
,
1000
0010
1000
1000
0001
0100
0001
1000
,
0002
0000
0103
0000
0010
1000
0100
1000
,
0100
0010
0001
0000
0001
1000
0010
0010
,
1000
0000
0000
0010
0000
0000
0001
0000
0000
0000
0010
0000
1000
0000
0000
0000
,
0001
0010
0100
1000
0001
0100
0010
1000
,
1010
0000
0000
0011
0000
0000
1001
0000
0000
0000
0010
0000
0100
0000
1001
0000
,
1001
0000
0000
0000
;

//---------------dance-single - ----------------
#NOTES:
     dance-single:
     :
     Easy:
     3:
     0.260,0.352,0.135,0.005,0.000: // measure 1
1000
0100
1000
0000
,  // measure 2
1000
0100
0001
0000
,  // measure 3
0001
0100
0001
0000
,  // measure 4
0001
0100
1000
0000
,  // measure 5
0001
0100
0001
0000
,  // measure 6
0001
0100
1000
0000
,  // measure 7
1000
0100
1000
0000
,  // measure 8
1000
0100
0001
0000
,  // measure 9
1001
0000
0100
0000
,  // measure 10
0000
0001
0100
0001
,  // measure 11
0100
1000
1000
0000
,  // measure 12
0000
0010
1000
0010
,  // measure 13
1000
1000
0100
0000
,  // measure 14
0000
0001
0100
0001
,  // measure 15
0010
0010
0010
0000
,  // measure 16
0100
0100
0010
0010
,  // measure 17
0110
0000
0110
0000
,  // measure 18
1000
0001
0100
0000
,  // measure 19
1001
0000
1001
0000
,  // measure 20
1000
0100
0010
0000
,  // measure 21
0110
0000
0110
0000
,  // measure 22
1001
1001
1001
1000
,  // measure 23
0001
0100
0001
1000
,  // measure 24
0000
0100
0000
0100
,  // measure 25
1000
0010
0100
0001
,  // measure 26
0000
0001
0000
1000
,  // measure 27
0100
1000
0100
0001
,  // measure 28
0000
0001
0100
1000
,  // measure 29
0000
0100
0000
0001
,  // measure 30
0000
0010
0010
0010
,  // measure 31
0100
0000
1000
0000
,  // measure 32
0001
0010
0100
1000
,  // measure 33
0001
0010
0000
0001
,  // measure 34
0000
1000
0100
0001
,  // measure 35
0100
1000
0000
0001
,  // measure 36
0000
0010
0100
0010
,  // measure 37
0001
1000
0000
0001
,  // measure 38
0000
0000
0000
0001
,  // measure 39
1000
0100
1000
0000
,  // measure 40
1000
0100
0001
0000
,  // measure 41
0001
0100
0001
0000
,  // measure 42
0001
0100
1000
0000
,  // measure 43
0001
0100
0001
0000
,  // measure 44
0001
0100
1000
0000
,  // measure 45
1000
0100
1000
0000
,  // measure 46
1000
0100
0001
0000
,  // measure 47
1001
0100
0000
0010
,  // measure 48
0000
0100
0000
0010
,  // measure 49
0000
1000
0000
0001
,  // measure 50
0000
1000
0000
0001
,  // measure 51
1001
0100
1000
0100
,  // measure 52
0001
0100
0001
0100
,  // measure 53
0010
0000
0010
0000
,  // measure 54
0010
1000
0010
1000
,  // measure 55
0001
0010
0001
0010
,  // measure 56
1000
0010
1000
0010
,  // measure 57
0100
0000
0100
0000
,  // measure 58
0100
0000
0000
0000
,  // measure 59
1000
0001
0100
0000
,  // measure 60
0001
1000
0100
0000
,  // measure 61
1000
0100
0001
0000
,  // measure 62
0001
0100
1000
0000
,  // measure 63
1001
0100
0000
0100
,  // measure 64
1001
0010
0000
0010
,  // measure 65
1001
1000
0000
0001
,  // measure 66
1001
1000
0000
1001
,  // measure 67
0010
0100
1000
0000
,  // measure 68
0100
0010
0001
0000
,  // measure 69
0010
0001
0100
0000
,  // measure 70
0010
1000
0100
0000
,  // measure 71
0110
1000
0000
1000
,  // measure 72
0110
0001
0000
0001
,  // measure 73
0110
0010
0000
0100
,  // measure 74
0110
0010
0000
0100
,  // measure 75
1000
0100
0010
0001
,  // measure 76
1000
0100
0001
0100
,  // measure 77
1000
1001
0000
1001
,  // measure 78
1000
0100
0001
0010
,  // measure 79
0001
0010
0100
1000
,  // measure 80
0001
0010
1000
0010
,  // measure 81
0001
0000
1001
0000
,  // measure 82
1001
0000
0000
0000
,  // measure 83
1000
0100
1100
0000
,  // measure 84
0001
0100
0101
0000
,  // measure 85
1000
0100
0100
1000
,  // measure 86
0001
0010
0010
0001
,  // measure 87
1000
0100
1100
0000
,  // measure 88
0001
0100
0101
0000
,  // measure 89
1000
0010
0010
1000
,  // measure 90
0001
0100
0100
0001
,  // measure 91
1001
0010
0001
0010
,  // measure 92
1000
0010
1000
0010
,  // measure 93
0100
0000
0100
0000
,  // measure 94
0100
0001
0100
0001
,  // measure 95
1000
0100
1000
0100
,  // measure 96
0001
0100
0001
0100
,  // measure 97
0010
0000
0010
0000
,  // measure 98
0020
0030
0000
0000
0000
0000
0000
0000
0000
0000
0000
0000
0000
0000
0000
0000
0000
0000
0000
0000
0000
0000
0000
0000
0000
0000
0000
0000
0000
0000
0000
0000
0000
0000
0000
0000
0000
0000
0000
0000
0000
0000
0000
0000
0000
0000
0000
0000
1001
0000
0000
0000
0000
0000
0000
0000
0000
0000
0000
0000
0000
0000
0000
0000
0000
0000
0000
0000
0000
0000
0000
0000
0000
0000
0000
0000
0000
0000
0000
0000
0000
0000
0000
0000
0000
0000
0000
0000
0000
0000
0000
0000
0000
0000
0000
0000
0100
0000
0000
0000
0000
0000
0000
0000
0000
0000
0000
0000
0000
0000
0000
0000
0000
0000
0000
0000
0000
0000
0000
0000
0000
0000
0000
0000
0000
0000
0000
0000
0000
0000
0000
0000
0000
0000
0000
0000
0000
0000
0000
0000
0000
0000
0000
0000
1001
0000
0000
0000
0000
0000
0000
0000
0000
0000
0000
0000
0000
0000
0000
0000
0000
0000
0000
0000
0000
0000
0000
0000
0000
0000
0000
0000
0000
0000
0000
0000
0000
0000
0000
0000
0000
0000
0000
0000
0000
0000
0000
0000
0000
0000
0000
0000
,  // measure 99
0010
0000
1000
0000
,  // measure 100
0001
0000
0100
0000
,  // measure 101
0100
0000
0010
0000
,  // measure 102
0010
0000
0100
0000
,  // measure 103
0100
0000
0001
0000
,  // measure 104
1000
0000
0010
0000
,  // measure 105
0010
0000
0100
0000
,  // measure 106
1001
0000
0000
0000
,  // measure 107
1000
0100
1001
0000
,  // measure 108
1001
0100
0000
0100
,  // measure 109
0000
0001
0000
0001
,  // measure 110
0000
0100
0000
0100
,  // measure 111
0000
1000
0000
1000
,  // measure 112
0100
1000
0010
0000
,  // measure 113
0100
0001
0010
0000
,  // measure 114
0001
0000
1000
0000
,  // measure 115
0001
0001
1000
1000
,  // measure 116
1001
0100
0100
0100
,  // measure 117
0000
0000
0010
1000
,  // measure 118
0010
1000
1000
1000
,  // measure 119
0000
0001
0000
0100
,  // measure 120
0000
0010
0010
0010
,  // measure 121
0000
0000
0100
0001
,  // measure 122
0100
0001
0001
0001
,  // measure 123
0000
1000
0000
0010
,  // measure 124
0000
1001
0000
0100
,  // measure 125
0000
0010
1000
0001
,  // measure 126
0100
0100
0000
0100
,  // measure 127
0000
0100
0000
0001
,  // measure 128
0000
0010
0100
1000
,  // measure 129
0000
1000
0100
0010
,  // measure 130
0000
0001
0000
0010
,  // measure 131
1001
1001
0100
0100
,  // measure 132
0000
0000
0100
0010
,  // measure 133
0010
0100
0010
0001
,  // measure 134
0001
1000
0100
1000
,  // measure 135
0001
0100
0000
0001
,  // measure 136
0000
1000
1000
0001
,  // measure 137
0001
0100
0000
0100
,  // measure 138
0000
0100
0000
0100
,  // measure 139
0000
0010
0000
0010
,  // measure 140
0000
0010
0000
0010
,  // measure 141
0000
0001
0000
0001
,  // measure 142
0000
1000
0000
1000
,  // measure 143
0000
1001
0100
1000
,  // measure 144
0000
0001
0000
0010
,  // measure 145
0001
0100
0000
0100
,  // measure 146
0010
1000
0001
1000
,  // measure 147
0001
1001
0000
0000
,  // measure 148
0000
1000
0000
0000
,  // measure 149
0000
0100
0000
0000
,  // measure 150
0000
0001
0000
0000
,  // measure 151
0000
0010
0000
0000
,  // measure 152
0000
1100
0000
0000
,  // measure 153
0000
0101
1001
0000
,  // measure 154
0000
0010
0100
0010
,  // measure 155
0100
1001
0000
0000
,  // measure 156
0000
1000
0000
0001
,  // measure 157
0000
0100
0000
0010
,  // measure 158
0000
1000
1000
0001
,  // measure 159
0001
0100
0010
1000
,  // measure 160
0001
2000
0000
0000
,  // measure 161
3000
1001
0000
0000
,  // measure 162
0000
1000
0100
0010
,  // measure 163
0000
1000
0100
0001
,  // measure 164
0000
1000
0010
0100
,  // measure 165
0000
0010
0100
0001
,  // measure 166
0000
0001
0010
0100
,  // measure 167
0000
0001
0100
1000
,  // measure 168
0000
0001
0000
0100
,  // measure 169
0000
0010
0010
0010
,  // measure 170
0000
0001
0010
0100
,  // measure 171
0000
0001
0010
1000
,  // measure 172
0000
0001
0100
0010
,  // measure 173
0000
0100
0010
1000
,  // measure 174
0000
1000
0100
0010
,  // measure 175
0000
1000
0010
0001
,  // measure 176
0000
1000
0000
0010
,  // measure 177
0000
0100
0100
0100
,  // measure 178
0000
0010
1000
0100
,  // measure 179
0000
1000
0100
0001
,  // measure 180
0000
0100
0001
0100
,  // measure 181
1001
0000
0100
0000
,  // measure 182
0001
0100
0001
0000
,  // measure 183
1000
0100
1000
0100
,  // measure 184
0010
0010
0000
0010
,  // measure 185
0100
1000
0000
0000
,  // measure 186
1000
0100
0010
0000
,  // measure 187
1000
0000
0001
0000
,  // measure 188
0100
0100
0000
0001
,  // measure 189
1001
0000
0010
0000
,  // measure 190
1000
0010
1000
0000
,  // measure 191
0001
0010
0001
0010
,  // measure 192
0100
0100
0000
0100
,  // measure 193
0010
0001
0000
0000
,  // measure 194
0001
0010
0100
0000
,  // measure 195
0001
0000
1000
0000
,  // measure 196
0010
0010
0000
0010
,  // measure 197
1001
0100
0100
1000
,  // measure 198
0100
0000
0001
0100
,  // measure 199
0000
0100
1000
0100
,  // measure 200
0100
0000
0001
0001
,  // measure 201
1000
1000
0100
0000
,  // measure 202
1000
0010
0010
1000
,  // measure 203
0000
0001
0000
0001
,  // measure 204
0010
0010
0000
0010
,  // measure 205
0001
0000
1000
0100
,  // measure 206
0000
0000
0000
0000
,  // measure 207
1000
1000
0000
0001
,  // measure 208
0001
0100
0000
0001
,  // measure 209
1000
0000
0010
0000
,  // measure 210
0001
0000
0100
0000
,  // measure 211
1000
0100
1000
0100
,  // measure 212
0001
0001
0100
0100
,  // measure 213
1001
0000
0000
0000
,  // measure 214
1001
1000
0001
0001
,  // measure 215
1000
0001
1000
0001
,  // measure 216
0100
0001
0100
1000
,  // measure 217
0100
1000
0100
0001
,  // measure 218
1000
1000
0000
0001
,  // measure 219
0001
0010
0010
0100
,  // measure 220
0010
0010
0001
0001
,  // measure 221
1000
1000
0100
1000
,  // measure 222
1001
0001
1000
1000
,  // measure 223
0001
1000
0001
1000
,  // measure 224
0010
1000
0010
0001
,  // measure 225
0010
0001
0010
1000
,  // measure 226
0001
0001
0000
1000
,  // measure 227
1000
0100
0100
0010
,  // measure 228
0100
0100
1000
1000
,  // measure 229
0001
0001
0010
0001
,  // measure 230
1001
0000
0100
0000
,  // measure 231
1001
0000
0000
0000
,  // measure 232
1001
0000
0100
0000
,  // measure 233
0001
0100
0001
0000
,  // measure 234
1000
0100
1000
0100
,  // measure 235
0010
0010
0000
0010
,  // measure 236
0100
1000
0000
0000
,  // measure 237
1000
0100
0010
0000
,  // measure 238
1000
0000
0001
0000
,  // measure 239
0100
0100
0000
0001
,  // measure 240
1001
0000
0010
0000
,  // measure 241
1000
0010
1000
0000
,  // measure 242
0001
0010
0001
0010
,  // measure 243
0100
0100
0000
0100
,  // measure 244
0010
0001
0000
0000
,  // measure 245
0001
0010
0100
0000
,  // measure 246
0001
0000
1000
0000
,  // measure 247
0010
0010
0000
0010
,  // measure 248
1001
0000
0000
0000
;

//---------------dance-single - ----------------
#NOTES:
     dance-single:
     :
     Medium:
     6:
     0.437,0.499,0.183,0.121,0.049:
1000
0010
0100
0100
,
0001
0100
0010
0010
,
1000
0100
0001
0100
,
1000
0000
0010
0000
0100
0000
0001
1000
,
1001
0100
0010
0010
,
1000
0010
0100
0100
,
0001
0010
1000
0010
,
0002
0000
0000
0003
,
1001
0000
0100
0000
0001
1000
0000
0100
,
0000
0010
0100
0000
1000
0001
0100
0000
,
0001
0000
0010
0100
1000
0000
1000
0000
,
0001
0100
0001
0000
0001
0000
0010
0000
,
0100
1000
0000
0100
0000
1000
0100
0000
,
0010
0001
0100
1000
,
0001
0000
0001
0000
1000
0100
0000
0001
,
0000
0010
0000
1000
0000
0100
0000
0001
,
2001
3100
1002
0103
,
1000
0000
0100
0010
0000
0001
0000
0000
,
1002
0013
2001
3100
,
0001
0000
0010
0100
0000
1000
0000
0000
,
0120
1030
0210
0301
,
0101
0000
0110
0000
1010
0000
1000
0001
,
0100
0000
0001
0000
1000
0100
0010
0000
,
0001
0000
0100
0000
1000
0000
0100
0001
,
1000
0000
0100
0000
0001
0010
0100
0000
,
1000
0000
0100
0000
1000
0000
0100
0010
,
0001
0000
0100
0000
0001
0000
1000
0010
,
0000
0000
1000
0000
0001
0100
1000
0000
,
0000
0100
0000
0001
,
0010
0000
0100
0000
0010
0100
0010
0100
,
0110
0000
0010
0001
1000
0000
0101
0000
,
1000
1100
0001
0101
,
1000
0100
0100
0000
0001
0100
0100
0000
,
1000
0000
1100
0000
0001
0000
0001
1000
,
1100
0000
1000
0001
0100
0000
0010
0100
,
0001
1000
0100
0001
,
0100
1000
0001
0000
0100
1000
0001
0000
,
2000
0000
0000
0000
0000
0000
3001
0001
,
1000
0010
0100
0100
,
0001
0100
0010
0010
,
1000
0100
0001
0100
,
1000
0000
0010
0000
0100
0000
0001
1000
,
1001
0100
0010
0010
,
1000
0010
0100
0100
,
0001
0010
1000
0010
,
0001
0100
0010
1000
,
1001
0000
0100
0010
0000
0000
0010
0100
,
0000
0000
1000
0001
0000
0000
0001
1000
,
0000
0000
1000
0100
0000
0000
0100
0010
,
0000
0000
0010
0001
0000
0000
0001
1000
,
1000
0000
0100
0000
1000
0000
0000
0000
0100
0000
0000
0010
0000
0000
0100
0000
,
0010
0000
0000
0001
0000
0000
1000
0000
0001
0000
0000
1000
0000
0000
0001
0000
,
0100
0101
1000
1100
,
0001
0010
0100
0000
1000
0100
0010
0000
,
0001
0000
0010
0000
0001
0000
0000
0000
0010
0000
0000
0100
0000
0000
0010
0000
,
0100
0000
0000
1000
0000
0000
0001
0000
1000
0000
0000
0001
0000
0000
1000
0000
,
0010
1010
0001
0011
,
2002
0000
0000
3003
,
1000
0100
0001
0100
,
1000
0001
0100
0000
0001
1000
0100
0000
,
1100
0001
1100
0001
,
0101
1000
0101
1000
,
0001
0100
0010
0000
0010
0000
0010
0000
,
1000
0100
0010
0000
0010
0000
0010
0000
,
0001
0100
0010
0000
0010
0000
0010
0000
,
1000
0100
0010
0000
0010
0000
0010
0000
,
0001
0010
1000
0010
,
0001
1000
0010
0000
1000
0001
0010
0000
,
0011
1000
0011
1000
,
1010
0001
1010
0001
,
1000
0010
0100
0000
0100
0000
0100
0000
,
0001
0010
0100
0000
0100
0000
0100
0000
,
1000
0010
0100
0000
0100
0000
0100
0000
,
0001
0000
0010
0000
0100
0000
0000
0000
0100
0000
0000
0100
0000
0000
0100
0000
,
0100
0000
1100
0000
0010
0001
0100
0000
,
0101
0000
0010
1000
0100
0000
1100
0000
,
0001
1000
0001
0000
1000
0001
1000
0000
,
1000
0100
0100
0000
0001
0100
0100
0000
,
1000
0001
0001
0000
0001
1000
1000
0000
,
1000
0010
0100
0000
0100
0001
0010
0000
,
0010
0100
0010
0000
0100
0010
0100
0000
,
2002
0000
3003
1000
0001
0000
0100
0000
,
1001
0000
0000
0000
0100
0000
0000
0000
1000
0100
0000
0000
0100
0000
0000
0000
,
0001
0000
0000
0000
0100
0000
0000
0000
0001
0100
0000
0000
0100
0000
0000
0000
,
1000
0100
1000
0000
0100
0000
0001
0000
,
0001
0100
0001
0000
0100
0000
1000
0000
,
0001
0000
0000
0000
0010
0000
0000
0000
0001
0010
0000
0000
0010
0000
0000
0000
,
1000
0000
0000
0000
0010
0000
0000
0000
1000
0010
0000
0000
0010
0000
0000
0000
,
0001
0010
0001
0000
0010
0000
1000
0000
,
1000
0010
1000
0000
0010
0000
0001
0000
,
1000
0000
0100
0000
1000
0000
0000
0000
0100
0000
0000
0010
0000
0000
0100
0000
,
0010
0000
0000
0001
0000
0000
1000
0000
0001
0000
0000
1000
0000
0000
0001
0000
,
0100
0101
1000
1100
,
0001
0010
0100
0000
1000
0100
0010
0000
,
0001
0000
0010
0000
0001
0000
0000
0000
0010
0000
0000
0100
0000
0000
0010
0000
,
0100
0000
0000
1000
0000
0000
0001
0000
1000
0000
0000
0001
0000
0000
1000
0000
,
0020
0000
0000
0000
0030
0000
0010
1000
,
0000
0010
0000
0100
0000
0001
0010
0000
,
1001
0000
0000
0000
1000
0001
0100
0000
,
0100
0000
0100
0001
2000
0000
0100
0000
,
0010
0000
3100
0000
0001
1000
0010
0000
,
0010
0000
0010
1000
0002
0000
0010
0000
,
0100
0000
0013
0000
0110
0000
0100
1000
,
0010
0000
0100
0000
0001
0100
0010
0000
,
1000
0000
0001
0100
0001
0000
0101
0000
,
1000
0100
1000
0000
1100
0000
0001
0010
,
0100
1000
1001
2100
,
0001
0000
0100
0000
3001
0000
0010
0100
,
0001
0000
1000
0100
1000
0000
0102
0000
,
0010
0000
1003
0000
1000
0100
0001
0000
,
0001
0100
1000
0000
0100
0000
0012
0000
,
1000
0000
0010
0000
1003
0000
0100
0010
,
1000
0000
0001
0010
0001
0000
2010
0000
,
0100
0000
3001
0000
0001
0100
1000
0000
,
1000
0100
0001
0000
0100
0000
1010
0000
,
0000
0001
0100
0000
0000
0000
0020
0000
,
0030
2000
3000
0200
,
0310
0001
0100
0000
0010
0000
0100
0000
,
0010
1000
0010
1000
0000
0100
0010
0000
,
0010
0001
0100
0000
0010
1000
0000
0001
,
0000
0001
0000
1000
0100
0000
0100
0000
,
0010
0001
0100
0000
0010
1000
0000
0010
,
0000
0100
0000
0001
0010
0000
2001
0000
,
0100
0100
0000
0000
,
0001
0001
0010
0010
,
0001
3001
0000
0010
,
0000
0100
0000
0002
,
0010
0010
0000
0000
,
1000
1000
0100
0100
,
1000
0000
1003
0000
0100
0001
1000
0000
,
0100
0000
0001
0000
0010
0000
0000
1000
,
0100
0010
0000
1000
0100
0010
0000
0001
,
0010
0100
0000
0001
0010
0100
0000
1000
,
0100
0001
0000
0001
0100
1000
0000
0001
,
0100
1000
0000
1000
0100
0001
0000
0200
,
0000
0000
0000
0000
0000
0000
0000
0020
,
0000
0000
0000
0000
0000
0330
0000
1000
,
0100
0010
0000
0100
0000
1000
0000
0001
,
0010
0100
0000
0010
0001
0100
0000
1000
,
0000
0001
0000
1000
0001
0100
0000
0001
,
0000
1000
0000
0001
1000
0100
0000
0001
,
0010
0100
0000
0010
0000
0001
0000
1000
,
0100
0010
0000
0100
1000
0010
0000
0001
,
0000
1000
0000
0001
1000
0010
0000
1000
,
0000
0001
0000
0000
1000
0000
0000
0020
0000
0000
0000
0000
0030
0000
1000
0000
,
0100
0001
0000
0100
0000
1000
0000
1000
,
0010
0100
0000
0010
0100
0001
0000
2000
,
0000
3100
0000
0001
1000
0100
0000
0002
,
0000
0103
0000
1000
0001
0100
0000
0001
,
0010
1000
0000
0010
0000
0001
0000
0001
,
0100
0010
0000
0100
0010
1000
0000
0002
,
0000
0013
0000
1000
0001
0010
0000
1000
,
0000
0010
0000
0000
1000
0000
0000
0002
0000
0000
0000
0000
0003
0000
1000
0000
,
0001
0100
0000
0010
0000
1100
0000
0001
,
0100
1000
0000
1000
0100
0001
0000
1000
,
0000
1100
0000
0001
1000
0100
0000
0001
,
0000
0101
0000
1000
0001
0100
0000
1000
,
0001
0100
0000
0010
0000
1100
0000
0001
,
0100
1000
0000
1000
0100
0001
0000
1000
,
0000
1100
0000
0001
1000
0100
0000
0001
,
0000
0010
0000
0000
0001
0000
0000
2000
0000
0000
0000
0000
3000
0000
0001
0000
,
0000
0100
0000
0001
0000
0100
0000
1000
,
0000
0100
0000
1000
0000
0100
0000
0001
,
0000
0010
0000
0100
0000
1000
0000
0001
,
0000
1000
0000
0100
0100
0100
0000
1000
,
0000
0010
0000
1000
0000
0010
0000
0001
,
0000
0010
0000
0001
0000
0010
0000
1000
,
0000
0100
0000
0010
0000
0001
0000
1000
,
0000
0001
0000
0010
0010
0010
0000
0100
,
1000
0100
0000
0100
0001
0100
0000
0100
,
1000
0000
0010
0000
0000
0000
0100
0000
0000
0001
0000
0000
0000
0000
0100
0000
,
0001
1000
0000
0001
1000
0100
0000
1000
,
0100
0010
0000
0100
0100
0100
0000
0010
,
0001
0010
0000
0010
1000
0010
0000
0010
,
0001
0000
0100
0000
0000
0000
0010
0000
0000
1000
0000
0000
0000
0000
1001
0000
,
0000
0100
0000
0001
0000
0010
0000
1100
,
0000
0001
0000
1000
0100
1000
0000
0001
,
0100
0001
0000
1000
0010
1000
0000
0001
,
0010
0001
0000
0100
0100
0100
0000
2002
,
0000
0000
0000
0000
0000
3003
0000
1000
,
0000
0100
0000
0000
0010
0000
0000
0000
0001
0000
0100
0000
0000
0000
0001
0000
,
0000
0010
0000
0000
0100
0000
0000
0000
1000
0000
0010
0000
0000
0000
1000
0000
,
0000
0100
0000
1000
0001
0100
0000
0001
,
0000
0100
0000
0001
1000
0010
0000
2000
,
0000
3100
0000
0001
0100
0010
0000
0100
,
0000
0010
0000
0000
1000
0000
0000
0000
0001
0000
1000
0000
0000
0000
0100
0000
,
0000
0010
0000
0001
0000
0100
0000
0001
,
0010
0100
0000
1000
0100
0010
0000
0001
,
0000
0010
0000
0000
0100
0000
0000
0000
1000
0000
0010
0000
0000
0000
1000
0000
,
0000
0100
0000
0000
0010
0000
0000
0000
0001
0000
0100
0000
0000
0000
0001
0000
,
0000
0010
0000
0001
1000
0010
0000
1000
,
0000
0010
0000
1000
0001
0100
0000
0002
,
0000
0013
0000
1000
0010
0100
0000
0010
,
0000
0100
0000
0000
0001
0000
0000
0000
1000
0000
0001
0000
0000
0000
0010
0000
,
0000
0100
0000
1000
0000
0010
0000
1000
,
0000
0001
0000
0000
2002
0000
0000
0000
0000
0000
3003
0000
0000
0000
1001
0000
,
0000
0010
1000
0100
0000
0010
0000
0001
,
0000
0100
0000
1000
0100
1000
0000
0001
,
0000
0001
0100
1000
0000
0100
0000
0001
,
0000
0010
0000
0100
1000
0100
0000
0010
,
0000
0010
0000
0000
0010
0000
0000
0000
0000
0000
0000
0000
0000
0000
0001
0000
,
0100
0010
0000
1000
0010
0100
0000
0001
,
0000
0100
0000
0010
0000
1000
0000
1001
,
0000
0010
0100
0000
0100
0010
0000
1002
,
0000
0000
2003
0000
0000
3200
0000
0000
,
0000
0000
0000
0000
0000
0300
0000
0010
,
0000
0000
0001
0100
0000
1000
0100
0000
,
0001
1000
0000
1000
0001
0000
0000
2001
,
0000
0000
0000
3002
0000
0000
0000
1003
,
0000
0100
0010
0001
0000
1100
0000
0000
,
0001
0100
0010
0000
1000
0001
0000
0100
,
0000
0001
0001
0000
1000
1000
0000
2002
,
0000
0000
0000
0000
0000
3003
0000
1010
,
0000
0100
0001
0010
0000
1100
0000
0101
,
0000
0010
1000
0100
0000
0011
0000
1000
,
0000
0100
0000
0001
0000
0010
0000
0001
,
0000
0100
0000
1000
0000
0010
0000
1000
,
0001
0100
0000
0100
0001
1000
0000
1000
,
0001
0010
0000
0010
0001
1000
0000
0001
,
0000
0100
0000
0010
0000
1000
0000
1001
,
0000
0010
0100
0000
0010
0100
0000
0101
,
0000
0010
1000
0100
0000
0011
0000
1010
,
0000
0100
0001
0010
0000
1100
0000
0001
,
0000
0010
0000
1000
0000
0100
0000
1000
,
0000
0010
0000
0001
0000
0100
0000
0001
,
1000
0010
0000
0010
1000
0001
0000
0001
,
1000
0100
0000
0100
1000
0001
0000
1000
,
0000
0010
0000
0100
0000
0001
0000
1000
,
0100
1000
0000
0001
0100
0001
0000
1000
,
0100
0001
0000
0001
0100
1000
0000
0001
,
0000
1000
0000
0000
2002
0000
0000
0000
0000
0000
3003
0000
0000
0000
0000
0000
,
1000
0000
0000
0100
0000
0000
0010
0000
0000
0000
0001
0000
0100
0000
0000
0000
,
0001
0000
0000
0010
0000
0000
0100
0000
0000
0000
1000
0000
0010
0000
0000
0000
,
1000
0000
0100
0000
1000
0001
0100
0000
,
0001
0000
0100
0000
0001
1000
0010
0000
,
2000
0000
3100
0000
0001
0100
0010
0000
,
0100
0000
0000
0010
0000
0000
1000
0000
0000
0000
0001
0000
1000
0000
0000
0000
,
0100
0010
0001
0000
0001
1000
0100
0000
,
0001
0010
0100
0000
1000
0100
0010
0000
,
0001
0000
0000
0010
0000
0000
0100
0000
0000
0000
1000
0000
0010
0000
0000
0000
,
1000
0000
0000
0100
0000
0000
0010
0000
0000
0000
0001
0000
0100
0000
0000
0000
,
0001
0000
0010
0000
0001
1000
0010
0000
,
1000
0000
0010
0000
1000
0001
0100
0000
,
0002
0000
0013
0000
1000
0010
0100
0000
,
0010
0000
0000
0100
0000
0000
0001
0000
0000
0000
1000
0000
0001
0000
0010
0000
,
0100
0000
0010
0001
0100
0000
0010
1000
,
0100
0000
0000
0010
0000
0000
2002
0000
0000
0000
0000
0000
3003
0000
0000
0000
,
1001
0000
0000
0000
;
