#TITLE:UPSIDE DOWN;
#ARTIST:COO COO;
#BANNER:UPSIDE DOWN.png;
#BACKGROUND:UPSIDE DOWN-bg.png;
#JACKET:UPSIDE DOWN-jacket.png;
#MUSIC:UPSIDE DOWN.ogg;
#SAMPLESTART:44.264;
#SAMPLELENGTH:20;
#DISPLAYBPM:124;
#BPMS:0=124.028;
#BGCHANGES:;

//---------------dance-single - ----------------
#NOTES:
     dance-single:
     :
     Beginner:
     3:
     :
0000
0000
0000
0000
,
0000
0000
0000
0000
,
0000
0000
0000
0000
,
0000
0000
0000
0000
,
0000
0000
0000
0000
,
0001
0000
0000
0000
,
1000
0000
0000
0000
,
0001
0000
0001
0000
,
1000
0000
1000
0000
,
0001
0000
0100
0000
,
1000
0000
0100
0000
,
0001
0000
0001
0000
,
1000
0000
1000
0000
,
0001
0000
0100
0000
,
1000
0000
0100
0000
,
0001
0000
0001
0000
,
1000
0000
1000
0000
,
0001
0000
1000
0000
,
0001
0000
1000
0000
,
0001
0000
0100
0000
,
1000
0000
0010
0000
,
0001
0000
1000
0000
,
0010
0000
0100
0000
,
0001
0001
0001
0001
,
1000
1000
1000
1000
,
0010
0000
0001
0000
,
0010
0000
1000
0000
,
0001
0001
0001
0001
,
1000
1000
1000
1000
,
0001
0000
0100
0000
,
1000
0000
0100
0000
,
0010
0000
0010
0000
,
0010
0000
0100
0000
,
1000
1000
0001
0001
,
1000
1000
1000
1000
,
0001
0000
0001
0000
,
1000
0000
1000
0000
,
0001
0000
1000
0000
,
0001
0000
1000
0000
,
0010
0000
0100
0000
,
0010
0000
0100
0000
,
0001
0001
0100
0100
,
1000
1000
0100
0100
;

//---------------dance-single - ----------------
#NOTES:
     dance-single:
     :
     Easy:
     5:
     :
0000
0000
0000
0000
,
0000
0000
0000
0000
,
0000
0000
0000
0000
,
0000
0000
0000
0000
,
0000
0000
0000
0000
,
0001
0001
1000
1000
,
0001
0001
1000
1000
,
0010
1001
0100
0010
,
0100
0100
0100
0100
,
0010
1000
0001
0100
,
0001
0100
1000
0100
,
0010
1001
0100
0010
,
0100
0100
0100
0100
,
0010
1000
0001
0100
,
0001
0100
1000
0100
,
0001
0100
1000
0100
,
0001
0010
0100
1000
,
0010
0001
1000
0100
,
0001
0100
1000
0100
,
0001
0100
1000
0100
,
0001
0010
0100
1000
,
0010
0001
1000
0100
,
0001
0100
1000
0100
,
0001
0001
0001
0001
,
1000
1000
1000
1000
,
0001
0001
1000
1000
,
0001
1000
0001
1000
,
0001
0001
0001
0001
,
1000
1000
1000
1000
,
0001
0001
1000
1000
,
0001
1000
0001
1000
,
0001
0100
1000
0100
,
0010
0010
1001
0100
,
0001
0001
1000
1000
,
0100
0100
0100
0100
,
0001
0001
1000
1000
,
0001
0001
1000
1000
,
0010
0010
0100
0100
,
0001
1000
0010
0100
,
1000
1000
0001
0001
,
1000
1000
0001
0001
,
0100
0100
0010
0010
,
0001
1000
0010
0010
;

//---------------dance-single - ----------------
#NOTES:
     dance-single:
     :
     Medium:
     7:
     :
0000
0000
0000
0000
,
0000
0000
0000
0000
,
0000
0000
0000
0000
,
0000
0000
0000
0000
,
0000
0000
0000
0000
,
0001
0001
0100
0100
1000
0000
0100
0000
,
1000
1000
0100
0100
0001
0000
0100
0000
,
0001
0001
0100
0000
,
1000
1000
0100
0000
,
1000
1000
0001
0001
1000
0000
1000
0000
,
0001
0001
1000
1000
0100
0000
0100
0000
,
0001
1000
0100
0000
,
1000
0001
0100
0000
,
0001
1000
0010
0100
0001
0000
1000
0000
,
1000
0001
0100
0010
1000
0000
0001
0000
,
1000
1000
1000
1000
,
0001
0001
0001
0001
,
1000
1000
0001
0001
,
0100
0100
0100
0100
,
1000
1000
1000
1000
,
0001
0001
0001
0001
,
1000
1000
0001
0001
,
1000
0100
0001
0100
,
1000
1000
0001
0001
0100
0000
0010
0000
,
0001
0001
1000
1000
0010
0000
0100
0000
,
0001
0001
1000
1000
,
0001
0100
1000
0100
,
0001
0001
0100
0100
1000
0000
0100
0000
,
1000
1000
0100
0100
0001
0000
0100
0000
,
1000
1000
0001
0001
,
1000
0100
0001
0100
,
0001
0100
1000
0100
,
0010
0010
1001
0100
,
0001
0001
1000
1000
,
0100
0100
0100
0100
,
0001
0001
0100
0100
1000
0000
0100
0000
,
1000
1000
0100
0100
0001
0000
0100
0000
,
0001
1000
0010
0100
0001
0000
1000
0000
,
1000
0001
0100
0010
1000
0000
0001
0000
,
1000
1000
0100
0100
0001
0000
0100
0000
,
1000
1000
0100
0100
0001
0000
0100
0000
,
0001
0001
1000
1000
0001
0000
1000
0000
,
0001
0001
1000
1000
0100
0000
0100
0000
;

//---------------dance-single - ----------------
#NOTES:
     dance-single:
     :
     Hard:
     10:
     :
0000
0000
0000
0000
,
0000
0000
0000
0000
,
0000
0000
0000
0000
,
0000
0000
0000
0000
,
0000
0000
0000
0000
,
1000
0001
0100
0010
1000
0000
0101
0000
,
1000
0001
0100
0010
0001
0000
1100
0000
,
0010
0000
0001
0000
1100
0010
0001
0100
,
1000
0001
1000
1000
0101
0010
1000
0100
,
1000
1000
0001
0001
1000
0000
1100
0000
,
0001
0001
1000
1000
0100
0000
1100
0000
,
0001
0000
1000
0000
0101
0010
1000
0100
,
1000
1000
0001
0001
1100
0010
0100
0000
,
0001
0100
1000
0010
0100
0000
0101
0000
,
0001
0100
1000
0010
0100
0000
1100
0000
,
1000
0001
1000
0010
0101
1000
0100
0000
,
0010
0100
1000
0001
1100
0001
0100
0000
,
0001
0001
1000
1000
0100
0100
0100
0000
,
0001
0000
0001
0000
1100
0010
0001
0100
,
1000
1000
0001
0010
0101
0010
1000
0100
,
1000
1000
0001
0010
1100
0001
0100
0001
,
1000
1000
0100
0100
0010
0001
0100
0001
,
1000
0000
1100
0000
0001
1000
0101
0000
,
1000
1000
0001
0001
0010
1100
0010
1000
,
0001
0001
1000
1000
0010
0101
0010
1000
,
0001
0001
0010
0010
0100
0100
1000
0000
,
0001
1000
0101
0000
1000
0001
1100
0000
,
0001
0001
0100
0100
1000
0100
0010
0001
,
1000
1000
0100
0100
0010
0001
0100
0000
,
1000
1000
0100
0100
0010
0001
0100
0000
,
0001
0000
1100
0000
0001
1000
0101
0000
,
1000
0001
1100
0010
0001
1000
0101
0010
,
1000
0001
0010
0100
1001
0001
0100
0000
,
0001
0010
0100
1000
,
0001
0000
0001
0000
1100
0001
0100
0000
,
0001
0001
0100
0100
1000
0010
0101
1000
,
1000
1000
0100
0100
0001
0010
1100
0001
,
1000
0010
0001
0100
0010
0010
0100
1000
,
0001
0100
1000
0010
0100
0010
0010
1000
,
0001
0001
0100
0100
0001
0010
1100
0001
,
1000
1000
0100
0100
1000
0010
0101
1000
,
0001
1000
0010
0100
0001
0000
1000
0000
,
1001
0001
1001
1000
0100
0000
0100
0000
;

//---------------dance-single - ----------------
#NOTES:
     dance-single:
     :
     Challenge:
     13:
     :
0000
0000
0000
0000
,
0000
0000
0000
0000
,
0000
0000
0000
0000
,
0000
0000
0000
0000
,
0000
0000
0000
0000
,
1010
0000
1010
0000
0101
0000
0101
0000
2000
0000
0000
0001
0000
0100
0000
3010
,
1000
0100
1000
0000
1001
0000
1001
0000
0001
0100
0000
0001
0010
0000
0000
0000
,
0011
0000
0000
0000
1000
0100
0000
0010
0002
0000
0000
0000
0003
0001
0100
0001
,
1000
0000
1000
0000
0001
0000
0100
0010
0000
0000
1100
0000
1100
0000
0000
0000
,
0011
0000
0011
0000
1100
0000
1100
0000
1000
0001
0000
0100
0010
0000
0000
0000
,
1001
0000
1001
0000
0110
0000
0110
0000
0010
1000
0000
0001
0100
0000
0000
0000
,
1010
0000
0000
0000
0100
0001
0000
1000
0020
0000
0000
0000
0030
0010
1000
0100
,
1000
0000
0010
0000
0010
0000
0100
0001
0000
0000
0101
0000
0101
0000
0000
0000
,
1100
0000
1100
0000
0101
0000
0101
0000
0001
1000
0000
0100
0010
0000
0000
0000
,
0011
0000
0011
0000
1010
0000
1010
0000
0100
0010
0000
1000
0001
0000
0000
0000
,
0010
0100
0100
0100
0001
0001
1000
0010
,
1000
0100
0100
0100
0010
0010
0001
1000
,
0010
0010
0100
0100
1000
0001
1000
0001
,
0200
0000
0010
0000
0301
0101
1001
1100
,
1000
0001
0001
0001
0010
0010
0100
1000
,
0001
0100
0100
0100
0010
0010
1000
0001
,
0010
0010
0100
0100
1000
0001
1000
0001
,
0020
0001
1000
0031
0200
0010
0310
0120
,
1030
0100
0100
0100
0010
0010
0001
0201
,
0310
0100
0100
0100
0001
0001
1001
0000
,
1010
0100
0101
0010
1100
1000
0011
0001
,
0100
0010
0110
0010
1000
0001
0100
0102
,
0013
0100
0100
0100
1000
1000
0001
2010
,
3001
0010
0010
0010
0100
0100
1001
0000
,
0011
0001
0101
0100
1100
1000
1010
0010
,
0100
0010
1000
0001
0010
0002
0103
2000
,
0000
0001
0001
3001
0010
0010
0100
0100
,
1100
1010
0110
0101
0010
0100
1000
0000
,
1002
0000
0103
0201
0000
0310
2010
0000
,
3020
1000
0001
1000
0100
0130
0110
0000
,
0011
0000
0011
0000
1100
0000
1100
0000
0002
0000
0000
0010
0000
0100
0000
1003
,
0001
0000
0101
0000
0101
0000
1010
0000
2010
0000
0000
3010
0000
1000
0000
0100
,
1000
0000
1001
0000
1001
0000
0110
0000
0120
0000
0000
0130
0000
0001
0000
0010
,
0001
1000
0200
0000
0010
0000
0010
0000
0310
0001
0000
1000
0100
0000
0000
0000
,
0110
0000
0110
0000
1001
0000
1001
0000
0020
0000
0000
0001
0000
0100
0000
1030
,
0010
0000
1100
0000
1100
0000
0101
0000
0102
0000
0000
0103
0000
0001
0000
1000
,
0001
0000
0011
0000
0011
0000
1010
0000
2010
0000
0000
3100
0000
1000
0000
0010
,
1000
0001
0200
0000
0010
0000
0310
0000
1000
0001
0100
0010
1000
0100
0010
0001
;

//---------------dance-double - ----------------
#NOTES:
     dance-double:
     :
     Easy:
     5:
     :
00000000
00000000
00000000
00000000
,
00000000
00000000
00000000
00000000
,
00000000
00000000
00000000
00000000
,
00000000
00000000
00000000
00000000
,
00000000
00000000
00000000
00000000
,
10000000
00010000
01000000
00001000
,
00010000
00000100
00001000
00000001
,
00000010
00001001
00000100
00000000
,
00000100
00000100
00000100
00000000
,
00000010
00001000
00000001
00000100
,
00010000
01000000
10000000
01000000
,
00100000
00100000
01000000
00001000
,
00010000
00010000
00000100
00000000
,
00000001
00000010
00000100
00001000
,
00100000
10000000
00010000
01000000
,
00010000
01000000
10000000
01000000
,
00001000
00000100
00000010
00000001
,
00000010
00000001
00001000
00000100
,
00010000
01000000
10000000
01000000
,
00010000
00010000
00010000
00010000
,
10000000
10000000
10000000
01000000
,
00001000
00000001
00000100
00000100
,
00000001
00000010
00000100
00001000
,
00100000
01000000
10000000
10000000
,
00010000
00010000
00010000
00010000
,
01000000
01000000
00001000
00000100
,
00000001
00001000
00000001
00000001
,
00000100
00010000
01000000
10000000
,
01000000
00001000
00000001
00000100
,
00001000
00000100
00000001
00001000
,
00100000
10000000
10000000
10000000
,
01000000
00001000
00000010
00001000
,
00000100
00000100
00001001
00000100
,
00000001
00000000
00001000
00100000
,
10000000
00000000
01000000
01000000
,
00010000
00010000
10000000
10000000
,
00010000
00010000
00010000
00010000
,
10000000
01000000
00100000
00010000
,
00000010
00000001
00001000
00000100
,
00000001
00000100
00001000
00000100
,
00100000
00010000
10000000
01000000
,
00010000
01000000
10000000
01000000
,
10000000
00010000
00000010
00000010
;

//---------------dance-double - ----------------
#NOTES:
     dance-double:
     :
     Medium:
     7:
     :
00000000
00000000
00000000
00000000
,
00000000
00000000
00000000
00000000
,
00000000
00000000
00000000
00000000
,
00000000
00000000
00000000
00000000
,
00000000
00000000
00000000
00000000
,
00000001
00000100
00001000
00000100
,
00000001
00000001
00000001
00000000
00000100
00000000
00010000
00000000
,
00100000
00000000
10000000
00000000
01000000
01000000
01000000
00000000
,
10000000
00000000
10000000
00000000
00010000
00010000
00010000
00000000
,
01000000
01000000
00001000
00001000
00000010
00000000
00000001
00000000
,
00001000
00001000
00000001
00000001
00000100
00000000
00000100
00000000
,
00000001
00000000
00001000
00000000
00000100
00000100
00000100
00000000
,
00001000
00000000
00100000
00000000
01000000
01000000
01000000
00000000
,
00010000
00100000
00010000
10000000
,
10000000
00010000
00000100
00000001
,
00001000
00000000
00001000
00000000
00000001
00000001
00000001
00000000
,
00001000
00000000
00100000
00000000
10000000
10000000
10000000
00000000
,
00010000
00010000
10000000
01000000
,
00001000
00000000
00000001
00000000
00001000
00001000
00001000
00000000
,
00000100
00000000
00010000
00000000
00001000
00001000
00001000
00000000
,
00010000
00000000
00001000
00000000
00010000
00010000
00010000
00000000
,
00100000
10000000
01000000
00001000
,
00000001
00000000
00000100
00000000
00001000
00001000
00000100
00000100
,
00000001
00001000
00000100
00000010
,
00000001
00000001
00001000
00001000
00000010
00000000
00000100
00000000
,
00001000
00001000
00000100
00000100
,
00010000
01000000
10000000
01000000
,
00010000
00010000
01000000
01000000
10000000
00000000
01000000
00000000
,
10000000
10000000
01000000
01000000
00010000
00000000
01000000
00000000
,
00001000
00000010
00000001
00000001
,
00001000
00000100
00000001
00000100
,
00001000
00000101
00001000
00001100
,
00000010
00000110
00001001
00000100
,
00010000
00100000
10000000
10000000
,
00010000
00000000
00010000
00000000
01000000
01000000
01000000
00000000
,
00010000
11000000
00010000
01010000
,
10000000
11000000
00010000
01010000
,
00001000
00000000
00000010
00000000
00000001
00000001
00000001
00000000
,
00001000
00000000
00000001
00000000
00001000
00001000
00001000
00000000
,
00000001
00000001
00001000
00001000
00000100
00000000
00100000
00000000
,
10000000
10000000
01000000
01000000
00010000
00000000
01000000
00000000
,
00010000
00010000
10000000
10000000
01000000
00000000
00001000
00000000
,
00010000
00010000
00001000
00001000
00010000
00000000
00010000
00000000
;

//---------------dance-double - ----------------
#NOTES:
     dance-double:
     :
     Hard:
     9:
     :
00000000
00000000
00000000
00000000
,
00000000
00000000
00000000
00000000
,
00000000
00000000
00000000
00000000
,
00000000
00000000
00000000
00000000
,
00000000
00000000
00000000
00000000
,
00000001
00000010
00000100
00001000
00100000
00000000
10000000
00000000
,
01000000
00100000
00010000
00001000
00000001
00000000
00000100
00000000
,
00001000
00010000
01100000
00000000
,
00010000
00001000
00000110
00000000
,
00000001
00000010
00000100
00001000
00100000
00000000
10000000
00000000
,
00010000
00010000
10000000
10000000
01000000
00000000
10000000
00000000
,
00010000
00001000
00000110
00000000
,
00001000
00010000
01100000
00000000
,
10000000
01000000
00100000
00010000
00000010
00000000
00000001
00000000
,
00000100
00010000
00100000
01000000
10000000
00000000
01000000
00000000
,
10000000
00010000
00001000
00000110
,
00000001
00001000
00010000
01100000
,
10000000
00010000
00001000
00000110
,
00000001
00001000
00010000
01100000
,
10000000
01000000
00001000
00000101
,
00000010
00010000
00100000
11000000
,
10000000
01000000
00100000
00010000
00000010
00000000
00000001
00000000
,
00000100
00001000
00100000
01000000
,
10000000
10000000
00010000
00010000
01000000
00001000
00000000
00000000
,
00010000
00010000
00000100
00000100
00001000
00000001
00000000
00000000
,
00000100
00010000
01000000
10000000
,
10000000
01010000
00010000
11000000
,
00010000
00010000
00000100
00000100
00000010
00000001
00000000
00000000
,
00001000
00001000
00000100
00000100
00010000
01000000
00000000
00000000
,
10000000
01000000
00100000
00010000
,
00100000
00011000
00000010
00000101
,
00001000
00011000
00100000
11000000
,
01010000
00001000
00000110
00000100
,
00010000
00100000
10000000
01000000
,
00010000
00000010
00000100
00000001
,
00001000
00100000
01000000
01000000
10000000
00000000
00010000
00000000
,
10000000
10000000
00010000
00010000
00001000
00000000
00000110
00000000
,
00000001
00000001
00001000
00001000
00010000
00000000
01100000
00000000
,
00010000
10000000
00100000
01000000
01000000
00000000
00100000
00000000
,
00010000
00010000
00000010
00000010
00001000
00000000
00000101
00000000
,
00000001
00000001
00001000
00001000
00010000
00000000
01100000
00000000
,
10000000
10000000
00010000
00010000
00001000
00000000
00000110
00000000
,
00000001
00001000
00000001
00000001
00000100
00000000
00000100
00000000
;

//---------------dance-couple - ----------------
#NOTES:
     dance-couple:
     :
     Medium:
     7:
     :
00000000
00000000
00000000
00000000
,
00000000
00000000
00000000
00000000
,
00000000
00000000
00000000
00000000
,
00000000
00000000
00000000
00000000
,
00000000
00000000
00000000
00000000
,
10000001
00011000
01000100
00100010
10000001
00000000
01011100
00000000
,
10000001
00011000
01000100
00100010
00011000
00000000
11000101
00000000
,
00100000
00000000
00010000
00000000
11000000
00100000
00010001
01000000
,
10000000
00010000
10000000
10000000
01010000
00100000
10000001
01000000
,
10000000
10000000
00010000
00010000
10000000
00000000
11000001
00000000
,
00010000
00010000
10000000
10000000
01000000
00000000
11000001
00000000
,
00000010
00000000
00001000
00000000
00000101
00000010
10001000
00000100
,
00000001
00001000
00000001
00000001
00001100
00000010
10000001
00000100
,
00000001
00000001
00001000
00001000
00000001
00000000
10000101
00000000
,
00001000
00001000
00000001
00000001
00000100
00000000
10000101
00000000
,
10001000
01000100
00010001
01000100
,
10001000
01000100
00010001
01000100
,
00000001
00000001
00001000
00001000
00000100
00000100
00000100
00000000
,
00010000
00010000
10000000
10000000
01000000
01000000
01000000
00000000
,
10000000
10000000
00010000
00100000
01010000
00100000
10000000
00000000
,
00001000
00001000
00000001
00000010
00000101
00000010
00001000
00000000
,
10000001
10000001
01000100
01000100
00100010
00011000
01000100
00011000
,
10000001
00000000
11000101
00000000
00011000
10000001
01011100
00000000
,
00001000
00001000
00000001
00000001
00000010
00001100
00000010
00000000
,
10000000
10000000
00010000
00010000
00100000
11000000
00100000
00000000
,
00010001
01000100
10001000
01000100
,
00010001
01000100
10001000
01000100
,
10000000
10000000
01000000
01000000
00100000
00010000
01000000
00000000
,
00001000
00001000
00000100
00000100
00000010
00000001
00000100
00000000
,
10000000
00010000
01000000
00000000
00000001
00001000
00000100
00000000
,
00010000
10000000
01000000
00000000
00001000
00000001
00000100
00000000
,
00001000
00000001
00001100
00000010
00000001
00001000
00000101
00000000
,
10000000
00010000
11000000
00100000
00010000
10000000
01010000
00000000
,
00001001
00000000
00000000
00000110
00000000
00000000
10010000
00000000
,
00000000
01100000
00000000
00000000
00000000
00000000
00000000
00000000
,
00010000
00010000
01000000
01000000
10000000
00100000
01010000
10000000
,
10000000
10000000
01000000
01000000
00010000
00100000
11000000
00000000
,
00000001
00000001
00000100
00000100
00001000
00000010
00000101
00001000
,
00001000
00001000
00000100
00000100
00000001
00000010
00001100
00000000
,
00010000
00010000
01000000
01000000
10000000
00100000
01010000
00000000
,
00001000
00001000
00000100
00000100
00000001
00000010
00001100
00000000
,
00011000
00011000
01000100
01000100
10000001
00000000
01000100
00000000
,
00100010
10000001
01000100
00000000
10010000
00000000
00001001
00000000
;

//---------------dance-solo - ----------------
#NOTES:
     dance-solo:
     :
     Easy:
     3:
     :
000000
000000
000000
000000
,
000000
000000
000000
000000
,
000000
000000
000000
000000
,
000000
000000
000000
000000
,
000000
000000
000000
000000
,
000010
000010
000000
000000
,
010000
010000
000000
000000
,
000100
010000
001000
001000
,
100000
000000
000001
000000
,
000100
000100
000000
001000
,
100000
000000
000001
000001
,
000100
000010
001000
001000
,
000010
000000
010000
000000
,
000001
000001
000000
100000
,
000100
000000
001000
001000
,
100000
000000
000010
000000
,
001000
000000
000001
000000
,
010000
000000
001000
000000
,
100000
000000
000001
000000
,
010000
000000
000100
000000
,
001000
000000
000010
000000
,
100000
000000
000001
000000
,
100000
000000
000010
000010
,
001000
001000
001000
001000
,
000100
000100
000100
000100
,
000001
010000
000001
010000
,
000010
100000
000010
100000
,
000001
000001
000001
000001
,
100000
100000
100000
100000
,
000010
001000
000010
001000
,
010000
000100
010000
000100
,
100000
000000
000001
000000
,
010000
000000
001000
000000
,
000100
000000
000010
000000
,
100000
000000
000001
000001
,
010000
010000
000000
000000
,
000010
000010
000000
000000
,
100000
100000
000000
000000
,
000100
000100
000000
000000
,
010000
010000
000000
000000
,
000010
000010
000000
000000
,
000100
000100
000000
000000
,
000001
000001
100000
000001
;

//---------------dance-solo - ----------------
#NOTES:
     dance-solo:
     :
     Medium:
     5:
     :
000000
000000
000000
000000
,
000000
000000
000000
000000
,
000000
000000
000000
000000
,
000000
000000
000000
000000
,
000000
000000
000000
000000
,
000010
100001
010000
100001
,
000100
001010
100000
010100
,
000100
010010
001000
001000
,
000001
100000
000001
100000
,
001000
001000
000011
000101
,
000100
000100
101000
011000
,
010010
100001
001000
001000
,
000010
001000
000010
001000
,
100000
100000
010001
001001
,
000001
000001
100010
100100
,
000001
010000
000010
100000
,
000100
000100
001000
100001
,
000011
000000
000011
000000
,
110000
000000
110000
100000
,
100000
001000
000010
000001
,
001000
001000
000010
010010
,
000110
000000
000110
000000
,
010100
000000
010100
000100
,
000110
000110
100001
100001
,
010100
010100
100001
100001
,
000001
000001
100000
000000
000100
000100
001000
000000
,
000001
100000
000001
100000
,
001010
001010
100001
100001
,
011000
011000
100001
100001
,
000100
000100
001000
000000
000010
000010
010000
000000
,
000001
100000
000001
100000
,
000100
000010
000100
000000
000001
000000
000001
000000
,
100000
001000
100000
000000
000100
000000
000100
000000
,
000100
010010
100000
001100
,
110000
100100
110000
000100
,
000010
100001
010000
100001
,
000100
001010
100000
010100
,
000010
000010
010000
000000
001000
001000
000001
000000
,
100000
000000
000001
000000
100000
000000
000001
010000
,
000010
100001
010000
100001
,
000100
001010
100000
010100
,
001000
001000
000010
000000
100000
000000
100000
000000
,
000010
001000
000100
100000
;

//---------------dance-solo - ----------------
#NOTES:
     dance-solo:
     :
     Hard:
     7:
     :
000000
000000
000000
000000
,
000000
000000
000000
000000
,
000000
000000
000000
000000
,
000000
000000
000000
000000
,
000000
000000
000000
000000
,
000010
000100
000010
100000
001000
000000
001000
000000
,
000001
000100
000010
000000
100000
000000
100000
000000
,
000100
001000
000001
100000
001000
000000
001100
000000
,
100000
000001
100000
000001
,
000100
000100
000100
000001
010000
000000
001000
000000
,
100000
100000
100000
000010
001000
000000
000100
000000
,
000010
001000
000001
010000
000100
000000
001100
001000
,
000000
000001
100000
000001
,
001000
001000
001000
000010
100000
000000
000100
001000
,
000001
000001
000001
100000
000010
000000
010000
000000
,
000000
000000
000000
000000
000110
000101
000001
000000
,
000000
000000
000000
000000
010100
100100
100000
000000
,
000100
000100
001000
001000
,
000010
001000
000001
100000
000100
000100
000100
010000
,
000000
000000
000000
000000
110000
010100
000110
000000
,
000000
000000
000000
000000
000011
000110
010100
000000
,
100000
000001
100000
000001
,
001100
000000
010000
000000
001100
000000
000010
000010
,
100000
100000
000001
000001
010000
001000
100000
000010
,
001000
001000
000001
000001
100000
100000
000100
001000
,
000100
000100
100000
100000
000001
000001
001000
001000
,
000010
000001
000010
000000
010000
100000
010000
000000
,
000001
000001
001000
001000
000100
100000
000100
010000
,
000001
000001
001000
001000
000100
100000
000100
000000
,
010000
010000
000001
000001
001000
000100
001000
000000
,
000001
000000
100010
000000
100000
000100
100010
000000
,
001000
000010
001010
000000
000001
010000
001000
100000
,
000100
001000
000001
000100
001000
100000
100000
000000
,
000100
001000
000100
001000
,
000001
000000
000001
000000
100010
000001
010000
000000
,
000100
000100
001000
001000
000001
100000
100010
000010
,
000010
000010
001000
001000
000001
100000
000010
100000
,
000010
001000
000100
100000
000001
000001
001000
000100
,
100000
001000
010000
001000
100000
000100
001000
001000
,
000001
000001
100000
100000
000010
001000
011000
100000
,
000001
000001
001000
001000
000001
001000
000010
001000
,
000001
100000
000001
100000
000100
000000
000001
000000
,
100000
000001
100000
000001
001000
001000
001000
000000
;
