#TITLE:Tracers (4Beat Remix);
#ARTIST:Ruffage & Size;
#BANNER:Tracers (4Beat Remix).png;
#BACKGROUND:Tracers (4Beat Remix)-bg.png;
#JACKET:Tracers (4Beat Remix)-jacket.png;
#MUSIC:Tracers (4Beat Remix).ogg;
#SAMPLESTART:44.571;
#SAMPLELENGTH:20;
#DISPLAYBPM:140;
#BPMS:0=140.078,4=139.997;
#BGCHANGES:;

//---------------dance-single - ----------------
#NOTES:
     dance-single:
     :
     Beginner:
     3:
     :
0000
0000
0000
0000
,
0000
0000
0000
0000
,
0000
0000
0000
0001
,
0000
0000
0000
1000
,
0000
0000
0000
0100
,
0000
0000
0000
0010
,
0000
0000
0000
0001
,
0000
0000
0000
1000
,
0000
0000
0000
0010
,
0000
0000
0000
0000
,
0000
0010
0000
0010
,
0000
0100
0000
0100
,
0000
0001
0000
1000
,
0000
0001
0000
1000
,
0000
0100
0000
0100
,
0000
0010
0000
0010
,
0000
1000
0000
0001
,
0001
0000
0000
0000
,
0010
0000
0010
0000
,
0010
0000
0010
0000
,
1000
0000
1000
0000
,
1000
0000
0001
0001
,
0001
0000
0001
0000
,
0001
0000
0001
0000
,
0100
0000
0100
0000
,
0100
0000
0000
0000
,
0000
1000
0000
0100
,
0000
0100
0000
1000
,
0000
0100
0000
0001
,
0000
0001
0000
0100
,
0000
0010
0000
0001
,
0000
1000
0000
0100
,
0000
0010
0000
1000
,
0000
0100
0100
0000
,
0001
0000
0000
0000
,
0010
0000
0010
0000
,
0001
0000
0000
0000
,
1000
0000
1000
0000
,
0010
0000
0000
0000
,
0100
0000
0100
0000
,
0001
0000
0000
0000
,
0100
0100
0100
0000
,
0000
0000
0000
0001
,
0000
0000
0000
0100
,
0000
0000
0000
1000
,
0000
0000
0000
0100
,
0000
0000
0000
0001
,
0000
0000
0000
0010
,
0000
0000
0000
0001
,
0000
0000
0000
1000
,
0000
0001
0000
0010
,
0000
1000
0000
0100
,
0000
0010
0000
0001
,
0000
0100
0000
0100
,
0100
0000
0000
0000
,
1000
0000
0000
0000
,
0100
0000
0010
0000
,
0001
0001
0000
1000
,
1000
0000
0000
0000
,
0000
0000
0000
0000
;

//---------------dance-single - ----------------
#NOTES:
     dance-single:
     :
     Easy:
     5:
     :
0000
0000
0000
0000
,
0000
0000
0000
0000
,
0010
1000
0001
0000
,
0001
0010
1000
0000
,
0100
0001
1000
0100
,
0001
0010
1000
0000
,
0100
0000
1000
0010
,
0100
0000
0001
0010
,
0001
0000
1000
0000
,
0010
1000
0100
0000
,
0001
1000
0000
0010
,
0001
1000
0000
0010
,
1000
0100
0000
0001
,
1000
0010
0000
0001
,
0100
0010
0000
1000
,
0001
1000
0000
0100
,
0010
0001
0100
1000
,
0010
0000
0000
0000
,
0020
0100
0000
0100
,
0000
0100
0000
0130
,
0002
0100
0000
0100
,
0000
0103
1001
0110
,
2000
0001
0000
0001
,
0000
0001
0000
3001
,
0020
1000
0000
1030
,
0200
0000
0000
0300
,
1000
0001
0010
0100
,
1000
0100
0001
0001
,
0100
0010
1000
0001
,
2000
0000
0200
3300
,
0001
0010
0100
1000
,
0100
0001
1000
0100
,
1000
0010
1000
0001
,
0100
0010
0100
0000
,
1000
0010
0100
0000
,
0010
0100
0001
0000
,
0010
1000
0001
0000
,
0001
1000
0100
0010
,
0001
1000
0100
0000
,
0010
1000
0100
0000
,
1000
0001
0100
0010
,
0100
0100
0100
0000
,
0001
0100
0000
1000
,
0010
0001
0010
0100
,
0010
1000
0000
0001
,
0010
0100
1000
0001
,
0010
0001
1000
0000
,
0100
0010
0100
0000
,
0100
1000
0001
1000
,
0010
0001
1000
0000
,
0001
1000
0100
0010
,
0001
0010
1000
0010
,
0100
0010
0001
1000
,
0001
0100
0010
0100
,
1001
0010
0000
0010
,
1001
0010
0000
0010
,
0100
0001
0010
0001
,
0100
1000
0000
0010
,
2002
0000
0000
0000
,
0000
0000
0000
3003
,
0000
0000
0000
0000
;

//---------------dance-single - ----------------
#NOTES:
     dance-single:
     :
     Medium:
     7:
     :
0000
0000
0000
0000
,
0000
0000
0000
0000
,
0100
0001
0010
0000
0100
0000
0010
0000
,
0001
0100
1000
0100
,
0010
0100
0001
0000
1000
0000
0010
0000
,
0001
0100
1000
0100
,
0010
0000
0000
0000
1000
0001
0100
0000
,
0010
0000
0000
0000
0001
1000
0100
0000
,
0002
0000
2000
3003
,
0100
0000
1000
0000
0000
0110
0000
0000
,
0001
1000
0000
0010
0000
0100
0000
0001
,
0000
0100
0000
1000
0000
0100
0000
0010
,
1000
0100
0000
0001
0000
1000
0000
0001
,
0000
0010
0000
0100
0000
0010
0001
0000
,
0010
0100
0000
1000
0000
0001
0000
1000
,
0000
0010
0000
0100
0000
0010
0000
0001
,
0100
0010
0000
0001
0000
1000
0000
0000
,
0000
0010
0000
0010
,
0200
0010
0000
0010
,
0000
0000
0010
0000
0000
0000
0310
0001
,
0002
0010
0000
0010
,
0000
0013
0101
1001
,
2100
0001
0000
0001
,
0000
0000
0001
0000
0000
0000
3001
0100
,
0200
1000
0000
1300
,
0020
0000
0000
0030
,
1000
0001
0000
0010
0000
0100
0000
1000
,
0000
0100
0000
0001
0000
0100
0000
0010
,
0001
0100
0000
1000
0000
0001
0000
1000
,
0000
0010
0000
0100
0000
0010
1000
0000
,
0001
0100
0000
0010
0000
1000
0000
0001
,
0000
0100
0000
1000
0000
0100
0000
0010
,
1000
0100
0000
1000
0000
0001
0000
1000
,
0010
0100
0010
0000
,
1000
0100
0010
0000
0001
0000
1100
0000
,
0100
0010
0001
1000
,
0010
0100
1001
0110
,
0001
0000
0010
0000
0100
0000
1000
0001
,
0010
0100
0001
1010
,
0001
0000
1000
0000
0100
0010
0001
0000
,
0100
0010
1000
0001
,
0010
0010
0010
0000
,
0001
1000
0010
0000
0100
0000
1000
0000
,
0100
0010
0001
0000
0100
0000
0010
0000
,
0100
0010
1000
0000
0001
0010
1000
0000
,
0010
0100
1000
0001
,
0100
0010
0001
0000
1000
0000
0000
0000
,
0010
1000
0100
0000
0010
0000
0000
0000
,
0010
0001
1000
0000
0001
0010
1000
0000
,
0010
0001
1000
1001
,
0001
1000
0000
0100
0000
0010
0000
0001
,
0100
0010
0000
1000
0000
0100
0010
0000
,
0001
0100
0000
0001
0000
1000
0000
0010
,
0100
0001
0000
0010
0000
0100
0001
0000
,
0010
0000
1000
0000
0000
0000
1000
0001
,
0010
0000
1000
0000
0000
0000
1000
0010
,
0010
0001
0100
0001
,
0010
0100
1000
0000
0000
0010
0100
0000
,
2002
0000
0000
0000
,
0000
0000
0000
3003
,
0000
0000
0000
0000
;

//---------------dance-single - ----------------
#NOTES:
     dance-single:
     :
     Hard:
     10:
     :
0000
0000
0000
0000
,
0000
0000
0000
0000
,
0010
1000
0100
0000
0010
0000
0100
0000
,
1000
0100
0001
0000
0001
0100
1000
0000
,
0100
0010
1000
0000
0001
0000
0100
0000
,
0010
0001
0100
0000
0010
1000
0001
0000
,
0100
0000
0000
0000
0001
0100
1000
0000
,
0010
0000
0000
0000
1000
0100
0001
0000
,
1000
0010
0001
0000
0001
0010
1000
0000
,
0010
1000
0001
0010
0000
0110
0000
0000
,
1000
0001
1000
0100
0000
0010
0100
1000
,
0000
0010
0100
0001
0000
0010
0001
0100
,
0001
0010
0100
1000
0000
0001
0100
1000
,
0000
0100
0001
0010
0000
0100
1000
0000
,
0100
0010
0100
0001
0000
1000
0100
0001
,
0000
0100
1000
0010
0000
0100
0010
1000
,
0010
0100
0001
1000
0000
1001
0000
0000
,
0000
0100
0000
0100
,
0021
0100
0000
0100
,
0000
0000
0100
0000
0000
0000
0130
1000
,
1002
0100
0000
0100
,
0000
0103
1010
0110
,
0102
1000
0000
1000
,
0000
0000
1000
0000
0000
0000
1003
0010
,
0210
0001
0000
0001
,
0020
0000
0000
0330
,
0001
1000
0001
0010
0000
0100
0010
0001
,
0000
0100
0010
1000
0000
0100
1000
0010
,
1000
0100
0010
0001
0000
1000
0010
0001
,
0000
0010
1000
0100
0000
0010
0001
0000
,
1000
0010
0100
0010
0000
0001
0010
1000
,
0000
0010
0001
0100
0000
0010
0100
0001
,
0100
0010
1000
0001
0000
1000
0100
0001
,
0100
0010
0100
0000
,
0001
0010
0001
0100
0000
1100
0000
0101
,
0000
0010
0000
0100
0000
1000
0100
0001
,
0000
0100
1000
0010
0000
1001
0000
0110
,
0000
1000
0000
0100
0000
0010
0100
0000
,
0001
0100
0001
0010
0000
1010
0000
0101
,
0000
1000
0000
0001
0000
0010
0100
1000
,
0000
0010
0001
0100
0000
0001
0000
1000
,
0100
0010
0000
0100
0010
0000
0000
0000
0000
0000
0000
0000
0110
0000
0000
0000
,
1000
0001
0100
0000
0010
0100
0001
0000
,
0010
0100
1000
0000
0010
1000
0100
1000
,
0010
0100
0001
0000
1000
0100
0001
0000
,
0100
1000
0010
0100
0000
0001
1000
0000
,
0010
0100
1000
0000
0001
0100
1000
0000
,
0100
0001
0010
0000
0100
0010
0001
0010
,
0100
1000
0001
0000
1000
0100
0001
0000
,
0100
0000
1000
0000
0001
0000
1000
1000
,
1000
0001
1000
0100
0001
0010
0100
1000
,
0001
0100
0010
1000
0001
0010
0001
0100
,
0001
0010
0100
1000
0010
0001
0100
1000
,
0001
0100
0001
0010
0001
1000
0010
0001
,
0200
0001
0000
0001
0000
0001
0300
0001
,
0100
1000
0000
0101
0000
1100
0000
0110
,
0100
1000
0010
1000
,
0100
0010
0000
0001
1000
0000
0000
0000
0000
0010
0000
0000
0100
0000
0010
0000
,
2002
0000
0000
0000
,
0000
0000
0000
3003
,
0000
0000
0000
0000
;

//---------------dance-single - ----------------
#NOTES:
     dance-single:
     :
     Challenge:
     15:
     :
0000
0000
0000
0000
,
0000
0000
0000
0000
,
0000
0000
0000
0000
,
0000
0000
0000
0000
,
0000
0000
0000
0000
,
0000
0000
0000
0000
,
0010
0000
0001
0100
0000
0000
0010
1000
0000
0000
0100
0010
0000
0000
0001
1000
,
0000
0000
0001
0100
0000
0000
0001
0010
0000
0000
0100
1000
0000
0000
0010
1000
,
0010
0100
0001
0000
1000
0000
0001
0000
0020
0000
0000
0000
0000
0000
0000
0000
,
0230
0000
2300
0000
,
3001
0000
0100
0010
0100
0000
0001
0000
0010
0000
0100
1000
0100
0000
0010
0000
,
0001
0000
1000
0100
1000
0000
0001
0100
0001
0000
0010
0001
0100
0000
0010
1000
,
0100
0010
0001
0100
0010
0001
0010
1000
,
0100
1000
0001
0000
0100
0000
0010
0000
1000
0100
0010
0000
0001
0000
1000
0000
,
0010
1000
0100
0000
0001
0000
0100
0000
1000
0000
0100
0000
0010
0000
0001
0000
,
0100
0010
1000
0000
0010
0000
0001
0000
0010
0000
0100
0000
1000
0000
0100
0000
,
0001
0010
0100
0000
1000
0000
1010
0000
0000
0000
0101
0000
0000
0000
0011
0000
,
0000
0000
1000
0100
1000
0000
0001
0000
0000
0000
0100
0010
1000
0000
0001
0010
,
0100
1000
0010
1000
0010
1000
0010
1000
,
0010
1000
0010
1000
0010
1000
0010
0110
,
0110
0001
0100
0001
0100
0001
0100
0001
,
0100
0001
0100
0001
1001
0000
1001
0000
,
1001
0010
0100
0010
0100
0010
0100
0010
,
0100
0000
0010
0000
0100
0000
0010
0000
0100
0000
0010
0000
0100
0000
0010
1000
,
0001
0010
0100
1000
0020
0000
0000
0000
,
0230
0000
0302
0000
,
1003
0100
0010
0001
0100
0000
0010
0000
1000
0000
0001
1000
0100
0000
0010
0001
,
0100
0000
0010
0000
1000
0000
0100
0000
0010
0000
0001
1000
0010
0000
1000
0100
,
0010
0000
0001
0000
0100
0000
1000
0000
0100
0000
0001
0010
0001
0000
1000
0100
,
0010
0000
0001
0000
0100
0000
0010
1000
0001
0000
0100
0010
1000
0000
0100
0010
,
0001
1000
0010
0001
0010
0100
0010
0001
,
0010
0100
0010
0001
0010
1000
0100
1000
,
0001
1000
0010
0100
0002
0000
0000
0000
,
2003
0000
3200
0000
,
0310
0001
0100
0001
0010
0001
0100
0001
,
0000
1000
0100
0001
0000
1000
0010
0100
,
0001
0010
0100
0010
0001
0010
0100
0010
,
0000
0001
0010
1000
0000
0100
1000
0001
,
0100
0010
0100
0000
0001
0000
0010
0000
1000
0000
0010
0000
0001
0000
0100
0000
,
0010
0001
0010
1000
0010
0001
0010
0100
,
0001
0010
0001
1000
0001
0010
0001
1000
,
0010
1000
0000
1000
0010
0000
0100
0000
0001
1000
0000
0000
0010
0000
0100
0001
,
1000
0000
0100
0010
0000
0000
0001
1000
0000
0000
0010
1000
0000
0000
0100
0010
,
0000
0000
0001
1000
0000
0000
0001
0100
0000
0000
1000
0001
0000
0000
1000
0010
,
0000
0000
0100
0001
0100
0000
0010
0000
0000
0000
1000
0100
1000
0000
0001
0000
,
0000
0000
0010
0001
0010
0000
0100
0000
0000
0000
1000
0010
1000
0000
0001
0000
,
0100
0000
0010
0000
1000
0000
0100
0000
0001
0000
0100
0000
0010
0000
0001
1000
,
0010
0000
0100
0000
1000
0000
0100
0001
0010
0000
0100
0000
1000
0000
0001
0100
,
0010
1000
0100
0010
0002
0000
0000
0000
,
2003
0000
3020
0000
,
0130
0000
0001
0010
0001
0000
0010
0100
1000
0000
0010
1000
0001
0000
0100
0000
,
0010
0000
1000
0001
1000
0000
0010
1000
0100
0000
0010
0001
0010
0000
0001
0100
,
0010
1000
0001
0000
0010
0000
0100
0000
1000
0010
0100
0000
0001
0000
1000
0000
,
0010
0100
0001
0000
1000
0000
0100
0000
0010
0001
1000
0000
0010
0000
0100
0001
,
1000
0010
0100
0010
0100
0001
0100
0110
,
0110
0010
1000
1010
0000
0101
0000
0011
,
1100
0000
0001
0100
0001
0000
0010
0100
0000
0100
1000
0000
1000
0010
0100
0000
,
0001
1000
0000
1000
0001
0000
0010
0100
1000
0010
0000
0010
0100
0000
0001
2000
,
0002
0000
0000
0000
,
0000
0000
0000
0000
,
0000
0000
0000
0000
,
0000
0000
0000
0000
,
3003
0000
0000
0000
;

//---------------dance-double - ----------------
#NOTES:
     dance-double:
     :
     Easy:
     6:
     :
00000000
00000000
00000000
00000000
,
00000000
00000000
00000000
00000000
,
01000000
00100000
00001000
00000000
,
00000100
00000010
00000001
00000010
,
00001000
00010000
00001000
00000000
,
10000000
01000000
00100000
00010000
,
00100000
00010000
00001000
00000000
,
00001000
00000100
00000001
00000000
,
00000100
00001000
00100000
01000000
,
00010000
00000000
10000000
00000000
00000000
10010000
00000000
00000000
,
01000000
00010000
00001000
00000010
,
00000100
00000001
00000100
00001000
,
00000001
00001000
00010000
01000000
,
10000000
01000000
00100000
10000000
,
01000000
00100000
00010000
00001000
,
00000100
00010000
00000010
00010000
,
00001000
00000000
00000100
00000000
00000000
00001001
00000000
00000000
,
00000000
00001000
00000000
00001000
,
00020000
00001000
00000000
00001000
,
00000000
00001000
00000000
00031000
,
00200000
01000000
00000000
01000000
,
00000000
01300000
10010000
01100000
,
00012000
00010000
00000000
00010000
,
00000000
00010000
00000000
00013000
,
00000100
00000001
00000000
00000001
,
00002000
00000000
00000000
00003000
,
00000001
00000100
00000010
00000001
,
00000100
00001000
00010000
00100000
,
01000000
10000000
00100000
01000000
,
00010000
00001000
00000100
00000010
,
00000001
00000100
00000010
00000100
,
00000010
00010000
00001000
00100000
,
01000000
10000000
00100000
10000000
,
01000000
00010000
00011000
00000000
,
00001000
00000010
00000000
00000010
,
00000001
00000100
00000000
00000100
,
00001000
00010000
00000000
00010000
,
00010000
00100000
10000000
01000000
,
00010000
00001000
00000000
00001000
,
00000010
00000001
00000000
00000001
,
00000100
00001000
00000000
00001000
,
00010000
00001000
00000000
00011000
,
00000010
00000100
00001000
00000000
,
00010000
00100000
10000000
01000000
,
00100000
10000000
00010000
00000000
,
00100000
10000000
00010000
00001000
,
00000100
00001000
00000010
00000000
,
00000100
00000001
00000010
00000000
,
00010000
10000000
00100000
01000000
,
00010000
00001000
00011000
00000000
,
00000100
00001000
00010000
00100000
,
01000000
10000000
01000000
00010000
,
10000000
00010000
00001000
00000100
,
00000001
00000100
00000010
00000001
,
00000200
00001000
00000000
00001300
,
00020000
01000000
00000000
01030000
,
00100000
00010000
00000000
10000000
,
00100000
00010000
00000000
00001000
,
00022000
00000000
00000000
00000000
,
00000000
00000000
00000000
00033000
,
00000000
00000000
00000000
00000000
;

//---------------dance-double - ----------------
#NOTES:
     dance-double:
     :
     Medium:
     9:
     :
00000000
00000000
00000000
00000000
,
00000000
00000000
00000000
00000000
,
00000010
00000100
00010000
00001000
,
00100000
00010000
01000000
00000000
00110000
00000000
11000000
00000000
,
00010000
00001000
00010000
00000010
,
00000001
00000100
00000010
00000000
00000100
00000000
00000001
00000000
,
00000100
00000000
00001000
00000000
00010000
00000010
00001000
00000000
,
00010000
00000000
00100000
00000000
10000000
01000000
00010000
00000000
,
00100000
00010000
00000100
00000010
,
00001000
00000001
00000100
00000000
00000000
00000110
00000000
00000000
,
00001000
00010000
01000000
00000000
10000000
00000000
01000000
00000000
,
00100000
01000000
10000000
00000000
00100000
01000000
00010000
00000000
,
10000000
01000000
00010000
00000000
00001000
00000000
00000010
00000000
,
00000001
00001000
00000010
00000000
00000100
00000000
00001001
00000000
,
00000010
00010000
00000100
00000000
00001000
00000000
00010000
00000000
,
00100000
00001000
00010000
00000000
00100000
00010000
10000000
00000000
,
01000000
00010000
00100000
00000000
00000000
11000000
00000000
00000000
,
00000000
00010000
00000000
00010000
,
01002000
00010000
00000000
00010000
,
00000000
00000000
00010000
00000000
00000000
00000000
00013000
00000010
,
00000002
00000100
00000000
00000100
,
00000000
00000103
00001010
00011000
,
02010000
00100000
00000000
00100000
,
00000000
00000000
00100000
00000000
00000000
00000000
03100000
00010000
,
00001000
00000010
00000000
00000010
,
00000200
00000000
00000000
00000300
,
00000001
00000100
00000010
00000000
00000100
00000000
00000001
00000000
,
00000010
00000001
00001000
00000000
00000010
00010000
00001000
00000000
,
00100000
00010000
10000000
00000000
01000000
00000000
00100000
00000000
,
00010000
10000000
01000000
00000000
00100000
00010000
00001000
00000000
,
00000100
00010000
00000010
00000000
00000100
00000000
00000010
00000000
,
00001000
00000001
00000010
00000000
00000100
00010000
00001000
00000000
,
00000100
00000010
00001000
00000000
00010000
00000000
00001000
00000000
,
00000100
00010000
00011000
00000000
,
00010000
00000000
01000000
00100000
00000000
10000000
01000000
00000000
,
00010000
00001000
00000010
00001000
,
00010000
00000000
00000010
00000100
00000000
00000001
00000100
00000000
,
00001000
00000000
00000100
00000000
00000110
00000000
00000010
00001000
,
00010000
00000000
00100000
01000000
00000000
10000000
00100000
00000000
,
10000000
00010000
00100000
00010000
,
00001000
00000000
00000010
00000100
00000000
00000010
00000001
00000000
,
00000100
00010000
00000000
00011000
,
01000000
00010000
00100000
00000000
00010000
00000000
10000000
00000000
,
00100000
01000000
00010000
00001000
,
00000100
00000010
00000001
00000000
00001000
00000000
00000010
00000000
,
00000100
00000001
00001000
00000100
,
00000010
00000000
00001000
00010000
,
00100000
00000000
10000000
01000000
,
00010000
00001000
00000010
00000001
,
00000100
00001000
00011000
01000000
,
10000000
01000000
00100000
00000000
01000000
00000000
10000000
00000000
,
00100000
10000000
00010000
00000000
00100000
00001000
00010000
00000000
,
00000010
00001000
00000001
00000000
00000100
00000000
00000010
00000000
,
00001000
00000001
00000100
00000000
00000010
00001000
00010000
00000000
,
00000020
00000000
00001000
00000000
00000000
00000000
00001030
00010000
,
00100000
00000000
01000000
00100000
00000000
10010000
00000000
01000000
,
00100000
00000000
01000000
00000000
00000000
00100000
00010000
00000000
,
00001000
00000000
00000100
00000000
00000000
00001000
00000001
00000000
,
00000220
00000000
00000000
00000000
,
00000000
00000000
00000000
00000330
,
00000000
00000000
00000000
00000000
;

//---------------dance-double - ----------------
#NOTES:
     dance-double:
     :
     Hard:
     11:
     :
00000000
00000000
00000000
00000000
,
00000000
00000000
00000000
00000000
,
00100000
00010000
01000000
00000000
00001000
00010000
00000100
00000000
,
00001000
00000100
00000001
00000000
00001000
00000010
00000001
00000000
,
00000100
00000010
00010000
00000000
00001000
00010000
00100000
00000000
,
10000000
01000000
00100000
00000000
01000000
00001000
00010000
00000000
,
00000100
00000010
00001000
00000000
00010000
00000010
00001000
00000000
,
00000001
00000010
00000100
00000000
00000001
00000100
00001000
00000000
,
00010000
01000000
00100000
00000000
01000000
00010000
00100000
00000000
,
00010000
10000000
01000000
00000000
00000000
01100000
00000000
00000000
,
00010000
10000000
01000000
10000000
00010000
10000000
01000000
10000000
,
00010000
10000000
01000000
10000000
00100000
00010000
00001000
00000010
,
00000001
00000100
00000010
00000100
00000001
00000100
00000010
00000100
,
00000001
00000100
00000010
00000100
00000010
00010000
00001000
00100000
,
01000000
00010000
00001000
00010000
01000000
00010000
00001000
00010000
,
01000000
00010000
00001000
00010000
00000010
00001000
00000001
00000010
,
00000100
00001000
00000010
00000000
00000000
00000101
00000000
00000000
,
00000000
00001000
00000000
00001000
,
00020100
00001000
00000000
00001000
,
00000000
00000000
00001000
00000000
00000000
00000000
00031000
00100000
,
20010000
01000000
00000000
01000000
,
00000000
31000000
00101000
00010100
,
00000102
00001000
00000000
00001000
,
00000000
00000000
00001000
00000000
00000000
00000000
00001003
00000010
,
00011000
00100000
00000000
00100000
,
02000000
00000000
00000000
03000000
,
10000000
01000000
00100000
01000000
10000000
01000000
00100000
01000000
,
10000000
01000000
00100000
01000000
00010000
00001000
00000010
00000001
,
00001000
00000001
00000100
00000001
00001000
00000001
00000100
00000001
,
00001000
00000001
00000100
00000001
00000010
00000100
00010000
00001000
,
01000000
00001000
00100000
00001000
01000000
00001000
00100000
00001000
,
01000000
00001000
00100000
00001000
00010000
00100000
01000000
10000000
,
01000000
00100000
00010000
00100000
01000000
00100000
00010000
00100000
,
01000000
00000000
00001000
00000000
00011000
00000000
00000100
00000001
,
00001000
00000100
00000000
00000010
00000001
00000100
00000000
00001000
,
00010000
00100000
00000000
01000000
00001000
00100000
00000000
00010000
,
00100000
10000000
00000000
00010000
01000000
10000000
00000000
00010000
,
01000000
00001000
00000000
00010000
00000100
00001000
00000000
00000001
,
00001000
00000010
00000000
00000100
00000001
00000010
00000000
00001000
,
00010000
00100000
00000000
01000000
00010000
00100000
00000000
01000000
,
10000000
00010000
00000000
01000000
00100000
10000000
00000000
01000000
,
00010000
00001000
00000000
00010000
00001000
00000000
00000000
00000000
00000000
00000000
00000000
00000000
00011000
00000000
00000000
00000000
,
00000100
00001000
00000010
00000000
00010000
00000000
00100000
00000000
,
00010000
00100000
10000000
00000000
00010000
01000000
10000000
00000000
,
00100000
01000000
00001000
00000000
00010000
00000000
00000100
00000000
,
00000001
00000010
00000100
00000000
00000010
00010000
00001000
00000000
,
00100000
00000000
00000000
00000000
00001000
01000000
00010000
00000000
,
10000000
00000000
00000000
00000000
10000000
00100000
00010000
00000000
,
00001000
00000010
00000100
00000000
00000010
00001000
00000100
00000000
,
00001000
00000000
00000010
00000000
00000110
00000000
00000100
00000100
,
00001000
00000001
00000010
00000001
00001000
00000001
00000010
00000001
,
00001000
00000001
00000010
00000001
00000100
00001000
00010000
01000000
,
10000000
00100000
01000000
00100000
10000000
00100000
01000000
00100000
,
10000000
00100000
01000000
00100000
01000000
00001000
00010000
00000100
,
00000020
00001000
00000000
00001000
00000000
00001000
00000030
00001000
,
00010000
00100000
00000000
01100000
00000000
10010000
00000000
01100000
,
00100000
00000000
00000000
00000000
01000000
00000000
00000000
10000000
00000000
00000000
00100000
00000000
00010000
00000000
00000000
00000000
,
00001000
00000000
00000010
00000000
00000100
00000000
00000000
00000000
00000000
00001000
00000000
00000000
00000001
00000000
00000000
00000000
,
00000220
00000000
00000000
00000000
,
00000000
00000000
00000000
00000330
,
00000000
00000000
00000000
00000000
;
