#TITLE:The Remedy;
#SUBTITLE:(I Won't Worry);
#ARTIST:Jason Mraz;
#BANNER:The Remedy (I Won't Worry)-bn.png;
#BACKGROUND:The Remedy (I Won't Worry)-bg.png;
#JACKET:The Remedy (I Won't Worry)-jacket.png;
#MUSIC:The Remedy (I Won't Worry).ogg;
#SAMPLESTART:50.794;
#SAMPLELENGTH:20;
#DISPLAYBPM:95;
#BPMS:0=94.5;
#BGCHANGES:;

//---------------dance-single - ----------------
#NOTES:
     dance-single:
     :
     Beginner:
     2:
     :
0000
0000
0000
0000
,
0000
0000
0000
0000
,
0000
0000
0000
0000
,
0000
0000
0000
0000
,
0010
0000
0010
0000
,
1000
0000
0001
0000
,
0100
0000
0010
0000
,
1000
0000
1001
0000
,
0010
0000
0010
0000
,
1000
0000
1000
0000
,
0001
0000
1000
0000
,
1001
0000
0000
0000
,
0010
0000
0010
0000
,
1000
0000
0001
0000
,
0100
0000
0100
0000
,
0001
0000
1000
0000
,
0001
0001
0001
0000
,
1000
1000
1000
0000
,
0010
0010
0010
0000
,
0110
0000
0000
0000
,
2002
0000
0000
0000
,
3003
0000
0000
0000
,
1000
1000
1000
0000
,
0001
0000
0100
0000
,
2002
0000
0000
0000
,
3003
0000
0000
0000
,
0010
0010
0010
0000
,
1000
0000
0100
0000
,
1000
0000
0000
0000
,
0001
0000
0000
0000
,
0010
0000
0000
0000
,
0001
0000
0000
0000
,
0100
0000
0000
0000
,
0010
0000
0000
0000
,
1000
0000
0000
0000
,
0110
0000
0000
0000
,
1000
0000
1000
0000
,
0010
0000
0100
0000
,
0001
0000
0001
0000
,
0010
0000
0100
0000
,
1000
1000
1000
0000
,
0001
0001
0001
0000
,
0100
0100
0100
0000
,
0110
0000
0000
0000
,
2002
0000
0000
0000
,
0000
0000
0000
0000
,
3003
0000
0000
0000
;

//---------------dance-single - ----------------
#NOTES:
     dance-single:
     :
     Easy:
     5:
     :
0000
0000
0000
0000
,
0000
0000
0000
0000
,
0000
0000
0000
0000
,
0000
0000
0000
0000
,
0010
1000
0001
0000
,
1000
0100
1000
0010
,
0100
0001
1000
0110
,
1000
0001
1001
0000
,
0010
0010
1000
1000
,
0001
0001
0100
0100
,
0101
0000
1100
0000
,
0010
0010
0010
0100
,
0110
0000
1001
0000
,
0010
1000
0100
0001
,
0011
0000
1100
0000
,
0001
0010
0001
0100
,
1000
1000
0001
0000
,
0010
0001
0010
0100
,
1000
1000
1000
0000
,
0001
0001
1000
0100
,
2002
0000
0000
0000
,
3003
0000
1000
0001
,
1000
0010
0100
0001
,
0010
0010
0100
0000
,
2002
0000
0000
0000
,
3003
0000
0010
1000
,
0010
0100
0010
1000
,
0001
0001
0100
0000
,
0110
0000
1000
0001
,
0100
0000
0001
0010
,
1000
0000
0100
1000
,
0010
1000
0100
0001
,
0101
0000
0001
0010
,
1000
0000
0100
1000
,
0001
0000
0100
0010
,
0220
0000
0000
0330
,
1001
0000
0110
0000
,
1000
0100
0001
0010
,
0011
0000
1100
0000
,
0010
1000
0100
0001
,
0010
0010
0010
0000
,
0001
0100
1000
0010
,
0100
0100
0100
0000
,
0001
0001
1000
0100
,
2002
0000
0000
0000
,
0000
0000
0000
0000
,
3003
0000
0000
0000
;

//---------------dance-single - ----------------
#NOTES:
     dance-single:
     :
     Medium:
     9:
     :
0000
0000
0000
0000
,
0000
0000
0000
0000
,
0000
0000
0000
0000
,
0000
0000
0000
0000
0000
0000
0000
0000
0000
0000
0000
0001
0000
1000
0000
0001
,
0000
0100
0010
1000
0010
0100
0001
0000
,
1000
0100
0010
0000
0001
0100
1000
0000
,
0001
0000
0010
0000
0001
0000
0100
0000
1000
0000
0010
0100
0010
0000
0000
0000
,
1000
0100
1000
0001
1001
0000
0000
0010
,
0001
0100
0101
0000
1000
0100
1100
0000
,
0010
0100
0110
0000
1000
0001
0100
0010
,
1000
1000
0000
0001
0010
0100
0000
1000
,
0001
0100
0001
0010
0001
0100
1000
0000
,
0010
0100
0010
0000
0000
0000
0000
0000
1000
0001
1000
0000
0000
0000
0000
0000
,
0001
0010
0001
0100
1000
0010
0001
0000
,
1000
0100
1000
0000
0000
0000
0000
0000
0001
0100
0001
0000
0000
0000
0000
0000
,
0010
0001
0010
0100
1000
0010
0001
0000
,
1000
0010
1000
0001
0010
0100
1000
0000
,
0001
0100
0001
0010
1000
0001
0100
0000
,
0010
0000
1000
0000
0100
0000
1000
0000
0002
0000
0000
0000
0003
0000
0010
0001
,
0100
0000
0000
0000
0100
0000
0000
0000
0001
0000
0000
1000
0000
0000
0100
0000
,
2002
0000
0000
0000
3000
0000
1003
0100
,
0001
0000
0000
0000
0001
0010
0001
0000
1000
0000
0010
0000
1000
0000
0001
0000
,
0000
0101
0000
1100
0000
0000
2000
3002
,
0103
0000
0001
1000
0100
0020
0000
0031
,
2002
0000
0000
0000
0003
0000
3001
1000
,
0010
0000
0000
0000
0100
0001
0100
0000
0010
0000
1000
0000
0001
0000
0010
0000
,
0000
0011
0000
1100
0000
0000
2000
3002
,
0103
0000
0010
1000
0001
0200
0000
0310
,
0110
0000
0000
1000
0100
1000
0001
0200
,
0000
0000
0300
0000
0001
0010
0001
2000
,
0000
3001
0000
1000
0010
0100
0010
1000
,
0000
0001
0010
0100
0000
1000
0010
0200
,
0000
0301
0000
1000
0100
1000
0001
0020
,
0000
0130
0000
0010
0001
0100
1000
0002
,
0000
1003
0000
0010
1000
0100
1000
2020
,
0000
0000
0000
0030
0000
0001
3000
1000
,
0010
0100
0010
0000
0000
0000
0000
0000
1000
0001
1000
0000
0000
0000
0000
0000
,
0001
0010
0001
0100
1000
0010
0100
0000
,
0001
0010
0001
0000
0000
0000
0000
0000
1000
0010
1000
0000
0000
0000
0000
0000
,
0100
0010
0100
1000
0010
0001
0100
0000
,
0001
0010
0001
1000
0010
0101
0000
0000
,
1000
0100
1000
0010
0100
0001
1000
0010
,
1000
0100
0000
0010
0000
0001
0100
0000
0020
0000
0000
0000
0030
0000
1000
0001
,
1000
0000
0000
0000
1000
0000
0000
0000
0010
0000
0000
0100
0000
0000
0001
0000
,
2002
0000
0000
0000
,
0000
0000
0000
0000
,
3003
0000
0000
0000
;

//---------------dance-single - ----------------
#NOTES:
     dance-single:
     :
     Hard:
     12:
     :
0000
0000
0000
0000
,
0000
0000
0000
0000
,
0000
0000
0000
0000
,
0000
0000
0000
0000
0000
0000
0000
0000
0000
0000
0000
0011
0000
0110
0000
1100
,
0000
0000
0010
0000
0100
0000
0010
1000
0000
0001
1000
0000
0100
0000
0010
0000
,
0001
0000
0100
0000
0001
0000
0010
0000
1000
0100
0010
0100
1000
0000
0001
0000
,
0100
0000
0010
0000
1000
0001
1000
0010
0000
0000
0100
0001
1000
0000
0000
0000
,
0001
0010
0001
0010
0100
1000
0001
0000
1001
0000
0000
0000
0000
0010
1000
0010
,
0000
0100
0001
0000
0011
0000
0100
0000
1000
0010
1000
0000
1010
0000
0100
0001
,
0000
0001
0100
0000
0110
0000
0010
0000
1000
0001
0100
0000
0010
1000
0001
0000
,
0011
0000
1100
0000
0000
0010
1000
0001
0000
1000
0100
0000
0000
0000
0010
0001
,
0010
0100
0000
0010
0100
0000
1000
0001
0000
0110
0000
0001
0010
0100
1000
0010
,
0100
0001
1000
0000
0000
0010
1000
0010
0100
0001
1000
0000
0000
0001
0010
0100
,
1000
0010
1000
0001
0010
0100
1000
0001
,
0010
0100
0010
0000
0000
0001
0100
0010
1000
0001
1000
0000
0000
0010
0100
0001
,
0100
0000
0010
0000
1000
0000
0001
0000
0010
0000
0100
0000
1000
0010
0100
0001
,
1000
0000
0100
0000
1000
0010
0100
0001
0000
0101
0000
0000
0000
0000
0010
1000
,
0000
0100
1000
0001
0000
1000
0010
0100
0000
0001
0000
0000
0010
0001
0000
0001
,
1000
0000
0010
1000
0000
1000
0001
0000
1010
0000
0100
0000
0001
0000
1000
0100
,
1000
0000
0000
1000
0001
0000
0000
0001
1000
0000
0001
0100
0000
0010
1000
0000
,
2001
0000
0100
0001
0001
0100
3001
1000
,
0010
1000
0000
0010
1000
0001
0100
0000
0001
0000
0010
0000
0100
0000
1000
0000
,
0010
0000
1010
0000
0001
0000
0101
0000
1000
0000
0000
0000
0001
0010
0100
1000
,
0001
0000
0000
0000
1000
0010
0100
0001
1000
0000
1100
0000
0001
0000
0100
0000
,
1002
0000
0010
1000
1000
0010
1003
0001
,
0010
0100
0000
0010
0001
1000
0100
0000
1000
0000
0010
0000
0100
0000
0001
0000
,
0010
0000
0011
0000
0100
0000
1100
0000
0001
0000
0000
0000
1000
0001
0100
0010
,
1000
0000
0000
0000
0001
0010
0100
1000
0001
0000
0110
0000
1000
0000
0001
0100
,
0001
0000
0000
0000
0010
0000
0001
1000
0001
0000
0100
0000
0010
0000
1000
0000
,
0100
0001
0100
1000
0010
0100
0010
1000
,
0001
0100
1000
0100
0001
1000
0010
0100
,
0001
0010
0001
0100
1000
0010
1000
0100
,
0010
0000
0001
0000
0100
0000
0010
1000
0010
0000
0100
0000
0001
0000
1000
0000
,
0100
0000
0010
0000
0001
1000
0001
0000
0100
0000
0010
0000
1000
0000
0001
0000
,
1000
0000
0100
0000
0001
0000
0100
1000
0010
0000
0100
0000
0001
0000
1000
0000
,
0020
0000
0100
0000
0100
0000
0130
0000
0001
1000
0010
0100
0001
0010
0100
1000
,
0001
0100
0001
0000
0000
1000
0010
0100
0010
1000
0001
0000
0000
0010
0001
0010
,
0100
1000
0010
1000
0001
0010
0001
0100
,
1000
0010
1000
0000
0000
0100
0010
0001
0100
0001
0100
0000
0000
0001
1000
0001
,
0010
0000
0001
0000
0100
0000
0010
0000
1000
0000
0100
0000
1000
0000
0001
0100
,
0001
0010
0100
1000
0010
0100
0001
1000
0000
1010
0000
0000
0000
0000
0010
1000
,
0000
0001
1000
0100
0000
0010
0001
0100
0000
1001
0000
0000
0010
1000
0000
0100
,
1000
0001
0000
0100
0000
0010
0100
0000
0101
0000
1000
0000
0001
0000
0010
0100
,
1000
0000
0000
1000
0001
0000
0000
0001
1000
0000
0001
0100
0000
0010
1000
0000
,
2002
0000
0000
0000
,
0000
0000
0000
0000
,
3003
0000
0000
0000
;

//---------------dance-single - ----------------
#NOTES:
     dance-single:
     :
     Challenge:
     14:
     :
0000
0000
0000
0000
,
0000
0000
0000
0000
,
0000
0000
0000
0000
,
0000
0000
0000
0000
0000
0000
0000
0000
0000
0000
0000
0011
0000
0110
0000
1100
,
0000
0000
0010
0000
1000
0000
0100
0010
0000
0010
0001
0000
0000
1000
0010
1000
,
0000
0001
0000
0010
0000
0001
0100
0010
1000
0100
0001
0100
1000
0100
0001
0100
,
1000
0000
0010
0100
0010
1000
0100
0010
0000
0000
0001
1000
0110
0000
0000
0010
,
1000
0100
0010
0100
0010
0001
1000
0000
1001
0000
1010
0000
0000
0100
0001
0100
,
0000
0001
0010
0100
0010
0001
0100
0001
0010
0100
0010
1000
0010
1000
0010
0001
,
0000
0100
0010
0100
1000
0100
0001
0010
0100
0001
0100
1000
0100
0001
0100
1000
,
0010
0000
0101
0000
0000
1000
0010
0100
0000
0001
1000
0000
0010
0000
0100
0001
,
1000
1000
0000
0001
0001
0000
1000
0100
0000
1001
0000
1000
0010
0100
0010
1000
,
0001
0010
0100
0000
0000
1000
0010
1000
0100
0010
0001
0000
0000
1000
0001
1000
,
0010
0000
0100
0001
0000
0011
0000
0110
0000
1100
0000
1001
0000
0101
0000
0010
,
1000
0100
0001
0000
0000
0001
0010
0001
1000
0100
0010
0000
0000
0001
1000
0001
,
0100
0000
0010
1000
0000
1010
0000
1100
0000
0110
0000
0011
0000
0100
0001
0010
,
0100
0001
0100
1000
0010
0100
0010
1000
0000
0001
1000
0000
0101
0000
0010
1000
,
0000
1000
0100
0010
0000
0001
1000
0001
0000
0010
0000
0000
0100
1000
0000
1000
,
0001
0000
0010
0100
0000
0010
0001
0000
1000
0010
0100
0000
0110
0000
0001
1000
,
1010
0000
0000
0001
1000
0000
0000
0001
0010
0100
1000
0010
1000
0001
0100
0000
,
1001
0000
0000
0000
1010
0000
1000
0010
0000
0100
0001
0000
0020
0000
0230
0000
,
1300
0010
0000
1000
0001
0010
0100
0000
1000
0010
1000
0000
0001
0000
0200
0000
,
0310
0000
2000
0000
3001
0000
0010
0100
1000
0001
0100
0000
0101
0000
1100
0000
,
0010
0100
0000
0100
0001
0010
1000
0010
0001
0000
1000
0100
0001
0100
1000
0000
,
1001
0000
0010
1000
0000
1000
0100
0000
0100
0010
0000
0010
0001
0000
1000
0000
,
0010
1000
0000
0010
1000
0100
0001
0000
0010
0001
0100
0000
0010
0000
2000
0000
,
3100
0000
0020
0000
0031
0000
0100
0001
1000
0010
0100
0000
1010
0000
0101
0000
,
0010
0001
0000
0001
1000
0010
0100
0010
1000
0100
0001
0100
0010
0100
0001
0100
,
1100
0000
0001
0000
0100
0000
1000
0010
0001
0000
1000
0000
0001
0000
0100
0001
,
0100
0010
0100
0000
0001
0000
1000
0100
0010
0000
0001
0000
0100
0000
1000
0000
,
0010
0000
1000
0000
0100
0000
0001
0000
0010
0000
0001
0000
1000
0000
0010
0100
,
0001
0000
0010
0000
0001
0100
0010
1000
0001
0000
0010
0000
1000
0000
0100
0000
,
0011
0000
1000
0000
0001
0000
0010
0100
1000
0000
0010
0000
0100
0000
0001
1000
,
0001
0000
0010
0000
1000
0100
1000
0000
0010
0000
0100
0000
0001
0000
1000
0000
,
0010
0000
0100
0001
1000
0000
0010
1000
0100
0000
0010
0000
0001
0000
0102
0000
,
1000
0000
1000
0000
1000
0000
1003
0010
1000
0100
0010
0100
0001
0100
1000
0010
,
0100
0001
1000
0000
0000
0001
0010
0100
1000
0010
0100
0000
0000
0001
0010
0100
,
1000
0000
0010
1000
0000
1001
0000
0011
0000
0110
0000
1100
0000
0101
0000
1000
,
0001
0010
0100
0000
0000
1000
0010
1000
0100
0001
0010
0000
0000
0100
0010
0001
,
1000
0000
0001
0010
0000
0011
0000
1010
0000
1100
0000
0101
0000
1000
0001
0010
,
0100
0001
0100
1000
0010
0100
0010
1000
0000
0001
1000
0000
0110
0000
1000
0001
,
0000
0010
0001
0100
0000
0001
0010
0100
0000
1000
0001
0000
1000
1000
0000
0010
,
1000
0100
0010
0001
0100
0010
1000
0001
0010
0100
1000
0000
0001
0000
0100
0010
,
1010
0000
0000
0001
1000
0010
0000
1000
0100
0010
1000
0010
0001
0100
0010
1000
,
2002
0000
0000
0000
,
0000
0000
0000
0000
,
3003
0000
0000
0000
;
