#TITLE:RINGO TO HACHIMITSU;
#SUBTITLE:;
#ARTIST:ANETTAI MAJI-SKA BAKUDAN feat. MAKI;
#TITLETRANSLIT:;
#SUBTITLETRANSLIT:;
#ARTISTTRANSLIT:;
#GENRE:;
#CREDIT:;
#BANNER:RINGO TO HACHIMITSU-bn.png;
#BACKGROUND:RINGO TO HACHIMITSU-bg.png;
#LYRICSPATH:;
#CDTITLE:;
#MUSIC:RINGO TO HACHIMITSU.ogg;
#OFFSET:0.555556;
#SAMPLESTART:57.541000;
#SAMPLELENGTH:20.000000;
#SELECTABLE:YES;
#DISPLAYBPM:142.000000:210.000000;
#BPMS:0.000000=142.011993
,8.000000=210.000000
,64.000000=190.000000
,72.000000=210.000000
,256.000000=200.000000
,264.000000=210.000000
,320.000000=200.000000
,332.000000=160.000000
;
#STOPS:
;
#BGCHANGES:;
#KEYSOUNDS:;
#ATTACKS:;

//---------------dance-single - ----------------
#NOTES:
     dance-single:
     :
     Hard:
     13:
     0.682416,0.724170,0.295479,0.571260,1.122821,485.000000,455.000000,30.000000,58.000000,0.000000,0.000000,0.682416,0.724170,0.295479,0.571260,1.122821,485.000000,455.000000,30.000000,58.000000,0.000000,0.000000:
0000
0000
0000
0000
,
0000
0000
0000
0000
,
0010
0000
1000
0000
0000
0001
0200
0000
0000
0300
0000
0010
,
1000
0000
0000
1000
0000
0000
1000
0000
0100
1000
0000
0001
,
0020
0000
0000
0000
0000
0200
0000
0000
0000
0030
0000
0000
,
0300
0000
1000
0010
0000
0010
1000
0000
1000
0001
0000
0001
,
0000
0000
0100
0000
0000
0010
2000
0000
0000
3000
0000
0001
,
1000
0000
0000
1000
0000
0000
1000
0000
0010
0100
0000
0010
,
2000
0000
0000
0000
0000
0002
0000
0000
0000
3000
0000
0000
,
0013
0000
0001
0010
0000
0100
1000
0000
0010
1000
0000
0001
,
0000
0000
0100
0000
0000
0001
0020
0000
0000
0030
0000
0100
,
1000
0000
0000
1000
0000
0000
1000
0000
0001
1000
0000
0010
,
0200
0000
0000
0000
0000
0002
0000
0000
0000
0300
0000
0000
,
0013
0000
0000
0001
0000
1000
0001
0000
0100
0010
0000
1000
,
0100
0000
0010
0000
0000
0001
2000
0000
0000
3000
0000
0001
,
0100
0000
0000
0100
0000
0000
0100
0000
0010
1000
0000
0001
,
1000
0000
1000
0000
1000
0000
0000
0000
0001
0000
0100
0000
,
0110
0000
1001
0000
,
0010
0000
1000
0001
0000
1000
0001
0000
0000
0010
0000
0100
,
1000
0000
0000
0010
0000
0100
0001
0000
1000
0000
0000
0001
,
0010
0000
0000
0001
0000
0100
0010
0000
1000
0001
0000
1000
,
0000
0000
1100
0000
0000
0101
0000
0000
0010
1000
0000
0002
,
0000
0000
0013
0001
0000
0100
0001
0000
0100
0000
0000
0010
,
1000
0000
0001
1000
0000
0010
0100
0000
0001
1000
0000
0200
,
0000
0000
1300
0100
0000
0100
0010
0000
0010
0001
0000
1000
,
0001
0000
0012
0000
0000
0000
1003
0000
1020
0000
0000
0000
,
0130
0000
0001
1000
0000
0001
1000
0000
0000
0100
0000
0100
,
0010
0000
0000
0001
0000
0100
0001
0000
1000
0000
0000
0010
,
1000
0000
0100
0010
0000
0001
0100
0000
0010
0100
0000
0001
,
0000
0000
1000
0001
0000
0010
0001
0000
0010
0100
0000
2000
,
0000
0000
3010
0100
0000
0010
1000
0000
0001
0000
0000
0020
,
0000
0000
0130
0010
0000
0010
0001
0000
1000
0001
0000
0100
,
0000
0000
0010
1000
0000
0010
0000
0000
0100
0001
0000
1000
,
0010
0000
1000
0020
0000
0200
0000
0030
0000
0301
1000
0001
,
1000
0000
0000
1100
0000
0000
0022
0000
0000
0030
0000
1000
,
0000
0000
1000
0000
0000
1003
0001
0000
0000
0100
0000
0010
,
1000
0000
0000
1000
0000
0000
0001
0000
0100
0001
0000
0010
,
0200
0000
0000
0000
0000
2300
0000
0000
0000
3001
0000
0000
,
1001
0000
0000
1010
0000
0000
2200
0000
0000
0300
0000
0010
,
0000
0000
0010
0000
0000
3010
1000
0000
0000
0001
0000
0100
,
0001
0000
0000
0110
0000
0000
0001
0000
1000
0001
0000
1000
,
0200
0000
0000
0310
0000
0002
0000
0000
0000
1003
0000
0000
,
0101
0000
0000
0011
0000
0000
2002
0000
0000
3000
0000
0010
,
0000
0000
0010
0000
0000
0013
0001
0000
0000
1000
0000
0010
,
1000
0000
0000
1100
0000
0000
0001
0000
0100
0010
0000
1000
,
0002
0000
0000
0013
0000
0002
0000
0000
1003
0200
0000
0000
,
0310
0000
0001
1000
0000
0001
0100
0000
0010
1000
0000
0001
,
0000
0000
0020
0000
0000
0000
0031
0000
1000
0000
0001
0000
,
0100
0000
0100
0000
0100
0000
0100
0000
0100
0000
0100
0000
,
0110
0000
0000
0000
0000
0000
1001
0000
1000
0001
0000
0000
,
0200
0000
1000
0000
0000
0001
0000
0000
0310
0100
0000
0001
,
1000
0000
1000
0100
0000
0100
0010
0000
0010
0001
0000
0000
,
0101
0000
0000
1100
0000
0000
0010
0000
1000
0010
0000
0100
,
0002
0023
0230
2300
,
3001
0000
0000
1020
0000
0000
0130
0000
0001
1000
0000
0000
,
2100
0000
0000
3010
0000
0000
1000
0000
0001
0100
0000
0010
,
0200
0000
0000
0301
0000
0000
1000
0000
0001
1000
0000
0100
,
0010
0000
0001
0100
0000
0010
1000
0000
0001
0100
0000
0000
,
0002
0000
0010
0000
0000
1000
0000
0000
0103
0001
0000
1000
,
0100
0000
0100
0010
0000
0010
0001
0000
1000
0001
0000
0000
,
0011
0000
0000
1100
0000
0000
0010
0000
0100
0001
0000
1000
,
0002
0023
0230
2300
,
3001
0201
0010
1300
,
0110
0001
1000
0100
,
0010
0000
0010
0000
0010
0000
0000
0000
0001
0000
1000
0000
,
1001
0000
0000
0000
0000
0000
0110
0000
0000
0000
0000
0100
,
0001
0000
0000
0010
0000
0001
1000
0000
0010
1000
0000
0010
,
0000
0000
0100
0001
0000
0100
0001
0000
1000
0000
0000
0010
,
0100
0000
0001
1000
0000
0001
0000
0000
0010
0000
0000
0100
,
0000
0000
1000
0000
0000
0010
0000
0000
1000
0000
0000
0001
,
0100
0000
0010
0000
1000
0000
0001
0000
0010
0000
0001
0000
,
1000
0000
0010
0000
1000
0000
0000
0000
0002
0000
0000
0000
,
0013
0000
0000
0200
0000
0000
1300
0000
1000
0001
0000
0001
,
1000
0000
0010
0100
0000
0001
1000
0000
0010
0100
0010
0100
,
0020
0000
1000
0000
0000
0100
0000
0000
1030
0001
0000
0001
,
2000
0000
0000
0010
0000
0000
3001
0000
1000
0000
0100
0000
,
0000
0000
0020
0000
0000
0032
0000
0000
2003
0000
0000
3010
,
0000
0000
1000
0000
0000
0100
0000
0000
0010
0000
0000
0001
,
0000
0000
0000
1000
0010
1000
0010
0000
0100
0000
0001
0000
,
2000
0000
0002
3003
,
0010
0000
0001
0000
0100
0000
0000
0000
0010
0000
1000
0000
,
0001
0000
1000
0000
0010
0000
0000
0000
0100
0000
0001
0000
,
0010
0000
0100
0000
1000
0000
0000
0000
0001
0000
1000
0000
,
1100
0000
0000
0000
0022
0000
0000
0030
,
0000
0000
1000
0000
0000
0000
0000
0000
0000
1000
0000
0000
0000
1000
0000
0000
0000
1000
0000
0000
0000
1000
0000
0000
,
0000
0000
1000
0000
0000
0000
0000
0000
0000
0000
1000
0000
0000
0000
0000
0000
0000
0000
1000
0000
0000
0000
0000
0000
1003
0000
0000
0001
0000
0000
1000
0000
0000
0001
0000
0000
1000
0000
0000
0001
0000
0000
1000
0000
0000
0001
0000
0000
,
0200
0000
0300
0000
;

//---------------dance-single - ----------------
#NOTES:
     dance-single:
     :
     Medium:
     10:
     0.513571,0.596375,0.374274,0.571260,0.758397,365.000000,327.000000,38.000000,58.000000,0.000000,0.000000,0.513571,0.596375,0.374274,0.571260,0.758397,365.000000,327.000000,38.000000,58.000000,0.000000,0.000000:
0000
0000
0000
0000
,
0000
0000
0000
0000
,
0010
0000
1000
0000
0000
0001
0200
0000
0000
0300
0000
0010
,
1000
0000
0000
1000
0000
0000
1000
0000
0001
1000
0000
0001
,
0200
0000
0000
0000
0000
0020
0000
0000
0000
0000
0000
0000
,
0000
0000
0330
0000
,
0000
0000
1000
0000
0000
0001
0200
0000
0000
0300
0000
0010
,
1000
0000
0000
1000
0000
0000
1000
0000
0100
1000
0000
0100
,
0020
0000
0000
0000
0000
0002
0000
0000
0000
0000
0000
0000
,
0000
0000
0033
0000
,
0000
0000
0100
0000
0000
0001
2000
0000
0000
3000
0000
0010
,
0100
0000
0000
0100
0000
0000
0100
0000
0001
0100
0000
0001
,
2000
0000
0000
0000
0000
0002
0000
0000
0000
0000
0000
0000
,
0000
0000
3003
0000
,
0000
0000
0010
0000
0000
0001
0200
0000
0000
0300
0000
0010
,
1000
0000
0000
1000
0000
0000
1000
0000
0010
1000
0000
0010
,
1000
0000
0001
0000
1000
0000
0000
0000
0010
0000
0100
0000
,
0010
0000
0110
0000
,
0001
0000
1000
0010
0000
1000
0001
0000
0000
0010
0000
0010
,
0100
0000
0000
1000
0000
0010
1000
0000
0001
0000
0000
0101
,
0000
0000
0010
1000
0000
0100
0000
0000
0000
1000
0000
0001
,
0000
0000
1000
0000
0000
0000
0000
0000
0010
1000
0000
0200
,
0000
0000
0000
0300
,
0000
0000
1000
0010
0000
1000
0010
0000
0100
0001
0000
2000
,
0000
0000
0000
3000
,
0001
0000
0020
0000
0000
0000
0031
0000
0200
0000
0000
0000
,
0300
0000
0010
1000
0000
0001
1000
0000
0000
0100
0000
0100
,
0010
0000
0000
0001
0000
0100
0001
0000
1000
0000
0000
1010
,
0000
0000
0000
0010
0000
1000
0000
0000
0001
1000
0000
0100
,
0000
0000
0011
0000
0000
0000
0000
0000
1000
0001
0000
0200
,
0000
0000
0000
0300
,
0000
0000
0100
0010
0000
0010
1000
0000
0001
1000
0000
0100
,
0000
0000
0020
0000
0000
0000
0000
0000
0031
1000
0000
0001
,
0200
0000
0000
0000
0000
0020
0000
0000
0000
0330
0000
0000
,
0101
0000
0000
0101
0000
0000
0101
0000
0000
0000
0000
1000
,
0000
0000
0001
0000
0000
1000
0010
0000
0000
0100
0000
0000
,
1001
0000
0000
0110
0000
0000
1001
0000
0000
0010
0000
0100
,
0002
0000
0000
0000
0000
2003
0000
0000
0000
3100
0000
0000
,
1100
0000
0000
1100
0000
0000
1100
0000
0000
0000
0000
0010
,
0000
0000
0100
0000
0000
0010
0100
0000
0000
0001
0000
0000
,
0110
0000
0000
1001
0000
0000
0110
0000
0000
0001
0000
1000
,
0002
0000
0000
0103
0000
0020
0000
0000
0000
0030
0000
0000
,
1010
0000
0000
1010
0000
0000
1010
0000
0000
0000
0000
0001
,
0000
0000
0010
0000
0000
0001
1000
0000
0000
0010
0000
0000
,
0101
0000
0000
1001
0000
0000
1100
0000
0000
0010
0000
1000
,
0200
0000
0000
0000
0000
0320
0000
0000
0000
0031
0000
0000
,
0011
0011
1100
1100
,
0000
0000
0002
0000
0000
0000
1003
0000
0100
0000
0010
0000
,
0001
0000
1000
0000
0001
0000
1000
0000
0001
0000
1000
0000
,
0200
0000
0000
0000
0000
0000
0300
0000
1000
0001
0000
0000
,
2020
0000
0000
0000
0000
0000
0030
0000
0000
3010
0000
0100
,
0001
0000
0100
0001
0000
1000
0000
0000
0001
0100
0000
0000
,
0010
0000
0000
0010
0000
0000
1000
0000
0001
0000
0000
0100
,
0002
0023
0230
2300
,
3001
0000
0000
1001
0000
0000
0000
0000
0100
0010
0000
0000
,
0110
0000
0000
0000
0000
0001
1000
0000
0001
0100
0000
0000
,
0202
0000
0000
0300
0000
0000
1003
0000
0001
0000
0000
1000
,
0000
0000
0010
0000
0000
0100
0000
0000
0010
1000
0000
0000
,
2200
0000
0000
0000
0000
0000
3000
0000
0000
0310
0000
0001
,
0100
0000
0000
0010
0000
1000
0000
0000
0001
1000
0000
0000
,
0110
0000
0000
0110
0000
0000
1000
0000
0001
0000
0000
0100
,
0002
0023
0230
2300
,
3001
0022
0030
1000
,
0010
1000
0010
0103
,
0001
0000
1000
0000
0001
0000
0000
0000
0100
0000
0010
0000
,
0100
0000
0000
0000
0000
0000
1001
0000
0000
0000
0000
1000
,
0001
0000
0000
0010
0000
0200
0000
0000
0000
0000
0000
0000
,
0300
0000
1000
0010
0000
1000
0010
0000
0100
0000
0000
0001
,
1000
0000
0001
1000
0000
0200
0000
0000
0000
0000
0000
0000
,
0000
0000
0300
0000
,
1000
0000
0010
0000
1000
0000
0001
0000
0010
0000
0001
0000
,
0100
0000
0010
0000
2000
0000
0000
0000
0002
0000
3000
0000
,
0000
0000
0000
0013
0000
0000
0001
0000
1000
0001
0000
0100
,
0010
0000
1000
0010
0000
0100
0001
0000
0000
1010
0000
0000
,
0202
0000
0300
2003
,
0002
0000
0000
3003
0000
0000
0010
0000
0100
0000
1000
0000
,
0000
0000
0020
0000
0000
2030
0000
0000
3002
0000
0000
0000
,
0000
0000
0000
0003
,
0000
0000
0000
0010
0000
0001
1000
0000
0010
0000
0100
0000
,
0002
0000
2000
3003
,
0010
0000
1000
0000
0001
0000
0000
0000
1000
0000
0100
0000
,
0010
0000
0100
0000
1000
0000
0000
0000
0001
0000
1000
0000
,
0100
0000
1000
0000
0001
0000
0000
0000
1000
0000
0001
0000
,
0100
0000
0220
0000
,
0000
0000
0000
0000
,
0000
0000
0000
0300
0000
0000
1030
0001
1000
0001
1000
0001
,
0200
0000
0300
0000
;

//---------------dance-single - ----------------
#NOTES:
     dance-single:
     :
     Easy:
     7:
     0.371460,0.425982,0.315178,0.393972,0.000000,264.000000,232.000000,32.000000,40.000000,0.000000,0.000000,0.371460,0.425982,0.315178,0.393972,0.000000,264.000000,232.000000,32.000000,40.000000,0.000000,0.000000:
0000
0000
0000
0000
,
0000
0000
0000
0000
,
0010
1000
0002
0003
,
0010
0010
0010
0001
,
2000
0000
0002
0000
,
0000
0000
3003
0000
,
0100
0010
2000
3000
,
0010
0010
0010
1000
,
0002
0000
0200
0000
,
0000
0000
0303
0000
,
0001
0010
0200
0300
,
1000
1000
1000
0001
,
0200
0000
0020
0000
,
0000
0000
0330
0000
,
0100
0001
0020
0030
,
0001
1000
0001
0100
,
0101
0000
1100
0000
,
1001
0000
0110
0000
,
0000
1000
0010
1000
,
0001
0010
0001
0100
,
0010
0100
0001
1000
,
0100
0010
0000
0002
,
0000
1000
1000
0000
,
0013
0001
0100
0020
,
0000
1000
0001
1030
,
1010
0000
0101
0000
,
0000
0001
0010
0001
,
0100
0010
1000
0001
,
1000
0100
0010
0001
,
1000
0001
0000
0200
,
0000
0010
0010
0000
,
0301
0100
0010
2000
,
0000
0001
0001
3100
,
1100
0000
0011
0000
,
1000
0001
1000
0000
,
0010
0100
0010
0000
,
0100
0001
0100
0000
,
0110
0000
1001
0000
,
1000
0010
1000
0000
,
0001
0010
0001
0000
,
0100
1000
0100
0000
,
1100
0000
0101
0000
,
0010
0001
0100
0000
,
0010
1000
0100
0000
,
1000
0001
0010
0000
,
0011
0000
1010
0000
,
0100
0001
1000
0000
,
0010
1000
0001
0100
,
0010
0010
0010
0010
,
0100
0000
0000
1001
,
0220
0000
0030
0001
,
0301
1000
0001
0010
,
0100
0100
0100
0000
,
2000
3200
0320
0032
,
0103
0020
0000
1030
,
0002
0000
1003
0100
,
1000
0000
0010
0100
,
0001
0000
0000
0011
,
2200
0000
0300
0001
,
3001
1000
0010
0100
,
0010
0010
0010
0000
,
2000
3200
0320
0032
,
2003
0020
3000
0130
,
0001
0001
1000
0001
,
0101
0000
1100
0000
,
1001
0000
0110
0000
,
1000
0001
0010
0000
,
0000
0001
0100
0010
,
1000
0100
0001
0000
,
0010
0000
0100
0000
,
1000
1000
0001
0001
,
1000
0010
0100
0001
,
0000
0010
0001
0100
,
0001
0010
0100
1100
,
2020
0000
0030
0001
,
3002
0000
0013
0100
,
1000
0001
1000
0200
,
0000
0000
0000
0300
,
0000
1000
0001
1000
,
0020
0030
0200
0300
,
0101
0000
1100
0000
,
1010
0000
0101
0000
,
0011
0000
1100
0000
,
1001
0000
0220
0000
,
0000
0000
0000
0000
,
0000
0300
2000
3000
,
0230
0000
0300
0000
;

//---------------dance-single - ----------------
#NOTES:
     dance-single:
     :
     Beginner:
     5:
     0.227941,0.340786,0.098493,0.118192,0.000000,162.000000,152.000000,10.000000,12.000000,0.000000,0.000000,0.227941,0.340786,0.098493,0.118192,0.000000,162.000000,152.000000,10.000000,12.000000,0.000000,0.000000:
// measure 0
0000
0000
0000
0000
,  // measure 1
0000
0000
0000
0000
,  // measure 2
0010
0000
1000
0000
,  // measure 3
0001
0001
0001
0000
,  // measure 4
0200
0000
0000
0000
,  // measure 5
0000
0000
0300
0000
,  // measure 6
0001
0000
0100
0000
,  // measure 7
0010
0010
0010
0000
,  // measure 8
2000
0000
0000
0000
,  // measure 9
0000
0000
3000
0000
,  // measure 10
0010
0000
1000
0000
,  // measure 11
0100
0100
0100
0000
,  // measure 12
0020
0000
0000
0000
,  // measure 13
0000
0000
0030
0000
,  // measure 14
0001
0000
1000
0000
,  // measure 15
0010
0010
0010
0000
,  // measure 16
1000
0000
0000
0000
,  // measure 17
1001
0000
0110
0000
,  // measure 18
0000
1000
0000
1000
,  // measure 19
0000
1000
0000
1000
,  // measure 20
0000
0001
0000
0001
,  // measure 21
0000
0001
0000
0001
,  // measure 22
0000
0100
0100
0000
,  // measure 23
0010
0000
1000
0000
,  // measure 24
0002
0000
0003
0000
,  // measure 25
1001
0000
0110
0000
,  // measure 26
0000
0100
0000
0100
,  // measure 27
0000
0100
0000
0100
,  // measure 28
0000
0010
0000
0010
,  // measure 29
0000
0010
0000
0010
,  // measure 30
0000
1000
1000
0000
,  // measure 31
0001
0000
0100
0000
,  // measure 32
0020
0000
0030
0000
,  // measure 33
1001
0000
0110
0000
,  // measure 34
1000
1000
1000
0000
,  // measure 35
0001
0001
0001
0000
,  // measure 36
0100
0000
0010
0000
,  // measure 37
1000
0000
0001
0000
,  // measure 38
0100
0100
0100
0000
,  // measure 39
0010
0010
0010
0000
,  // measure 40
0100
0000
0001
0000
,  // measure 41
1000
0000
1000
0000
,  // measure 42
0001
0001
0001
0000
,  // measure 43
0010
0010
0010
0000
,  // measure 44
0001
0000
0100
0000
,  // measure 45
0010
0000
1000
0000
,  // measure 46
0001
0001
0001
0000
,  // measure 47
1000
1000
1000
0000
,  // measure 48
0010
0000
0010
0000
,  // measure 49
0010
0000
0000
0000
,  // measure 50
0200
0000
0300
0000
,  // measure 51
0001
0000
1000
0000
,  // measure 52
0001
0000
0010
0000
,  // measure 53
0200
0000
0000
0300
,  // measure 54
0000
1000
0000
0000
,  // measure 55
0001
0000
1000
0000
,  // measure 56
0010
0000
0100
0000
,  // measure 57
0010
0000
0000
0000
,  // measure 58
2000
0000
3000
0000
,  // measure 59
0001
0000
0010
0000
,  // measure 60
0001
0001
0001
0000
,  // measure 61
0200
0000
0000
0300
,  // measure 62
0000
0010
0000
0000
,  // measure 63
1000
0000
0001
0000
,  // measure 64
0010
0000
0000
0000
,  // measure 65
1001
0000
0110
0000
,  // measure 66
1000
1000
1000
0000
,  // measure 67
0000
0010
0010
0000
,  // measure 68
0100
0100
0100
0000
,  // measure 69
0000
0000
0000
0000
,  // measure 70
0001
0000
1000
0000
,  // measure 71
0001
0000
0100
0000
,  // measure 72
0010
0000
1000
0000
,  // measure 73
0100
0100
0100
0000
,  // measure 74
0020
0000
0030
0000
,  // measure 75
0001
0000
1000
0000
,  // measure 76
0001
0000
0100
0000
,  // measure 77
0002
0000
0000
0003
,  // measure 78
0000
0000
1000
0000
,  // measure 79
0010
0000
1000
0000
,  // measure 80
0100
0000
0000
0000
,  // measure 81
0010
0000
0000
0000
,  // measure 82
0100
0000
0000
0000
,  // measure 83
1001
0000
0110
0000
,  // measure 84
0000
0000
0000
0000
,  // measure 85
0000
0000
0000
0000
,  // measure 86
0200
0000
0300
0000
;
