#TITLE:RELEASE YOUR MIND;
#SUBTITLE:;
#ARTIST:TaQ;
#TITLETRANSLIT:;
#SUBTITLETRANSLIT:;
#ARTISTTRANSLIT:;
#GENRE:;
#CREDIT:;
#BANNER:RELEASE YOUR MIND-bn.png;
#BACKGROUND:RELEASE YOUR MIND-bg.png;
#LYRICSPATH:;
#CDTITLE:;
#MUSIC:RELEASE YOUR MIND.ogg;
#OFFSET:0.000000;
#SAMPLESTART:49.014000;
#SAMPLELENGTH:20.000000;
#SELECTABLE:YES;
#DISPLAYBPM:142.000000;
#BPMS:0.000000=142.000000
;
#STOPS:
;
#BGCHANGES:;
#KEYSOUNDS:;
#ATTACKS:;

//---------------dance-single - ----------------
#NOTES:
     dance-single:
     :
     Hard:
     11:
     0.492879,0.523210,0.050552,0.025276,0.132698,273.000000,269.000000,4.000000,2.000000,0.000000,0.000000,0.492879,0.523210,0.050552,0.025276,0.132698,273.000000,269.000000,4.000000,2.000000,0.000000,0.000000:
0000
0000
0000
0000
,
0000
0000
0000
0000
,
0000
0000
0000
0000
,
0000
0000
0000
0000
,
0000
0000
0000
0000
,
1010
0000
0000
0000
0001
0000
0010
0000
0011
0000
0000
0100
0000
0000
1000
0000
,
1100
0000
0000
0000
0010
0000
0100
0000
0101
0000
0000
0001
0000
0000
1000
0000
,
0001
0000
0100
0000
0001
0000
0010
0000
0100
0000
0000
1000
0000
0000
0001
0000
,
0000
0100
0000
0000
0010
0000
0000
1000
0000
0000
0100
0000
0010
0000
0001
1000
,
0001
0000
0100
0000
0001
0000
1000
0000
0100
0000
0000
0010
0000
0000
0001
0000
,
0000
1000
0000
0000
0001
0000
0000
0100
0000
0000
0010
0000
1000
0000
0100
0000
,
1000
0000
0010
0000
0100
0000
0001
0000
1000
0000
0000
0001
0000
0000
0100
0000
,
0000
0001
0000
0000
0010
0000
0000
0100
0000
0000
1000
0000
0001
0000
0100
0010
,
0100
0000
0001
0000
1000
0000
0001
0000
0010
0000
0000
0100
0000
0000
1000
0000
,
0000
0001
0000
0000
1000
0000
0000
0001
0000
0000
0100
0000
0010
0000
1000
0000
,
0001
0000
0010
0000
0100
0000
0010
0000
0100
0000
0000
1000
0000
0000
0001
0000
,
0100
0000
0010
0000
0100
0000
0001
0000
1000
0000
0010
0100
0000
0010
0100
0000
,
0001
1000
0000
0010
0000
1000
0000
0001
,
0000
0010
0000
0100
0000
1000
0000
0010
,
0100
0001
0100
0010
0000
1000
0000
0001
,
0000
1000
0000
0010
0000
1000
1000
0001
,
0100
0010
0000
0100
0001
1000
0000
0001
,
0000
0010
0000
0100
0000
1000
0000
0010
,
0000
0100
0000
0001
0000
1000
0000
0100
,
0000
1000
0000
0001
0010
0100
0100
1000
,
0001
0100
0001
1000
0000
0010
1000
0100
,
1000
0001
0000
0010
0001
0100
0001
1000
,
0010
1000
0100
1000
0001
0010
0000
0100
,
1000
0010
1000
0001
0010
0100
1000
0001
,
0100
0010
0100
0001
0010
0100
1000
0001
,
0100
0000
0001
0010
0000
0001
1000
0000
,
0010
1000
0000
0100
0010
0001
0100
0001
,
1000
0000
0100
0000
0010
0000
0001
0000
1000
0000
0001
0000
0000
0000
0100
0010
,
0100
0001
1000
0100
0010
0100
1000
0001
,
0100
0010
1000
0010
0000
0100
0001
0000
,
1000
0001
0000
0010
0001
1000
0001
0100
,
0010
0000
1000
0000
0100
0000
1000
0000
0001
0000
0100
0010
0100
0000
0001
0000
,
1000
0010
1000
0001
0010
1000
0010
0001
,
0100
0010
0100
0001
0000
1000
0010
0100
,
0001
0010
0001
0100
1000
0100
0001
0010
,
0100
1000
0001
0000
1000
0001
0010
0100
,
1000
0010
0100
0010
0001
0010
1000
0001
,
0100
1000
0100
0001
0000
0010
0001
0100
,
0001
1000
0010
1000
0100
0010
0001
0100
,
0010
1000
0001
0000
1000
0100
0000
2000
,
0002
0000
0000
0000
,
3003
0000
0000
0000
;

//---------------dance-single - ----------------
#NOTES:
     dance-single:
     :
     Medium:
     9:
     0.384554,0.406941,0.025276,0.025276,0.000000,213.000000,211.000000,2.000000,2.000000,0.000000,0.000000,0.384554,0.406941,0.025276,0.025276,0.000000,213.000000,211.000000,2.000000,2.000000,0.000000,0.000000:
0000
0000
0000
0000
,
0000
0000
0000
0000
,
0000
0000
0000
0000
,
0000
0000
0000
0000
,
0000
0000
0000
0000
,
1000
0000
0000
0100
0010
0000
0000
0001
,
0100
0000
0000
0010
1000
0000
0000
0001
,
1000
0010
1000
0001
,
0010
0100
1000
0000
0001
0000
0100
0010
,
1000
0000
0001
0000
0010
0000
0001
0100
,
0010
0000
1000
0000
0100
0010
0001
1000
,
0001
0000
1000
0000
0010
0000
0100
0001
,
0010
0000
0001
0000
1000
0000
0010
1000
,
0100
0000
0010
0000
0001
0000
1000
0001
,
0100
0000
0001
0000
1000
0001
0100
0010
,
0100
0010
1000
0100
,
1000
0001
0100
0000
0010
1000
0100
0000
,
0110
0000
0001
0000
1000
0000
0001
0100
,
0000
0010
0000
1000
0000
0010
0000
0100
,
0000
0001
0000
0010
0000
0001
0000
0100
,
0000
0010
0000
1000
0000
0100
1000
0001
,
0100
0010
0000
0100
0000
0010
0000
1000
,
0000
0001
0000
0010
0000
0001
0000
0100
,
0000
0010
0000
1000
0000
0100
0000
0010
,
0000
0001
0000
1000
0000
0001
0100
0000
,
1001
0000
1000
0010
0000
1000
0001
0000
,
1000
0100
0000
0010
0001
0000
0100
0010
,
0000
0100
0001
0000
0100
0010
0000
1000
,
0001
0000
0010
0001
0000
1000
0001
0100
,
0010
1000
0010
0000
1000
0001
0000
1000
,
0100
0000
0010
0001
0000
0100
0001
0000
,
1000
0100
0000
0010
0001
0000
1000
0010
,
0000
0100
0001
0000
1000
0001
1000
0010
,
0000
0100
0001
0000
0010
0100
0000
0010
,
0100
0000
1000
0001
0000
1000
0100
0000
,
1000
0010
0000
0100
0001
0000
0010
0100
,
0000
1000
0001
0000
1000
0010
0100
0001
,
0000
0100
0001
0000
0010
0001
0000
1000
,
0001
0000
0100
0010
1000
0010
0100
0000
,
0001
0010
0100
1000
0001
0000
0100
0010
,
0000
1000
0001
0000
1000
0010
0100
0001
,
0000
0010
0001
0100
0001
1000
0000
0100
,
0010
0000
0001
0100
0000
0001
1000
0000
,
0010
1000
0000
0100
1000
0001
0100
0010
,
0000
1000
0001
0010
0001
1000
0000
0020
,
0200
0000
0000
0000
,
0330
0000
0000
0000
;

//---------------dance-single - ----------------
#NOTES:
     dance-single:
     :
     Easy:
     6:
     0.247342,0.290672,0.101103,0.025276,0.000000,137.000000,129.000000,8.000000,2.000000,0.000000,0.000000,0.247342,0.290672,0.101103,0.025276,0.000000,137.000000,129.000000,8.000000,2.000000,0.000000,0.000000:
0000
0000
0000
0000
,
0000
0000
0000
0000
,
0000
0000
0000
0000
,
0000
0000
0000
0000
,
0000
0000
0000
0000
,
0101
0000
0101
0000
,
1100
0000
1100
0000
,
0001
0000
1000
0001
,
1000
0010
0100
0001
,
0010
0001
0100
0010
,
1000
0100
1000
0001
,
0100
0010
1000
0001
,
0000
1000
0100
0010
,
0001
0100
0001
0010
,
0100
1000
0010
1000
,
0001
1000
0001
0100
,
0010
1000
0001
1000
,
0110
0000
1000
0000
,
0001
0000
0010
0000
,
0100
0000
1000
0000
,
0002
0000
0000
0103
,
1001
0000
0010
0000
,
1000
0000
0100
0000
,
0010
0000
0001
0000
,
1000
0000
0010
0100
,
0110
0001
0000
1000
,
0100
0000
1000
0000
,
0001
0010
0100
0000
,
1000
0001
1000
0010
,
1001
0100
0010
1000
,
0100
0000
0010
0000
,
0001
0000
1000
0001
,
1000
0010
0100
0001
,
0010
0100
1000
0010
,
1000
0000
0001
0000
,
0010
0000
0001
0000
,
0100
0010
1000
0001
,
0100
0001
0010
0100
,
1000
0010
1000
0001
,
1000
0100
0010
0100
,
0010
0001
0100
0010
,
1000
0001
1000
0010
,
1000
0100
0010
0001
,
1000
0001
1000
0010
,
0100
0001
1000
0100
,
0020
0000
0000
0000
,
0030
0000
0000
0000
;

//---------------dance-single - ----------------
#NOTES:
     dance-single:
     :
     Beginner:
     2:
     0.113741,0.142177,0.025276,0.000000,0.000000,63.000000,61.000000,2.000000,0.000000,0.000000,0.000000,0.113741,0.142177,0.025276,0.000000,0.000000,63.000000,61.000000,2.000000,0.000000,0.000000,0.000000:
// measure 0
0000
0000
0000
0000
,  // measure 1
0000
0000
0000
0000
,  // measure 2
0000
0000
0000
0000
,  // measure 3
0000
0000
0000
0000
,  // measure 4
0000
0000
0000
0000
,  // measure 5
0001
0000
0001
0000
,  // measure 6
1000
0000
1000
0000
,  // measure 7
0010
0000
0000
0000
,  // measure 8
0100
0000
0000
0000
,  // measure 9
0001
0000
0001
0000
,  // measure 10
0001
0000
0000
0000
,  // measure 11
1000
0000
1000
0000
,  // measure 12
1000
0000
0000
0000
,  // measure 13
0100
0000
0100
0000
,  // measure 14
0100
0000
0000
0000
,  // measure 15
0010
0000
0010
0000
,  // measure 16
0010
0000
0000
0000
,  // measure 17
0110
0000
0000
0000
,  // measure 18
0000
0000
0000
0000
,  // measure 19
0001
0000
0000
0000
,  // measure 20
0000
0000
0000
1000
,  // measure 21
1000
0000
0000
0000
,  // measure 22
0000
0000
0000
0000
,  // measure 23
0010
0000
0000
0000
,  // measure 24
0000
0000
0000
0100
,  // measure 25
0100
0000
0000
0000
,  // measure 26
0001
0000
1000
0000
,  // measure 27
0001
0000
0000
0000
,  // measure 28
0010
0000
0000
0000
,  // measure 29
0100
0000
1000
0000
,  // measure 30
0001
0000
1000
0000
,  // measure 31
0010
0000
0100
0000
,  // measure 32
0010
0000
0100
0000
,  // measure 33
0001
0000
1000
0000
,  // measure 34
0100
0000
1000
0000
,  // measure 35
0010
0000
0100
0000
,  // measure 36
0001
0000
1000
0000
,  // measure 37
0100
0000
1000
0000
,  // measure 38
0001
0000
0100
0000
,  // measure 39
0010
0000
1000
0000
,  // measure 40
0010
0000
1000
0000
,  // measure 41
0001
0000
0010
0000
,  // measure 42
0001
0000
0100
0000
,  // measure 43
0010
0000
1000
0000
,  // measure 44
0001
0000
0000
0000
,  // measure 45
1001
0000
0000
0000
;
