#TITLE:CAPTAIN JACK (GRANDALE REMIX);
#SUBTITLE:(Long Version);
#ARTIST:CAPTAIN JACK;
#BANNER:CAPTAIN JACK (GRANDALE REMIX) (Long Version)-bn.png;
#BACKGROUND:CAPTAIN JACK (GRANDALE REMIX) (Long Version)-bg.png;
#JACKET:CAPTAIN JACK (GRANDALE REMIX) (Long Version)-jacket.png;
#MUSIC:CAPTAIN JACK (GRANDALE REMIX) (Long Version).ogg;
#SAMPLESTART:112.925;
#SAMPLELENGTH:20;
#DISPLAYBPM:170;
#BPMS:0=170.04;
#BGCHANGES:;

//---------------dance-single - ----------------
#NOTES:
     dance-single:
     :
     Beginner:
     4:
     :
0000
0000
0000
0000
,
0000
0000
0000
0000
,
0000
0000
0000
0000
,
0000
0000
0000
0000
,
0000
0000
0000
0000
,
0000
0000
0000
0000
,
0000
0000
0000
0000
,
0000
0000
0000
0000
,
0001
0000
0000
0000
,
1000
0000
0000
0000
,
0010
0000
0000
0000
,
1000
0000
0000
0000
,
0100
0000
0000
0000
,
0010
0000
0000
0000
,
0001
0000
0000
0000
,
0100
0000
0000
0000
,
0001
0000
0001
0000
,
0010
0000
0000
0000
,
0001
0000
0001
0000
,
1000
0000
0000
0000
,
0010
0000
1000
0000
,
1000
0000
0000
0000
,
0100
0000
0010
0000
,
0010
0000
0000
0000
,
0001
0000
0010
0000
,
0001
0000
0100
0000
,
0010
0000
1000
0000
,
0001
0000
1000
0000
,
0100
0000
0010
0000
,
0001
0000
0100
0000
,
0001
0000
0010
0000
,
1000
0000
0001
0000
,
1001
0000
0000
0010
,
0000
0000
1000
0000
,
0100
0000
1000
0000
,
0001
0000
0100
0000
,
0110
0000
0000
0000
,
1000
0000
1000
0000
,
1000
0000
0000
0000
,
0001
0000
0001
0000
,
0001
0000
0000
0000
,
0100
0000
0100
0000
,
0100
0000
0000
0000
,
0010
0000
0010
0000
,
0010
0000
0000
0000
,
1000
1000
0000
0000
,
0001
0001
0000
0000
,
0010
0000
0000
0000
,
0001
0000
0000
0000
,
0100
0100
0000
0000
,
0010
0010
0000
0000
,
1000
0000
0000
0000
,
0100
0000
0000
0000
,
1001
0000
0000
0000
,
1000
0000
0001
0000
,
1000
1000
1000
0000
,
0000
0010
0000
0000
,
0000
0001
0000
0000
,
0000
0100
0000
0000
,
0000
0010
0000
0000
,
0000
1000
0000
0000
,
0000
0001
0000
0000
,
0100
0000
0000
0000
,
0010
0000
0000
0000
,
1000
1000
0000
0000
,
0001
0001
0000
0000
,
0010
0000
0001
0000
,
0010
0000
0001
0000
,
1000
0000
0100
0000
,
1000
0000
0100
0000
,
0010
0000
0010
0000
,
0100
0000
0100
0000
,
1000
0000
0000
0000
,
1000
0000
0000
0000
,
0010
0000
0000
0000
,
0001
0000
0000
0000
,
0100
0000
0000
0000
,
0100
0000
0000
0000
,
0001
0000
0000
0000
,
1000
0000
0000
0000
,
1001
0000
0000
0000
,
1000
0000
0001
0000
,
0010
0010
0010
0000
,
0000
0000
0000
0000
,
1001
0000
0000
0000
,
1000
0000
0001
0000
,
0100
0100
0100
0000
,
0000
0000
0110
0000
,
1000
0000
0001
0000
,
1000
0000
0001
0000
,
0010
0000
0001
0000
,
0100
0000
0000
0000
,
0010
0000
1000
0000
,
0010
0000
0100
0000
,
0001
0000
0010
0000
,
0001
0000
1000
0000
,
0010
0000
0000
0000
,
0100
0200
0000
0000
,
0300
0000
0001
0000
,
1000
0000
0000
0000
,
0010
0000
0000
0000
,
0100
0100
0000
0000
,
0001
0000
0010
0000
,
0001
0000
0001
0000
,
1000
0000
1000
0000
,
0001
0000
0100
0000
,
0010
0000
1000
0000
,
0100
0000
0010
0000
,
0100
0000
1000
0000
,
1000
0000
0001
0000
,
0010
0000
0001
0000
,
1001
0000
0000
0010
,
0000
0000
1000
0000
,
0100
0000
1000
0000
,
0001
0000
0100
0000
,
0110
0000
0000
0000
,
0010
0000
1000
0000
,
0001
0000
0000
0000
,
0010
0000
0001
0000
,
0100
0000
0000
0000
,
0020
0000
0030
0000
,
1000
0000
0001
0000
,
0200
0000
0300
0000
,
0001
0000
0000
0000
,
0010
0010
0000
0000
,
0100
0100
0000
0000
,
0001
0000
0010
0000
,
0001
0000
1000
0000
,
0100
0000
0010
0000
,
0100
0000
1000
0000
,
0010
0000
0100
0000
,
0001
0000
1000
0000
,
0001
0000
0000
0000
,
0010
0000
0000
0000
,
0001
0000
0000
0000
,
0100
0000
0000
0000
,
1000
0000
0000
0000
,
0010
0000
0000
0000
,
0100
0000
0000
0000
,
0001
0000
0000
0000
,
1001
0000
0000
0000
,
1000
0000
0100
0000
,
0010
0010
0010
0000
,
0000
0000
0000
0000
,
1001
0000
0000
0000
,
0001
0000
0100
0000
,
1000
1000
1000
0000
,
0000
0000
0110
0000
,
0001
0000
0100
0000
,
0001
0000
0010
0000
,
1000
0000
0001
0000
,
1000
0000
0010
0000
,
0100
0000
0001
0000
,
0010
0000
0001
0000
,
1000
0000
0010
0000
,
1000
0000
0001
0000
,
0100
0000
0000
0000
,
1000
2000
0000
0000
,
3000
0000
0001
0000
,
1000
0000
0000
0000
,
0001
0000
0000
0000
,
0010
0010
0000
0000
,
0001
0000
1000
0000
,
0010
0000
0000
0000
,
0000
1000
0000
0000
,
0000
0001
0000
0000
,
0000
0010
0000
0000
,
0000
0001
0000
0000
,
0000
0100
0000
0000
,
0000
0100
0000
0000
,
0000
0010
0000
0000
,
0000
1000
0000
0000
,
1001
0000
0000
0000
,
0010
0000
1000
0000
,
0100
0100
0100
0000
,
0000
0010
0000
0010
,
0000
0001
0000
1000
,
0000
0001
0000
0100
,
0000
0010
0000
1000
,
0000
0100
0000
0010
,
0000
0100
0000
1000
,
0000
0010
0000
1000
,
0000
0100
0000
0001
,
0000
0010
0000
0010
,
0000
0001
0000
0100
,
0000
1000
0000
1000
,
0000
1000
0000
1000
,
0000
0010
0000
1000
,
0000
0100
0000
0010
,
0000
0001
0000
0100
,
0000
0010
0000
0000
,
1001
0000
0000
0100
,
0000
0000
0001
0000
,
0010
0000
0010
0000
,
0001
0000
1000
0000
,
0110
0000
0000
0000
,
0001
0000
0000
0000
,
1000
0000
0000
0000
,
0010
0000
0000
0000
,
0100
0000
0000
0000
,
0100
0000
0000
0000
,
0010
0000
0000
0000
,
0001
0000
0000
0000
,
1000
0000
0000
0000
,
0010
0000
0010
0000
,
0100
0000
0100
0000
,
1000
0000
0001
0000
,
1000
0000
0001
0000
,
0010
0000
0001
0000
,
0100
0000
0010
0000
,
1000
0000
1000
0000
,
0100
0000
1000
0000
,
0001
0000
0000
0000
;

//---------------dance-single - ----------------
#NOTES:
     dance-single:
     :
     Easy:
     7:
     :
0000
0000
0000
0000
,
0000
0000
0000
0000
,
0000
0000
0000
0000
,
0000
0000
0000
0000
,
0000
0000
0000
0000
,
0000
0000
0000
0000
,
0000
0000
0000
0000
,
0000
0000
0000
0000
,
0001
0000
1000
0000
,
0001
0000
0010
0000
,
0001
0000
0100
0000
,
0010
0000
1000
0000
,
0100
0000
1000
0000
,
0010
0000
1000
0000
,
0100
0000
0010
0000
,
0001
0000
0100
0000
,
0001
0010
0001
0000
,
1000
0100
0010
0000
,
0100
1000
0001
0000
,
0010
0001
0100
0000
,
1000
1000
1000
0000
,
0010
1000
0001
0000
,
0010
0001
0100
0000
,
0001
0010
1000
0000
,
0100
1000
0100
1000
,
0010
0100
0001
0010
,
0001
0010
0100
1000
,
0010
1000
0100
1000
,
0001
0010
0001
0100
,
0010
0100
0001
1000
,
0010
0010
0100
0100
,
1000
0001
1000
0001
,
1001
0000
1000
0001
,
0000
0010
0001
0100
,
0000
1000
0010
1000
,
0000
0001
0100
0010
,
0220
0000
0000
0330
,
1000
0000
0010
1000
,
0001
0000
0010
0100
,
0010
0000
0001
0100
,
1000
0000
0010
1000
,
0001
0000
0010
0001
,
1000
0000
0001
0100
,
0100
0000
0010
1000
,
0100
0000
0010
0001
,
1000
0010
1000
0001
,
0010
0001
0100
0000
,
0010
0100
0001
0010
,
1000
0100
0001
0000
,
1000
0010
1000
0100
,
0010
0001
0100
0001
,
0010
0100
0010
0001
,
0100
0010
1000
0001
,
2002
0000
0000
3003
,
1000
0001
0010
0010
,
1000
0001
1000
0000
,
0000
0010
1000
0001
,
0000
1000
0100
0010
,
0000
0001
0100
0001
,
0000
0010
0100
1000
,
0000
0001
0100
0001
,
0000
1000
0100
0010
,
0110
0001
1000
0010
,
1001
0100
0010
1000
,
0001
0001
1000
0100
,
1000
1000
0001
0100
,
0010
0010
0001
1000
,
0010
0010
1000
0001
,
0100
0010
0100
0010
,
1000
0001
1000
0001
,
0010
0001
0100
0100
,
0010
1000
0100
0100
,
1000
0001
1000
0000
,
1000
0001
1000
0000
,
0010
1000
0100
0000
,
0010
0001
0100
0000
,
1001
0110
1001
0000
,
0110
1001
0110
0000
,
1000
1000
1000
0000
,
0001
0001
0001
0000
,
2002
0000
0000
3003
,
1000
0001
0010
0010
,
1000
0001
1000
0000
,
0000
0010
0000
0100
,
2002
0000
0000
3003
,
1000
0001
0010
0010
,
1000
0001
1000
0000
,
0000
0000
1100
0101
,
0010
1000
0100
0100
,
0010
0001
0100
0100
,
0110
0000
1001
0000
,
0010
1000
0001
0100
,
0001
0010
0100
0100
,
1000
0010
0100
0100
,
0110
0000
1001
0000
,
1000
0001
0100
0010
,
1000
0100
0000
0100
,
0010
0002
0000
0003
,
0000
1000
0001
0001
,
1000
0000
0000
0000
,
0010
1000
0000
0100
,
1000
0020
0000
0030
,
0100
0001
0010
0010
,
0001
0000
0100
0000
,
0010
0000
1000
0000
,
0100
0000
0010
0000
,
0001
0000
1000
0000
,
0010
0000
1000
0000
,
0100
0000
0001
0000
,
1000
0000
0100
0000
,
0010
0000
0001
0000
,
1001
0000
0100
0010
,
0000
1000
0100
0001
,
0000
0010
0001
0100
,
0000
0010
1000
0001
,
0220
0000
0000
0330
,
0000
1000
0100
0001
,
0000
0010
0001
0100
,
0000
0001
0010
1000
,
0000
0100
0010
0001
,
2000
0010
0010
3010
,
0200
0300
0100
0000
,
0220
0000
0000
0330
,
2002
0000
0000
3003
,
0001
0010
0001
0001
,
1000
0010
1000
1000
,
0100
0100
0010
0100
,
0010
0010
0100
0010
,
0001
0100
0001
1000
,
1000
0100
1000
0001
,
0010
0001
0100
0100
,
0010
1000
0100
0100
,
1000
0001
1000
0000
,
1000
0001
1000
0000
,
0010
1000
0100
0000
,
0010
0001
0100
0000
,
0110
1001
0110
0000
,
1001
0110
1001
0000
,
0010
0010
0010
0000
,
0100
0100
0100
0000
,
2002
0000
0000
3003
,
1000
0001
0010
0010
,
1000
0001
1000
0000
,
0000
0001
0000
1000
,
2002
0000
0000
3003
,
1000
0001
0010
0010
,
1000
0001
1000
0000
,
0000
0000
0101
1100
,
0010
1000
0100
0100
,
0010
0001
0100
0100
,
0110
0000
1001
0000
,
0001
0010
0100
1000
,
0010
1000
0001
0001
,
0010
0001
1000
1000
,
0110
0000
1001
0000
,
1000
0010
0100
0001
,
0010
0100
0000
0100
,
1000
0002
0000
0003
,
0000
1000
0001
0001
,
1000
0000
0000
0000
,
0010
1000
0000
1000
,
0001
0020
0000
0030
,
0001
0100
0001
0010
,
0000
1000
0000
0001
,
0000
0100
0001
0010
,
0000
0001
0100
1000
,
0000
0010
1000
0001
,
0000
1000
0100
0010
,
0000
0001
0100
1000
,
0000
0010
1000
0100
,
0000
1000
0010
0001
,
0000
1000
0100
0010
,
2002
0000
0000
3003
,
1000
0001
0010
0010
,
1000
0001
1000
0000
,
0010
1000
0100
0001
,
0010
0001
0010
0100
,
1000
0010
1000
0001
,
1000
0100
0010
0001
,
0100
0001
0010
0001
,
0100
0010
1000
0100
,
1000
0010
1000
0001
,
0010
0001
0100
1000
,
0010
1000
0001
1000
,
0100
0010
0001
0100
,
0001
0010
1000
0001
,
1000
0100
0010
0010
,
0010
0001
1000
0010
,
1000
0100
0001
0010
,
0001
0010
1000
0001
,
0100
0010
0100
0001
,
1001
0000
0100
0001
,
0000
0010
0001
0100
,
0000
0010
1000
0100
,
0000
1000
0010
0001
,
0220
0000
0000
0330
,
0001
0000
0100
0000
,
0010
0000
1000
0000
,
0100
0000
0010
0000
,
0001
0000
1000
0000
,
0010
0000
1000
0000
,
0100
0000
0010
0000
,
0001
0000
0100
0000
,
0001
0000
1000
0000
,
0010
1000
0001
0000
,
0010
0001
0100
0000
,
0001
0010
1000
0000
,
0100
1000
0010
0000
,
0100
0010
0100
0000
,
0001
0010
0001
0000
,
1000
0010
1000
0100
,
0010
0001
0100
1000
,
0001
0000
0000
0000
;

//---------------dance-single - ----------------
#NOTES:
     dance-single:
     :
     Medium:
     10:
     :
0000
0000
0000
0000
,
0000
0000
0000
0000
,
0000
0000
0000
0000
,
0000
0000
0000
0000
,
0000
0000
0000
0000
,
0000
0000
0000
0000
,
0000
0000
0000
0000
,
0000
0000
0000
0000
,
0001
0000
0010
0000
0001
0000
1000
0100
,
1000
0000
0010
0000
1000
0000
0001
0100
,
0010
0000
1000
0000
0100
0000
1000
0001
,
0010
0000
0100
0000
0010
0000
0001
0100
,
0010
0000
1000
0000
0001
0000
1000
0100
,
0010
0000
0100
0000
1000
0000
0001
0010
,
0001
0000
0100
0000
1000
0000
0010
1000
,
0100
0000
0010
0000
0001
0000
1000
0010
,
0100
0000
0001
0010
0001
0000
1000
0000
,
0010
0000
1000
0100
0010
0000
0001
0000
,
1000
0000
0001
1000
0100
0000
0010
0000
,
0100
0000
1000
0010
1000
0000
0001
0000
,
0010
0000
0100
0010
0001
0000
1000
0000
,
0100
0000
1000
0010
1000
0000
0001
0000
,
0010
0000
0100
0010
0001
0000
0100
0000
,
1000
0000
0001
1000
0100
0000
1000
0000
,
0010
0000
1000
0001
1000
0000
0100
0010
,
0001
0000
0100
0001
1000
0000
0001
1000
,
0100
0000
0010
0100
0010
0000
0100
0010
,
0001
0000
0100
0010
1000
0000
0001
0100
,
1000
0000
0010
1000
0001
0000
1000
0100
,
0010
0000
0100
1000
0010
0000
1000
0001
,
0010
0000
0100
0010
0001
0000
1000
0010
,
0001
0000
0100
0010
1000
0000
0001
0000
,
1001
0000
0000
0010
1000
0010
1000
0000
,
0000
0101
0000
0000
1100
0000
0001
1000
,
0000
0110
0000
1000
0001
0000
0000
0101
,
0000
1000
0010
0100
0001
0000
0010
0100
,
1000
1000
1000
1000
,
1000
0100
0010
0000
0001
0100
0010
0000
,
0001
1000
0001
0000
0010
0100
1000
0000
,
0100
1000
0001
0000
0010
0001
0100
0000
,
0001
0010
1000
0000
0100
0010
0001
0000
,
0100
0001
0010
0000
0001
0100
1000
0000
,
0010
1000
0100
0000
1000
0010
0001
0000
,
1000
0001
1000
0000
0001
1000
0001
0000
,
0010
0001
0100
0000
0010
1000
0100
0000
,
0000
1000
0100
0001
0000
0010
0000
0001
,
0000
0100
0010
1000
0000
0100
0000
0001
,
0000
0010
0001
1000
0000
0010
0000
1000
,
0100
0000
0010
0001
0100
0000
0001
0010
,
1000
0000
0100
0010
0000
0001
0000
0100
,
0010
0000
1000
0001
0000
0010
0001
1000
,
0000
0100
0000
0010
0000
0001
0100
1000
,
0010
0000
1000
0100
0001
0000
0010
0000
,
2002
0000
0000
3003
,
1000
0100
0001
0000
1010
0000
0101
0000
,
1000
0100
0001
0100
1000
0001
0000
0000
,
0000
0010
0000
0001
0000
1000
0000
0010
,
0000
1000
0000
0100
0000
0010
0000
0001
,
0000
0100
0000
0001
0000
0010
0000
0001
,
0000
1000
0000
0100
0000
1000
0000
0010
,
0000
1000
0000
0001
0000
0010
0000
0100
,
0000
0010
0000
0001
0000
0100
0000
0010
,
2000
0002
0000
0000
0000
0000
3003
0000
,
1001
0000
0010
0000
1000
0100
0010
0001
,
0200
0000
0310
0000
1000
0001
0100
0000
,
0002
0000
0013
0000
0100
1000
0001
0000
,
1000
0010
1000
0000
0001
0100
0001
0000
,
0010
0001
0010
0000
0100
1000
0100
0000
,
0010
0001
0100
0000
0110
0000
1001
0000
,
0010
1000
0100
0000
0110
0000
1001
0000
,
1000
0100
0001
0000
1000
0010
0001
0000
,
0001
0100
1000
0000
0001
0010
1000
0000
,
1000
0001
1000
0000
,
1000
0001
1000
0000
,
0010
1000
0100
0000
0110
0000
0000
0000
,
0010
0001
0100
0000
0110
0000
0000
0000
,
1010
0101
1010
0000
,
1100
0011
1100
0000
,
0001
0100
0001
0100
0010
0000
0000
0000
,
1000
0100
1000
0100
0010
0000
0000
0000
,
2002
0000
0000
3003
,
1000
0100
0001
0000
0011
0000
1100
0000
,
1000
0100
0001
0100
1000
0001
0000
0000
,
0000
0010
0000
0001
0000
0100
0000
0010
,
2002
0000
0000
3003
,
1000
0100
0001
0000
1010
0000
0101
0000
,
1000
0100
0001
0100
1000
0001
0000
0000
,
0010
0001
0100
0000
1001
0000
1001
0000
,
0010
1000
0100
0000
1000
0001
0100
0000
,
0001
0010
0001
0000
0100
0010
1000
0000
,
0001
0100
0001
0000
1000
0100
1000
0000
,
0010
1000
0001
0000
0010
0001
0100
0000
,
0010
1000
0010
1000
0010
1000
0010
0000
,
0100
0001
0100
0001
0100
0001
0100
0000
,
0001
0010
1000
0000
0001
0010
1000
0000
,
0100
1000
0010
1000
0001
1000
0200
0000
,
0000
0000
0000
0300
0000
0010
0001
0100
,
0001
1000
0020
0000
0000
0000
0000
0000
,
0030
2000
3001
0002
,
1003
0000
0000
0000
0000
0110
0000
0001
,
1001
0000
0000
0000
0000
1000
0010
1000
,
0100
0010
0002
0000
0000
0000
0003
0000
,
0010
0001
0100
0000
0010
1000
0100
0000
,
1000
0000
0010
0001
0100
0000
1000
0001
,
1000
0000
0010
1000
0001
0000
0010
0000
,
0001
0000
1000
0010
1000
0000
0100
0010
,
0001
0000
0100
0001
1000
0000
0010
0000
,
1000
0000
0100
1000
0001
0000
0010
0001
,
0100
0000
0001
0010
1000
0000
0100
0000
,
1000
0000
0001
0010
0001
0000
0100
0010
,
1000
0000
0100
0010
0001
0000
1000
0000
,
1001
0000
0000
0001
0010
0001
0010
0000
,
0000
1100
0000
0000
0101
0000
1000
0100
,
0000
0110
0000
0010
0001
0000
0000
1010
,
0000
0001
0010
0001
0100
0010
0100
0001
,
1000
0000
1000
0001
1000
0000
1000
0001
,
1000
0010
0000
0100
0000
0001
1000
0010
,
0000
0001
0000
0100
0000
0010
1000
0001
,
0000
1000
0000
0100
0000
1000
0001
0010
,
0000
0001
0000
0100
0000
0010
0100
0001
,
2000
0200
0000
0000
0000
0000
3300
1000
,
0002
0000
0200
0303
,
0020
0200
0000
0000
0000
0000
0330
0000
,
1001
0000
0010
0000
1000
0001
1000
0100
,
0020
0000
0031
0000
0100
0001
1000
0000
,
0200
0000
0310
0000
0100
1000
0001
0000
,
0010
0001
0010
0000
1000
0100
1000
0000
,
0010
1000
0010
0000
0001
0100
0001
0000
,
1000
0100
0010
0000
0011
0000
1100
0000
,
0001
0100
0010
0000
1010
0000
0101
0000
,
1000
0100
0001
0000
1000
0010
0001
0000
,
0001
0100
1000
0000
0001
0010
1000
0000
,
1000
0001
1000
0000
,
1000
0001
1000
0000
,
0001
0100
1000
0000
1010
0000
0000
0000
,
1000
0100
0001
0000
0011
0000
0000
0000
,
0101
1010
0101
0000
,
0011
1100
0011
0000
,
1000
0010
1000
0010
0100
0000
0000
0000
,
0001
0010
0001
0010
0100
0000
0000
0000
,
2002
0000
0000
3003
,
1000
0100
0001
0000
0011
0000
1100
0000
,
1000
0100
0001
0100
1000
0001
0000
0000
,
0000
0100
0000
0001
0000
1000
0000
0010
,
2002
0000
0000
3003
,
1000
0100
0001
0000
1010
0000
0101
0000
,
1000
0100
0001
0100
1000
0001
0000
0000
,
0010
0001
1000
0000
1001
0000
1001
0000
,
0010
1000
0100
0000
0010
0001
1000
0000
,
0001
0010
1000
0000
0100
0010
0001
0000
,
0100
0010
0100
0000
0001
1000
0001
0000
,
0010
0001
0100
0000
0010
1000
0100
0000
,
1000
0010
1000
0010
1000
0010
1000
0000
,
0001
0100
0001
0100
0001
0100
0001
0000
,
0010
0001
0100
0000
0010
1000
0100
0000
,
1000
0001
0010
0001
0100
0010
2000
0000
,
0000
0000
0000
3000
0000
0100
1000
0010
,
1000
0001
0200
0000
0000
0000
0000
0000
,
0300
2000
3001
0002
,
1003
0000
0000
0000
0000
0110
0000
0001
,
1001
0000
0000
0000
0000
0010
1000
0100
,
1000
0001
0020
0000
0000
0000
0030
0000
,
0001
0100
0010
0000
1000
0100
0010
0000
,
0001
0100
0001
1000
0000
1000
0000
1000
,
0010
1000
0100
0000
0010
0000
0001
0100
,
0000
0010
0000
1000
0000
0100
1000
0001
,
0000
0010
0000
0001
0100
0000
0010
1000
,
0000
0100
0000
0010
0001
1000
0001
0100
,
0000
0010
0000
1000
0000
0001
0000
1000
,
0000
0100
0000
0010
0000
0001
0000
0100
,
0000
0001
0000
0010
0000
1000
0100
0001
,
0000
0100
0000
0010
1000
0100
1000
0001
,
2002
0000
0000
3003
,
1000
0100
0001
0000
0011
0000
1100
0000
,
1000
0100
0001
0100
1000
0001
0000
0000
,
0100
0001
0000
0010
0001
0000
1000
0100
,
0000
1000
0000
0001
1000
0000
0100
0010
,
0000
0001
0000
0100
0001
0000
1000
0100
,
0000
0010
0000
0001
1000
0000
0001
0100
,
0000
0010
1000
0000
0100
1000
0001
0100
,
0000
0001
0010
0000
0100
0010
0001
0100
,
0000
1000
0001
0000
1000
0010
0100
0001
,
0000
0010
0000
0001
0000
0100
0000
0001
,
1000
0100
0010
0000
0001
0000
0100
0001
,
0000
0010
0000
0001
0000
1000
0100
0010
,
0000
0001
0000
0100
0001
0010
0001
1000
,
0000
0100
1000
0010
0000
1000
0100
0001
,
0000
0010
0000
0001
0100
0010
1000
0001
,
0000
0001
0000
0010
0001
0000
0010
0100
,
0000
1000
0100
0000
1000
0000
0001
0100
,
0000
0010
0000
1000
0000
0100
0010
0001
,
1001
0000
0000
1000
0001
1000
0001
0000
,
0000
1010
0000
0000
0101
0000
0010
0100
,
0000
0110
0000
0001
1000
0000
0000
1100
,
0000
0010
0001
1000
0100
0010
0001
0100
,
1000
0001
1000
0001
1000
0001
1000
0001
,
0010
0000
1000
0001
0100
0000
0010
0000
,
1000
0000
0100
0010
0001
0000
0100
0000
,
0001
0000
0010
0001
1000
0000
0010
0000
,
0100
0000
0001
1000
0001
0000
0100
0000
,
0110
0000
1000
0100
0010
0000
0001
0000
,
0100
0000
0010
1000
0001
0000
0010
0000
,
0100
0000
0010
0001
0100
0000
1000
0000
,
0001
0000
1000
0010
1000
0000
0100
0000
,
0010
0000
0001
0100
0001
0000
0010
0100
,
1000
0000
0010
1000
0001
0000
1000
0100
,
0010
0000
0100
1000
0001
0000
0100
0010
,
0100
0000
0001
0010
0001
0000
1000
0100
,
0010
0000
0001
0100
0001
0000
1000
0100
,
0001
0000
1000
0100
0010
0000
0100
1000
,
0001
0000
0010
0001
0100
0000
0010
1000
,
0001
0000
1000
0100
0010
0000
0100
2000
,
0002
0000
0000
0000
,
0000
0000
0000
0000
,
0000
0000
0000
3003
;

//---------------dance-single - ----------------
#NOTES:
     dance-single:
     :
     Hard:
     13:
     :
0000
0000
0000
0000
,
0000
0000
0000
0000
,
0000
0000
0000
0000
,
0000
0000
0000
0000
,
0000
0000
0000
0000
,
0000
0000
0000
0000
,
0000
0000
0000
0000
,
0000
0000
0000
0000
,
0001
0000
0100
0010
0100
0000
1000
0100
,
1000
0000
0010
0001
0010
0000
1000
0100
,
0001
0000
0010
1000
0010
0000
0001
0010
,
1000
0000
0010
0100
0010
0000
1000
0001
,
0100
0000
0100
0010
1000
0000
1000
0100
,
0001
0000
0010
0001
1000
0000
0001
0100
,
0010
0000
0100
0001
0010
0000
0100
1000
,
0001
0000
1000
0100
0010
0000
0001
0100
,
0010
0000
1000
0100
0010
0001
0100
0010
,
1000
0000
0001
0010
0001
1000
0010
1000
,
0100
0000
0010
0001
1000
0001
0010
0100
,
1000
0000
0010
1000
0001
0010
0001
1000
,
0100
0000
1000
0010
1000
0100
0001
0010
,
0100
0000
0010
0001
0010
0100
1000
0010
,
1000
0000
0001
1000
0001
0010
0001
0100
,
0010
0000
1000
0100
1000
0010
0100
0001
,
0010
0001
0100
0001
0010
0100
1000
0010
,
1000
0001
1000
0100
0001
0100
1000
0010
,
0100
0010
0100
1000
0100
0001
0010
0001
,
0010
0100
0001
0100
1000
0010
1000
0001
,
1000
0100
0001
0100
0010
0100
0001
0100
,
0010
0100
0010
1000
0010
0001
0100
0010
,
0001
0010
1000
0100
0010
0100
0001
0100
,
1000
0010
0100
1000
0100
0001
0010
0001
,
1001
0000
0000
0110
1000
0001
0100
0000
,
0000
1000
1000
0100
1000
0010
0100
0001
,
0000
0011
0000
1100
0001
0100
0010
1000
,
0000
0100
0100
1000
0001
1000
0010
0100
,
0001
0000
0000
0000
0001
0000
0000
0000
0001
0000
0000
0000
0001
1000
0001
1000
,
0001
0000
0010
0001
0100
0010
1000
0100
,
0001
0000
0010
0100
0010
0001
0100
0010
,
1000
0000
0001
1000
0100
0010
0100
1000
,
0001
0000
0010
0001
0010
0100
1000
0010
,
1000
0000
0100
0001
0100
1000
0010
0100
,
0001
0000
0010
0001
1000
0001
0010
0100
,
1000
0000
0001
1000
0100
0010
0100
1000
,
0001
0000
0010
0100
0010
0001
0100
1000
,
0001
1000
0010
0100
0000
0001
0010
0100
,
1000
0010
1000
0001
0000
0010
0001
0100
,
0001
0010
0100
1000
0000
0010
1000
0001
,
1000
0100
1000
0001
0000
0010
0001
0100
,
1000
0010
1000
0100
0000
0010
0100
0010
,
0100
0010
0001
0100
0000
0010
1000
0001
,
1000
0100
0001
1000
0000
0010
0100
0010
,
1000
0100
0010
0001
0100
0010
1000
0001
,
2002
0000
0000
3003
,
1000
0000
0100
0000
0001
0000
0100
0000
1000
0010
0000
0100
0001
0000
0010
0000
,
1000
0000
0100
0000
0001
0000
0100
0000
1000
0000
0001
0000
0000
0000
0100
0010
,
0100
0000
0001
0000
0000
0010
0000
0000
1000
0000
0000
0100
0000
0000
0010
0000
,
0000
0000
0001
0000
0000
1000
0000
0000
0100
0000
0000
1000
0000
0000
0001
0000
,
0000
0000
0010
0000
0000
0001
0000
0000
0100
0000
0000
0010
0000
0000
1000
0000
,
0000
0000
0100
0000
0000
1000
0000
0000
0001
0000
0000
0010
0000
0000
0100
0000
,
1000
0000
0001
0000
0000
0010
0000
0000
0001
0000
0000
0100
0000
0000
1000
0000
,
0000
0000
0010
0000
0000
1000
0000
0000
0001
0000
0000
0010
0000
0000
0100
0000
,
0010
0000
0001
0000
0000
1000
0000
0000
0001
0000
0000
0100
0000
0000
0010
0000
,
1001
0000
0100
0000
0000
0010
0000
0000
1000
0000
0000
0100
0000
0000
0001
0000
,
0011
0000
1100
0000
0001
0100
1000
0000
,
1010
0000
0101
0000
1000
0100
0001
0000
,
0010
0000
0001
0000
0100
0000
0001
1000
0001
0000
0100
0000
0010
0000
0000
0000
,
0100
0000
0001
0000
0010
0000
0100
1000
0100
0000
0010
0000
0001
0000
0000
0000
,
1000
0000
0001
0100
0002
0000
0000
0000
0013
0000
0100
0000
1000
0000
0000
0000
,
0010
1000
0010
0000
0200
0000
0000
0000
0301
0000
1000
0000
0001
0000
0000
0000
,
0010
0000
0001
1000
0001
0000
0100
0000
1000
0000
0100
0000
0010
0000
0000
0000
,
0010
0000
1000
0001
1000
0000
0100
0000
0001
0000
0100
0000
0010
0000
0000
0000
,
1000
0001
1000
0000
,
1000
0000
0001
0000
1000
0000
0000
0001
,
0001
0100
0010
0100
1000
0000
0000
1000
,
1000
0100
0010
0100
0001
0000
0000
0010
,
0011
0000
0110
0000
1100
0000
0000
0010
,
1010
0000
1001
0000
0101
0000
0000
0010
,
1000
0001
1000
0000
0100
0000
0010
0000
0110
0000
0000
0000
0000
0000
0010
0000
,
0001
1000
0001
0000
0100
0000
0010
0000
0110
0000
0000
0000
0000
0000
0000
0000
,
2002
0000
0000
3003
,
1000
0000
0100
0000
0001
0000
0100
0000
1000
0010
0000
0100
0001
0000
0010
0000
,
1000
0100
0001
0100
1000
0001
0000
0000
,
0100
0001
0010
0001
0100
1000
0010
1000
,
2002
0000
0000
3003
,
1000
0000
0100
0000
0001
0000
0100
0000
1000
0010
0000
0100
0001
0000
0010
0000
,
1000
0100
0001
0100
1000
0001
0000
0000
,
0100
0001
0010
0001
2000
0100
3100
0000
,
0010
0001
0100
0010
1000
0100
0001
0000
,
0010
0100
1000
0010
1000
0100
0001
0000
,
0011
0000
0100
0000
1000
0000
0000
0010
1000
0000
0100
0000
0001
0000
0000
0000
,
0010
0100
0010
0001
1000
1000
1000
0000
,
0001
0100
1000
0100
0010
0010
0010
0000
,
1000
0001
0010
0001
0100
0100
0100
0000
,
1010
0000
0100
0000
0001
0000
0000
0010
0001
0000
0100
0000
1000
0000
0000
0010
,
1000
0100
0001
0100
1000
1000
1000
0000
,
0010
1000
0001
0010
0000
0001
0001
0100
,
1000
0010
0100
0001
0000
0010
0001
0100
,
0010
2000
3001
0002
,
1003
0000
0010
0100
0000
0010
1000
0001
,
0100
1000
0100
0001
0000
0010
0010
0001
,
0100
1000
0010
1000
0000
0001
0100
0000
,
0010
1000
0100
0010
0100
1000
0001
0000
,
0100
0000
0010
1000
0001
0000
0010
0001
,
0100
0000
0010
1000
0001
0000
1000
0100
,
0010
0000
0100
0010
0001
0000
0100
0001
,
0010
0000
1000
0100
0001
0000
0010
0001
,
0100
0000
0010
1000
0001
1000
0100
0010
,
0001
0000
0010
0100
1000
0010
1000
0100
,
0001
0000
1000
0001
0010
1000
0100
0010
,
0001
0000
0100
0001
0010
0100
1000
0001
,
1001
0000
0000
0110
1000
0100
0001
0000
,
0000
0010
0010
0001
0100
0010
1000
1000
,
0000
1100
0001
0100
0010
1000
0100
0010
,
0000
0011
0001
1000
0001
0100
0010
1000
,
0001
0000
0000
0000
0001
0000
0000
0000
0001
1000
0001
1000
0001
1000
0001
1000
,
0001
0000
0010
0000
0100
1000
0000
1000
0001
0000
0000
0100
0000
0000
0010
0000
,
0000
0000
1000
0000
0001
0100
0000
0100
0010
0000
0000
1000
0000
0000
0001
0000
,
0000
0000
0010
0000
0100
0010
0000
0010
0001
0000
0000
1000
0000
0000
0001
0000
,
0000
0000
0100
0000
0010
1000
0000
1000
0001
0000
0000
1000
0000
0000
0100
0000
,
0010
0000
0002
2000
0000
0000
0000
0000
0000
0000
0000
0000
3003
0000
0010
0000
,
2000
0100
3100
0010
0110
0000
0000
0000
,
0001
0000
0100
0000
0010
1000
0000
1000
0100
0000
0000
0010
0000
0000
0001
0000
,
1001
0000
0100
0000
0010
1000
0000
0010
1000
0000
0010
1000
0000
0010
1000
0000
,
1010
0000
0101
0000
0010
0001
1000
0000
,
1100
0000
0011
0000
0100
0001
1000
0000
,
0010
0000
1000
0000
0100
0000
1000
0001
1000
0000
0100
0000
0010
0000
0000
0000
,
0010
0000
0001
0000
0100
0000
0001
1000
0001
0000
0100
0000
0010
0000
0000
0000
,
1000
0000
0100
0010
0001
0000
0100
0000
0001
0000
1000
0000
0100
0000
0000
0000
,
1000
0000
0100
0010
0001
0000
1000
0000
0001
0000
0100
0000
0010
0000
0000
0000
,
1000
0000
0100
0010
0001
0000
0100
0000
0001
0000
1000
0000
0010
0000
0000
0000
,
0100
0000
0001
0010
0100
0000
1000
0000
0010
0000
0100
0000
0001
0000
0000
0000
,
1000
0001
1000
0000
,
1000
0000
0001
0000
1000
0000
0000
0001
,
0001
0010
1000
0010
0100
0000
0000
1000
,
1000
0010
0001
0010
0100
0000
0000
1000
,
1100
0000
0110
0000
0011
0000
0000
0001
,
0101
0000
1001
0000
1010
0000
0000
0010
,
1000
0100
1000
0000
0001
0000
0100
0000
0110
0000
0000
0000
0000
0000
0100
0000
,
0001
0010
0001
0000
1000
0000
0100
0000
0110
0000
0000
0000
0000
0000
0000
0000
,
2002
0000
0000
3003
,
1000
0000
0100
0000
0001
0000
0100
0000
1000
0010
0000
0100
0001
0000
0010
0000
,
1000
0100
0001
0100
1000
0001
0000
0000
,
0100
0001
0010
0001
0100
1000
0010
1000
,
2002
0000
0000
3003
,
1000
0000
0100
0000
0001
0000
0100
0000
1000
0010
0000
0100
0001
0000
0010
0000
,
1000
0100
0001
0100
1000
0001
0000
0000
,
0100
0010
1000
0001
0020
0100
0130
0000
,
1000
0010
0100
0001
0010
0100
1100
0000
,
0010
1000
0100
0010
0001
0100
1010
0000
,
0001
0000
1000
0000
0110
0000
0000
0010
1000
0000
0001
0000
0110
0000
0000
0000
,
0001
0010
1000
0100
1000
0010
0101
0000
,
0001
0010
1000
0100
0010
0001
0011
0000
,
0100
0001
0010
1000
0100
0001
0101
0000
,
0010
0000
0100
0000
1001
0000
0000
0001
0100
0000
0010
0000
1001
0000
0000
0100
,
0010
1000
0100
0010
0001
1000
0110
0000
,
0001
0100
0010
1000
0000
1000
0100
0001
,
0010
0100
0010
0001
0000
1000
0001
0100
,
0010
2000
3001
0002
,
1003
0000
0010
1000
0000
0100
0001
0100
,
0010
1000
0100
0001
0000
0010
0100
0010
,
0001
0100
0010
1000
0000
0100
1000
0000
,
0001
0100
0010
1000
0100
0001
1000
0000
,
0010
0000
0100
0000
0010
0000
1000
0000
0000
0000
0100
0000
0010
0000
0001
1000
,
0001
0000
0100
0000
0000
0010
0000
1000
0001
0000
0000
1000
0000
0000
0100
0000
,
0000
0000
0010
0000
0001
0100
0000
0001
0100
0000
0000
0010
0000
0000
1000
0000
,
0000
0000
0100
0000
1000
0001
0000
1000
0100
0000
0000
0010
0000
0000
0001
0000
,
0000
0000
0100
0000
0010
0100
0000
0001
1000
0000
0000
1000
0000
0000
1000
0000
,
0001
0000
0100
0000
0010
1000
0000
0010
1000
0000
0000
0100
0000
0000
0010
0000
,
0100
0000
1000
0000
0001
0010
0000
0010
0001
0000
0000
0100
0000
0000
0010
0000
,
1000
0000
0001
0000
0010
0001
0000
0010
0100
0000
0000
1000
0000
0000
0001
0000
,
0100
0000
0010
0000
0100
0010
0000
0100
0010
0000
0000
0100
0000
0000
0010
0000
,
2002
0000
0000
3003
,
1000
0000
0100
0000
0001
0000
0100
0000
1000
0010
0000
0100
0001
0000
0010
0000
,
1000
0000
0100
0000
0001
0000
0100
0000
1000
0000
0001
0000
0000
0000
0100
0010
,
0100
0000
1000
0000
0000
0001
0000
0000
0010
0000
0000
0001
0000
0000
0100
0000
,
0000
0000
0010
0000
0000
1000
0000
0000
0100
0000
0000
0001
0000
0000
1000
0000
,
0000
0000
0001
0000
0000
0010
0000
0000
1000
0000
0000
0100
0000
0000
0001
0000
,
0000
0000
0010
0000
0000
0100
0000
0000
0010
0000
0000
0001
0000
0000
1000
0000
,
0000
0000
0010
0000
0000
1000
0000
0000
0100
0000
0000
0010
0000
0000
0001
0000
,
0000
0000
0100
0000
0000
0001
0000
0000
0010
0000
0000
0001
0000
0000
1000
0000
,
0000
0000
0010
0000
0000
0010
0000
0000
0010
0000
0000
0010
0000
0000
0010
0000
,
0000
0000
1000
0000
0000
0001
0000
0000
1000
0000
0000
0001
0000
0000
1000
0000
,
0010
0000
1000
0000
0001
0100
0000
0010
1000
0000
0000
1100
0000
0000
0011
0000
,
0000
0000
0100
0000
0001
0010
0000
0001
1000
0000
0000
1100
0000
0000
0101
0000
,
0000
0000
1010
0000
0000
0101
0000
0000
1100
0000
0000
0101
0000
0000
1100
0000
,
0000
0000
0010
0000
0001
1000
0000
0001
1000
0000
0001
0100
0000
0010
1000
0000
,
0000
0000
0100
0000
1000
0010
0000
0100
0001
0000
0000
0010
0000
0000
0100
0000
,
0000
0000
2000
0000
0000
3020
0000
0000
0230
0000
0000
0302
0000
0000
2003
0000
,
0000
0000
3100
0000
1000
0010
0000
1000
0010
0000
0100
0001
0000
0100
0001
0000
,
0000
0000
0010
0000
0001
1000
0000
0010
0100
0000
0001
1000
0000
0010
0100
0000
,
1001
0000
0000
0110
0001
0010
1000
0000
,
0000
0010
0010
1000
0100
1000
0001
0001
,
0000
0011
0000
1010
0100
0010
1000
0001
,
0000
0010
0001
0100
0010
1000
0100
0010
,
0001
0000
1000
0000
0001
0000
1000
0000
0001
1000
0001
1000
0001
1000
0001
1000
,
0001
0000
0010
0001
1000
0000
0010
1000
,
0100
0000
0010
0001
1000
0000
0001
0010
,
1000
0000
0100
0010
0100
0000
1000
0010
,
1000
0000
0001
0100
0010
0000
1000
0001
,
0100
0000
0010
1000
0100
0000
0010
0100
,
0010
0000
0100
0010
0001
0000
0001
0100
,
1000
0000
0010
1000
0001
0000
1000
0100
,
0010
0000
0001
1000
0010
0000
1000
0001
,
0010
0100
0010
0001
0100
1000
0100
0001
,
0100
1000
0100
0010
0100
1000
0100
0010
,
1000
0100
0001
0010
0001
0010
1000
0010
,
0001
0010
0100
0010
0001
0100
0010
1000
,
0001
0010
1000
0100
0010
0100
0010
0100
,
0010
0001
0100
1000
0001
1000
0010
1000
,
0100
0010
1000
0010
0001
0100
1000
0001
,
0010
0000
0001
0000
0100
0000
0010
0000
1000
0000
0100
0000
0010
0000
0001
2000
,
0002
0000
0000
0000
,
0000
0000
0000
0000
,
0000
0000
0000
3003
;
