#TITLE:BOMBER BOMBER;
#ARTIST:DJ NAGAI;
#BANNER:BOMBER BOMBER-bn.png;
#BACKGROUND:BOMBER BOMBER-bg.png;
#JACKET:BOMBER BOMBER-jacket.png;
#MUSIC:BOMBER BOMBER.ogg;
#SAMPLESTART:38.705;
#SAMPLELENGTH:20;
#DISPLAYBPM:193;
#BPMS:0=193;
#BGCHANGES:;

//---------------dance-single - ----------------
#NOTES:
     dance-single:
     :
     Beginner:
     5:
     :
0000
0000
0000
0000
,
0000
0000
0000
0000
,
0000
0000
0000
0000
,
0000
0000
0000
0000
,
1000
0000
1000
0000
,
0001
0000
0000
0000
,
0010
0000
0001
0000
,
0100
0000
0010
0000
,
1001
0000
0100
0000
,
1001
0000
0010
0000
,
1000
0000
0100
0000
,
0001
0000
0010
0000
,
0001
0000
0100
0000
,
0001
0000
1000
0000
,
1000
0000
0010
0000
,
0100
0000
0100
0000
,
0010
0000
1000
0000
,
0100
0000
1000
0000
,
0001
0000
0001
0000
,
0001
0000
0010
0000
,
0001
0000
0100
0000
,
0010
0000
1000
0000
,
0100
0000
1000
0000
,
0001
0000
0001
0000
,
1001
0000
0000
0000
,
0010
0000
0010
0000
,
0110
0000
0000
0000
,
0001
0001
0001
0000
,
1000
0000
1000
0000
,
0001
0000
0001
0000
,
0100
0100
0100
0100
,
0000
0000
0000
0000
,
0001
0001
0001
0000
,
0010
0000
0001
0000
,
0100
0000
0010
0000
,
1000
0000
1000
0000
,
0100
0100
0100
0000
,
1000
0000
0001
0000
,
0010
0000
0001
0000
,
1000
0000
1000
0000
,
0010
0010
0010
0000
,
1000
0000
0100
0000
,
0001
0000
0010
0000
,
0001
0000
1000
0000
,
0001
0001
0001
0000
,
1000
0000
0010
0000
,
1000
0000
0100
0000
,
1001
0000
0000
0000
,
0001
0000
0000
0000
,
1000
0000
0000
0000
,
0010
0000
0000
0000
,
0100
0000
0001
0000
,
1000
0000
0010
0000
,
1000
0000
0000
0000
,
0001
0000
0010
0000
,
0001
0000
0001
0000
,
1001
0000
0100
0000
,
1001
0000
0010
0000
,
1000
0000
0100
0000
,
1000
0000
0001
0000
,
0010
0000
0001
0000
,
0100
0000
1000
0000
,
1000
0000
0001
0000
,
0010
0000
0010
0000
,
1001
0000
0000
0000
,
0010
0000
1000
0000
,
0110
0000
0000
0000
,
0001
0000
0100
0000
,
0001
0000
0010
0000
,
0001
0000
0010
0000
,
0100
0100
0100
0100
,
0000
0000
0000
0000
,
1000
0001
1000
0000
,
0010
0000
0100
0000
,
0001
0000
0010
0000
,
0001
0001
0001
0000
,
1000
0100
1000
0000
,
0010
0000
0100
0000
,
0001
0000
0010
0000
,
1000
0000
1000
0000
,
0100
1000
0100
0000
,
0010
0000
0001
0000
,
1000
0000
0001
0000
,
0100
0100
0100
0000
,
0010
0100
0010
0000
,
1000
0000
0001
0000
,
0010
0000
0001
0000
,
1001
0000
0000
0000
,
0001
0000
0000
0000
,
1000
1000
1000
1000
,
1000
0000
0000
0000
;

//---------------dance-single - ----------------
#NOTES:
     dance-single:
     :
     Easy:
     7:
     :
0000
0000
0000
0000
,
0000
0000
0000
0000
,
0000
0000
0000
0000
,
0000
0000
0000
0000
,
1000
0000
0001
0100
,
1000
0000
0010
0100
,
0001
0000
0010
0000
,
0001
0000
1000
0000
0010
0100
0010
0100
,
0010
0000
0000
0000
1000
0000
0000
0001
,
0000
0000
0010
0100
,
1000
0000
0001
0000
,
1000
0010
0100
0001
,
0010
0000
0000
0000
0001
0000
0000
1000
,
0000
0000
0010
0100
,
0010
0000
1000
0000
,
0001
0001
1000
1000
,
0010
1000
0100
0001
,
0010
0000
0001
0100
,
1000
0000
1000
0000
,
0010
1000
0001
0100
,
0001
0010
1000
0100
,
0001
0000
0010
0100
,
1000
0000
0001
0000
,
0100
0100
0010
0010
,
1001
0000
0110
0000
,
0001
0100
1000
1000
,
0010
0000
0000
0100
0000
0000
0001
0000
,
1000
0100
0001
1001
,
0010
0010
0100
0100
,
1000
0001
1000
0001
,
1100
0101
1100
0101
,
0010
0000
1001
1001
,
0001
0100
0001
0100
,
1000
0010
0100
0001
,
0010
0001
0010
0100
,
1000
0010
1000
0001
,
0100
0010
0100
0010
,
1000
0100
1000
0001
,
0010
0001
0010
0100
,
1000
1000
0001
0001
,
0100
0100
0100
0010
,
1000
0100
1000
0001
,
0010
0001
0100
0010
,
1000
0100
1000
0001
,
0010
0001
0001
1000
,
0010
1000
0100
0001
,
0100
0010
0100
0010
,
1001
1000
0100
0010
,
0001
0000
0001
0000
,
0001
0000
0001
0000
,
1000
0100
1000
0100
,
0010
0000
0001
0100
,
1000
0100
1000
0000
,
0001
0000
0010
0000
,
0001
0100
1000
1000
,
0010
0010
0100
0100
,
0001
0000
0000
0000
0010
0000
0000
1000
,
0000
0000
0100
1000
,
0001
0000
0100
0000
,
0100
0010
1000
0001
,
0010
0000
0000
0000
0001
0000
0000
0100
,
0000
0000
1000
1000
,
0001
0000
0010
0000
,
0001
0001
1000
1000
,
1001
0000
0000
0110
0000
0000
0000
0000
,
0001
0100
1000
1001
,
0110
0000
0000
1001
0000
0000
0000
0000
,
0010
1000
0001
1001
,
0010
0010
0001
0001
,
0100
0100
1000
1000
,
1100
0101
1100
0101
,
0010
0000
1001
1001
,
0010
1000
0010
0100
,
0001
0010
0001
0100
,
1000
0010
1000
0100
,
0010
0010
0010
0001
,
0100
0001
0010
0001
,
0100
0010
0100
0001
,
0010
0001
0100
1000
,
0010
0010
0100
0100
,
0001
0001
0010
0001
,
0010
1000
0100
0010
,
0001
0100
0001
0010
,
0001
0100
0010
1000
,
0100
0100
1000
1000
,
0100
1000
0010
0100
,
0001
0010
0001
0100
,
1001
1000
0100
0010
,
0002
0000
0000
0000
,
1000
1000
1000
1000
,
1003
0000
0000
0000
;

//---------------dance-single - ----------------
#NOTES:
     dance-single:
     :
     Medium:
     12:
     :
0000
0000
0000
0000
,
0000
0000
0000
0000
,
0000
0000
0000
0000
,
0000
0000
0000
0000
,
1000
0000
0000
0000
0001
0000
1000
0100
,
0000
0000
0000
0000
0000
0010
0001
0100
,
0000
0000
0000
0000
1000
0000
0000
1000
,
0000
0001
1000
0000
1000
0100
1000
0100
,
0010
0000
0001
0000
0100
0000
0001
1000
,
0010
0000
0000
0000
1000
0100
0010
0001
,
0100
0000
0000
0000
0101
0000
0000
1010
,
0000
0002
0023
0230
,
1300
0000
0010
0000
1000
0001
0100
0010
,
1000
0000
0000
0000
0001
1000
0100
0010
,
0001
0000
1001
0000
,
1000
0100
0010
0001
1000
0100
0010
0001
,
0100
0000
0010
1000
0001
0000
0010
1000
,
0100
0000
1000
0000
1010
0000
0001
0100
,
0010
1000
1100
0001
,
0100
0001
0010
0000
0001
1000
0010
0100
,
0001
0000
0010
0100
1000
0000
0010
0100
,
0001
0000
1000
0000
0010
1000
0100
0010
,
0001
0000
0010
0001
0100
0000
0010
0000
,
1000
0100
0010
0001
1000
0100
0010
0001
,
0200
0000
0000
0010
0000
1000
1000
0000
,
0301
0000
0001
1000
0100
1000
0001
0000
,
0011
0000
0001
0100
1000
0000
1010
0000
,
1000
0100
0001
0000
1001
0000
0110
0000
,
2000
0000
0010
0000
0100
0000
3001
1000
,
0001
0010
0100
0000
1000
0001
0100
0000
,
0101
0000
0000
1100
0000
0000
0100
0000
0100
0000
0100
0000
,
0000
1000
0000
0001
1000
0000
1000
0000
,
1001
0000
0101
0000
0011
0000
1000
0001
,
0000
0100
0000
0002
0000
0013
0100
1000
,
0000
0010
0100
0000
0001
1000
0001
1000
,
0010
0000
0000
0010
0000
0000
0010
0000
0000
0000
1000
0000
0001
0000
0000
0000
,
1001
0000
1010
0000
1100
0000
0001
1000
,
0000
0010
0000
0200
0000
0301
1000
0100
,
0000
0010
0001
0100
0000
0001
1000
0000
,
1000
0100
0010
0001
1000
0100
0010
0001
,
0100
0000
0110
0000
1001
0000
0010
1000
,
0000
0001
0000
0020
0000
0031
0100
1000
,
0000
0010
0100
0000
0001
1000
0001
1000
,
0100
0000
1000
0001
0000
1000
0001
0100
,
0010
0000
1010
0000
0101
0000
1000
0100
,
0000
0010
0000
0002
0000
1003
0001
0100
,
0000
0010
1000
0100
1000
0010
1000
0100
,
1000
0002
0023
0230
,
1300
0000
0010
0000
,
0100
0001
0000
0000
0011
0000
0000
0000
,
0001
1000
0001
0000
0100
0000
0000
0110
,
0000
1001
0000
0000
1000
0100
0010
0001
,
0100
0010
0100
0000
0001
0000
1000
0100
,
0000
1100
0000
0000
1010
0000
0000
0000
,
0001
1000
0001
0000
0010
0000
0001
0000
,
1000
0100
0010
0001
1000
0100
0010
0001
,
0100
0000
0010
1000
0001
0000
0100
0000
,
0001
1000
0000
0001
1000
0000
0110
0000
,
0001
0000
1000
0100
1000
0000
0001
0000
,
0010
0001
0200
0000
0320
0000
2030
0000
,
3001
0000
0010
0001
1000
0100
1000
0001
,
0100
0000
0010
0000
1000
0001
1000
0001
,
0010
0000
0001
0100
1000
0000
0010
0000
,
1000
0100
0010
0001
1000
0100
0010
0001
,
0200
0000
0000
0010
0000
0001
0301
1000
,
0001
0000
0000
0100
0000
0000
0010
0000
1000
0000
0001
0000
0100
0000
0000
0000
,
0010
1000
0000
0001
0100
0000
1001
0000
,
1000
0000
0000
0100
0000
0000
1000
0000
0001
0000
0100
0000
0010
0000
0000
0000
,
1000
0100
0001
0000
0001
0100
1000
0000
,
1000
0010
0001
0000
0001
0010
1000
0000
,
1100
0000
0000
0101
0000
0000
0100
0000
0100
0000
0100
0000
,
0000
0001
0000
1000
0001
0000
0001
0000
,
0011
0000
0110
0000
1100
0000
0010
1000
,
0000
0100
0000
2000
0000
3010
0100
0001
,
0000
1000
0100
1000
0100
1000
0100
1000
,
0100
0000
1000
0001
0000
0001
0010
0100
,
1000
0000
1001
0000
0110
0000
0001
0100
,
0000
0010
0000
0200
0000
0301
1000
0010
,
0000
0100
0001
0010
0000
0001
1000
0000
,
0001
0010
0100
1000
0001
0010
0100
1000
,
0010
0000
0101
0000
1010
0000
0001
1000
,
0000
0010
0000
2000
0000
3100
0001
0010
,
0000
0001
1000
0000
0010
1000
0010
1000
,
0001
0000
0000
0001
0000
0000
0001
0000
0000
0000
1000
0000
0100
0000
0000
0000
,
1100
0000
0110
0000
0011
0000
0100
0001
,
0000
1000
0000
0002
0000
0013
0100
1000
,
0000
0010
0100
0010
0000
1000
0100
0010
,
0001
2000
3200
0320
,
0032
0000
0000
0000
,
1000
1000
1000
1000
,
1003
0000
0000
0000
;

//---------------dance-single - ----------------
#NOTES:
     dance-single:
     :
     Hard:
     14:
     :
0000
0000
0000
0000
,
0000
0000
0000
0000
,
0000
0000
0000
0000
,
0000
0000
0000
0000
,
1000
0000
0000
0000
0001
0010
1000
0100
,
0000
0000
0000
0000
0010
0001
0100
1000
,
0001
0000
0000
0000
0101
0000
0000
1100
,
0000
0001
0001
1000
0010
0010
0010
0010
,
1001
0000
0100
0000
1001
0010
1000
0001
,
0100
0100
0110
1001
,
1100
0000
0001
0000
0101
0000
0010
1000
,
0100
0010
0001
0000
0001
1000
0010
0100
,
0001
0000
0010
0000
0001
1000
0010
0100
,
0001
0000
0001
0000
1000
0010
1000
0100
,
0010
0010
0011
0001
,
1000
0100
0010
0001
1000
0100
0010
0001
,
1001
0000
0000
0000
0010
0000
1000
0100
1000
0000
0001
0000
0100
0000
0010
0000
,
1000
0000
0100
0000
0000
0000
0001
0000
0001
0000
0010
0000
0001
0000
0100
0010
,
0100
0000
0001
1000
0010
0000
0100
0001
,
0010
0001
1000
0000
0001
0010
0100
1000
,
0010
0000
0000
0000
1000
0000
0001
0100
0001
0000
0010
0000
0100
0000
1000
0000
,
0010
0000
0000
0000
0100
0000
0001
0000
1000
0000
0001
0000
0010
0000
0100
1000
,
0100
0000
0010
0001
1000
0010
0100
0001
,
1000
0100
0010
0001
1000
0100
0010
0001
,
1001
0000
0001
0100
0010
0100
0001
0000
,
1000
0100
1000
0100
1000
0000
0001
0000
0001
0000
0100
0010
0100
0000
0000
0000
,
0101
0000
0001
0100
1000
0000
1100
0000
,
0010
0001
0010
0000
0001
0000
0100
0000
1000
0000
0010
0000
0010
0000
0000
0000
,
1000
0100
1000
0100
0010
0001
0010
0001
,
0100
0001
0100
0001
1000
0010
1000
0010
,
1000
0001
1000
0001
1000
0001
0100
0000
0100
0000
0100
0000
,
0000
0101
0000
1000
0101
0000
0101
0000
,
1001
0000
1100
0000
0101
0000
0010
0001
,
0010
0100
1000
0010
0001
0010
1000
0100
,
0010
0001
1000
0000
0100
0100
1000
1000
,
0010
0000
0000
1000
0000
0000
0001
0000
0000
0000
0100
0000
0001
0000
0010
0000
,
1001
0000
1010
0000
0011
0000
0100
0001
,
0010
0001
0100
2000
0000
3010
1000
0100
,
0010
0000
0010
0000
0001
0000
0001
0000
1000
0000
1000
0000
0010
0100
0010
0100
,
0010
1000
0001
0100
0010
1000
0001
0100
,
0001
0010
0001
0010
0001
0000
0000
0000
1000
0100
1000
0100
1000
0000
0001
0000
,
0100
0000
0010
0000
1000
0000
0001
0020
0000
0000
0031
0000
0100
0000
1000
0000
,
0010
1000
0001
1000
0100
0100
0010
0010
,
0001
0000
0100
0010
0000
0000
1010
0000
0000
0000
0001
0000
0100
0000
1000
0000
,
1001
0000
0000
0000
0101
0000
0000
0000
0011
0000
0000
0000
1000
0010
1000
0010
,
1000
0000
0100
0000
1000
0000
0001
0200
0000
0000
0310
0000
0100
0000
0001
0000
,
0010
0010
0100
0100
1000
0001
1000
0001
,
1002
0203
0320
0130
,
0110
0001
0110
0000
,
1000
0010
0000
0000
1100
0000
0000
0000
,
0001
0001
0001
0000
0010
0000
0001
0100
,
0000
0010
1000
0100
0001
0100
1000
0010
,
0100
0001
0100
0001
0100
0001
0100
0010
,
0000
1010
0000
0001
0100
0100
0000
0000
,
0010
0010
0010
0000
1001
0000
0110
0000
,
1000
0100
0010
0001
1000
0100
0010
0001
,
1001
0000
0010
1000
0110
0000
0001
0100
,
0010
0000
1000
0001
1000
0000
0100
0010
,
0001
0000
0100
0010
1000
0000
0001
0000
,
1000
0100
0010
0001
1000
0100
0010
0001
,
0101
0000
0010
1000
0100
1000
0010
0001
,
0100
0000
0001
0010
0001
0100
0010
1000
,
0100
0000
1000
0001
0010
0000
0001
0100
,
0001
0010
0100
1000
0001
0010
0100
1000
,
1001
0000
0010
1001
0000
0100
0100
0001
,
0010
0001
0010
0001
0000
0000
1100
0000
1100
0000
0001
1000
0001
0000
0000
0000
,
1010
0100
0000
1010
0100
0001
1000
0000
,
0001
0000
0000
0001
0000
0000
0001
0000
0001
0000
0010
0000
1000
0000
0000
0000
,
0001
0100
0001
0100
0001
0000
0000
0000
1000
0100
1000
0100
1000
0000
0000
0000
,
0001
0010
0001
0010
0001
0000
0000
0000
1000
0010
1000
0010
1000
0000
0000
0000
,
0001
1000
0001
1000
0001
1000
0100
0000
0100
0000
0100
0000
,
0000
1100
0000
0001
1100
0000
1100
0000
,
1001
0000
1010
0000
1100
0000
0001
0010
,
0100
0001
0100
0010
0001
0100
0010
1000
,
0100
1000
0001
1000
0010
0100
0001
0100
,
0010
0000
0000
1000
0000
0000
0100
0000
1000
0000
0010
0000
0001
0000
0100
0000
,
0110
0000
1001
0000
0110
0000
0001
0010
,
0001
0100
0010
1000
0100
0001
0100
1000
,
0010
0000
0010
0000
1000
0000
1000
0000
0100
0000
0100
0000
0010
0001
0010
0001
,
0010
0100
1000
0001
0010
0100
1000
0001
,
1000
0010
1000
0010
1000
0000
0000
0000
0001
0010
0001
0010
0001
0000
0100
0000
,
0010
1000
0100
0001
0010
0001
0100
1000
,
0101
0000
1100
0000
0010
0010
0010
0010
,
1000
0000
0000
0001
0000
0000
0200
0000
0000
0000
0010
0000
0310
0000
1000
0000
,
0001
0000
0010
0100
0010
0000
0001
0000
1000
0000
0000
0000
0010
0100
0010
0100
,
0010
0000
0000
0000
1000
0000
0001
0000
0010
0000
0001
0000
1000
0100
1000
0100
,
1000
0010
0100
0001
0010
0010
0010
0010
,
1002
0203
0320
0230
,
0302
0000
0000
0000
,
1000
1000
1000
1000
,
1003
0000
0000
0000
;
