#TITLE:fffff;
#SUBTITLE:;
#ARTIST:Five Hammer;
#TITLETRANSLIT:;
#SUBTITLETRANSLIT:;
#ARTISTTRANSLIT:;
#GENRE:;
#CREDIT:;
#MENUCOLOR:;
#METERTYPE:DDR;
#BANNER:fffff-bn.png;
#BACKGROUND:fffff-bg.png;
#LYRICSPATH:;
#CDTITLE:ddrencorecdtitle.png;
#MUSIC:fffff.mp3;
#OFFSET:-0.172;
#SAMPLESTART:48.900;
#SAMPLELENGTH:13.900;
#SELECTABLE:YES;
#LISTSORT:;
#BPMS:0.000=138.000;
#STOPS:;
#BGCHANGES:;
#ATTACKS:;

//---------------dance-single - ----------------
#NOTES:
     dance-single:
     :
     Beginner:
     1:
     0.141,0.196,0.000,0.049,0.000:
0000
0000
0000
0000
,
0000
0000
0000
0000
,
0000
0000
0000
0000
,
0000
0000
0000
0000
,
0001
0000
0010
0000
,
0100
0000
0010
0000
,
0100
0000
1000
0000
,
0001
0000
0001
0000
,
1000
0000
0010
0000
,
0100
0000
0010
0000
,
0100
0000
0001
0000
,
1000
0000
1000
0000
,
0001
0001
0000
0100
,
0000
0010
0000
0100
,
0000
0001
0000
1000
,
0000
0100
0000
0000
,
0000
1000
0000
0010
,
0000
0100
0000
0010
,
0000
1000
0000
0100
,
0000
1000
1000
0000
,
0001
0000
0000
0000
,
1000
0000
0000
0000
,
0100
0000
0000
0000
,
0020
0000
0030
0000
,
0100
0000
0000
0000
,
1000
0000
0000
0000
,
0001
0000
0000
0000
,
0200
0000
0300
0000
,
0010
0010
0010
0000
,
0010
0000
0010
0000
,
0100
0100
0100
0000
,
0100
0000
0100
0000
,
0001
0001
0001
0000
,
0001
0000
0001
0000
,
1000
1000
1000
0000
,
1000
0000
1000
0000
,
0001
0000
0010
0000
,
0100
0000
1000
0000
,
0010
0000
0100
0000
,
0001
0000
1000
0000
,
2000
0000
3000
0000
,
0002
0000
0003
0000
,
2000
0000
3000
0000
,
0001
0001
0001
0001
,
0001
0000
0000
0000
,
0100
0000
0000
0000
,
0010
0000
0000
0000
,
1000
0000
0000
0000
,
0001
0000
0000
0000
,
0010
0000
0000
0000
,
0100
0000
0000
0000
,
1000
1000
1000
1000
,
1000
0000
0100
0000
,
0010
0000
0010
0000
,
0001
0000
0100
0000
,
0010
0000
0010
0000
,
0000
0000
0000
0010
;

//---------------dance-single - ----------------
#NOTES:
     dance-single:
     :
     Easy:
     4:
     0.240,0.308,0.178,0.099,0.000:
0000
0000
0000
0000
,
0000
0000
0000
0000
,
0000
0000
0000
0000
,
0000
0000
0000
0000
,
1000
0100
1000
0100
,
0010
0001
0010
0001
,
0100
0010
0100
0010
,
1000
0100
0010
0010
,
0001
0100
0001
0100
,
0010
1000
0010
1000
,
0100
0010
0100
0010
,
0001
0000
0100
0000
,
0001
0101
0000
1100
,
0000
0110
0000
0110
,
0000
1010
0000
0011
,
0000
1001
0100
0000
,
0000
1100
0000
0101
,
0000
1001
0000
1001
,
0000
0011
0000
1010
,
0000
0000
0000
0000
0110
0000
0000
0000
2002
0000
0000
3000
0000
0000
0003
0000
,
1000
0000
0001
0000
,
0100
0001
1000
0000
,
0100
0000
0010
0000
,
2002
0000
3003
0000
,
0001
0000
1000
0000
,
0010
1000
0001
0000
,
0010
0000
0100
0000
,
2002
0000
3003
0000
,
0001
0100
0001
0000
,
0001
0000
0001
0000
,
1000
0010
1000
0000
,
1000
0000
1000
0000
,
0001
0100
0010
0000
,
0010
0000
0010
0000
,
1000
0010
0100
0000
,
0100
0000
0100
0000
,
0001
0000
0010
0000
,
0001
0000
0100
0000
,
0010
0000
1000
0000
,
0001
0010
0001
0000
,
2000
0000
3000
1000
,
0002
0000
0003
0001
,
2000
0000
3000
0001
,
1000
1000
0001
0001
,
1000
0000
0010
0000
,
0100
0001
0100
0001
,
1000
0000
0100
0000
,
0010
0100
0010
0000
,
0001
0000
0010
0000
,
0100
0000
1000
0001
,
1000
0000
0010
0000
,
1000
1000
0001
0001
,
1000
0010
1000
0010
,
0100
0001
0100
0001
,
0010
0100
1000
0001
,
0100
0001
1000
0020
,
0000
0000
0030
1001
0000
0000
0100
0000
;

//---------------dance-single - ----------------
#NOTES:
     dance-single:
     :
     Medium:
     6:
     0.364,0.364,0.128,0.089,0.059:
0000
0000
0000
0000
,
0000
0000
0000
0000
,
0000
0000
0000
0000
,
0000
0000
0000
0000
,
0001
0100
0010
1000
,
0001
0010
0001
0100
,
0010
0100
0001
1000
,
0100
0010
0100
0100
,
1000
0010
0100
0001
,
1000
0100
1000
0010
,
0100
0010
1000
0001
,
0010
0000
0010
0000
,
0001
0101
1000
1100
,
0010
1001
0100
1001
,
0010
1000
0100
0010
,
0001
0100
0010
0000
,
1000
1100
0001
0101
,
0010
1001
0100
1001
,
0010
0001
0100
0010
,
1000
0000
0000
0000
0001
0000
0000
0000
1000
0000
0000
0100
0000
0000
0010
0000
,
0001
0100
0001
0001
,
1000
0010
1000
0100
1000
0000
0001
0000
,
0000
0001
0010
0100
1000
0000
0001
0000
,
2002
0000
0000
0000
0003
0000
0000
0000
3100
0000
0000
0010
0000
0000
0001
0000
,
0000
1000
0010
1000
0001
0000
1000
0000
,
0001
0100
0001
1000
0001
0000
1000
0000
,
0000
1000
0100
0010
0001
0000
1000
0000
,
2002
0000
0000
0000
3000
0000
0000
0000
0003
0000
0100
0000
0000
0010
0000
0000
,
1000
0100
1000
0100
0010
0000
0100
0000
,
0010
0001
0000
1000
0000
0010
0000
1000
,
0001
0010
0001
0010
0100
0000
0010
0000
,
0100
1000
0000
0001
0000
0100
0000
0001
,
0010
0100
0010
0100
1000
0000
0010
0000
,
0100
0001
0000
1000
0000
0010
0000
1000
,
0100
0010
0100
0010
0001
0000
0100
0000
,
0010
1000
0001
2000
,
3000
0001
0000
0100
0000
0001
0000
0010
,
0000
0100
0000
1000
0000
0010
0000
0100
,
0000
0010
0000
1000
0000
0001
0000
0010
,
0000
0100
0000
1000
0000
0001
0000
0100
,
0002
0100
0100
0103
,
2000
0010
0010
3010
,
0002
0000
1000
0000
1000
0000
1003
0001
,
0100
0100
0010
0010
,
1000
0000
0000
1000
0000
0000
0001
0000
0000
0001
0000
0000
0100
0000
0000
0000
,
0001
0000
0000
0001
0000
0000
1000
0000
0000
1000
0000
0000
0010
0000
0000
0000
,
0100
0000
0000
0100
0000
0000
0010
0000
0000
0010
0000
0000
1000
0000
0001
0000
,
0100
0000
0000
0100
0000
0000
0010
0000
0000
0010
0000
0000
1000
0000
0000
0000
,
0001
0000
0010
0000
0100
1000
0010
0100
,
0001
0000
0000
0000
0100
0000
0000
0000
0001
0000
0000
1000
0000
0000
0001
0000
,
0000
0000
0100
0010
0000
0000
1000
0001
,
0100
0100
0010
0010
,
1000
0100
0010
0001
,
0100
0001
0010
0100
,
1000
1010
0001
0011
,
0100
1000
0100
0000
0010
0001
0020
0000
,
0000
0000
0030
1001
0000
0000
0100
0000
;

//---------------dance-single - ----------------
#NOTES:
     dance-single:
     :
     Hard:
     9:
     0.640,0.672,0.326,0.188,0.469:
0000
0000
0000
0000
,
0000
0000
0000
0000
,
0000
0000
0000
0000
,
0000
0000
0000
0000
,
1000
0100
0010
0001
0100
0010
1000
0010
,
0001
0100
0010
1000
0100
0010
0001
0010
,
1000
0010
0100
0001
0010
0100
1000
0100
,
0001
0010
0100
1000
0010
0100
0001
0000
,
1000
0010
0100
0001
0010
1000
0010
0100
,
0001
0010
0100
1000
0010
0001
0010
0100
,
1000
0100
0010
0001
0100
1000
0100
0010
,
0001
0000
0010
0000
0100
0000
1000
0000
0010
1000
0010
0000
0100
0001
0100
0000
,
0001
0010
2001
0100
0000
3010
1002
0100
,
0000
0103
2001
0010
0000
3100
1002
0010
,
0000
1003
0201
0010
0000
0301
1020
0100
,
0000
0130
1001
0010
1000
0100
0001
0000
,
0100
1000
0210
0001
0000
1300
0120
0001
,
0000
0031
0210
1000
0000
0301
0120
1000
,
0000
0130
2010
0100
0000
3010
0102
0010
,
0000
0000
0103
0000
1001
0000
0010
0000
0011
0000
0000
0110
0000
0000
1100
0000
,
1001
0000
0000
0000
0010
0000
0000
0000
1000
0000
0000
0101
0000
0000
1000
0000
,
0100
0000
0010
0000
0001
0000
0100
0000
0010
1000
0010
0200
0000
0000
0000
0000
,
0300
0000
0001
0000
0010
0000
0100
0000
1000
0000
0000
0010
0000
0000
0100
0000
,
0001
0100
0001
1000
0001
0010
0001
0100
0010
0000
0000
1000
0000
0000
0101
0000
,
0000
0000
0010
0000
0100
0000
0001
0000
0010
0000
0000
1100
0000
0000
0001
0000
,
0010
0000
0100
0000
1000
0000
0010
0000
0100
0000
0100
0020
0000
0000
0000
0000
,
0030
0000
1000
0000
0100
0000
0010
0000
0001
0000
0000
0100
0000
0000
0010
0000
,
1000
0100
1000
0001
1000
0010
1000
0000
0000
0000
0001
0000
0000
1100
0000
0000
,
0001
0000
0100
0000
0001
0000
0010
0000
0001
0100
0000
0010
0000
1000
0010
0000
,
0100
0000
0010
1000
0000
0000
0100
0000
1000
0000
0010
0100
0000
0000
0001
0000
,
1000
0000
0100
0000
1000
0000
0010
0000
1000
0000
0100
0010
0000
0001
0100
0000
,
0010
0000
1000
0100
0000
0010
0100
0000
1000
0000
0001
0100
0000
0000
0100
0000
,
0001
0000
0010
0000
0001
0000
1000
0000
0010
0000
0100
0010
0000
1000
0100
0000
,
0010
0000
0001
0100
0000
0010
0100
0000
0001
0000
0010
0000
0100
0000
0100
0000
,
1000
0000
0010
0000
1000
0000
0001
0000
0100
0000
0010
0100
0000
0001
0010
0000
,
0100
0000
1000
0010
0000
0100
0010
0000
1000
0000
0001
0000
0200
0000
0010
0000
,
0300
0000
0010
0000
1000
0000
0100
0000
1000
0001
0000
0100
0000
0000
0010
0000
,
0000
0000
0010
0000
1000
0100
0000
0010
0000
0001
0000
0100
0000
0010
0000
0000
,
0000
0000
1000
0100
1000
0001
0000
0100
0000
0010
0000
1000
0000
0100
1000
0100
,
0010
0001
0000
0100
0000
0010
0000
1000
0000
0000
0001
0000
0000
0000
0100
0000
,
0020
1000
0000
0100
0000
0031
0000
0010
,
0200
0001
0000
0010
0000
1300
0000
0100
,
0020
0100
0000
0001
0000
1030
0100
0010
,
0011
1010
1100
0101
,
1000
0000
0001
0100
0001
0100
0000
0010
0000
1000
0000
0100
0000
0010
0000
0001
,
0100
0000
0000
0010
0000
0000
1000
0000
0000
0000
0001
0000
0010
0100
0010
0000
,
0100
1000
0100
0010
0001
0010
0001
0100
0001
1000
0010
1000
,
0100
0010
0001
0010
0100
1000
0010
0100
0001
0000
0000
0000
,
1000
0000
0000
0000
0000
0000
0000
0000
0000
0000
0000
0000
0000
0000
0000
0000
0000
0000
0100
0000
0000
1000
0000
0000
0100
0000
0000
1000
0000
0000
0100
0000
0000
0010
0000
0000
0001
0000
0000
0000
0100
0000
0000
0000
0010
0000
0000
0000
,
1000
0000
0000
0000
0010
0000
0000
0000
0100
0000
0000
0000
0001
0000
0000
0000
0010
0000
0000
0000
0001
0000
0000
0000
1000
0000
0000
0000
0000
0000
0000
0000
0000
0010
0000
0000
0000
0000
0000
0000
0000
0000
0100
0000
0000
0000
0000
0000
,
0000
0000
0000
0000
0001
0100
0001
0000
0000
0000
0010
0000
0001
0000
1000
0000
,
1100
0101
0011
1010
,
0001
0010
0100
1000
0010
0100
0001
0100
,
1000
0010
0100
0001
0010
0100
1000
0100
,
0001
1000
0110
0001
1000
0001
0110
1000
,
0010
1000
0010
1000
0010
1000
0010
0000
0100
0001
0100
0001
0100
0001
0200
0000
,
0000
0000
0300
1001
0000
0000
0100
0000
;

//---------------dance-double - ----------------
#NOTES:
     dance-double:
     :
     Easy:
     4:
     0.227,0.308,0.158,0.197,0.000:
00000000
00000000
00000000
00000000
,
00000000
00000000
00000000
00000000
,
00000000
00000000
00000000
00000000
,
00000000
00000000
00000000
00000000
,
00100000
00000000
10000000
00000000
,
01000000
00000000
00010000
00000000
,
00001000
00000000
00000010
00000000
,
00000001
00000000
00000001
00000000
,
00000010
00000000
00000001
00000000
,
00000100
00000000
00001000
00000000
,
00010000
00000000
00100000
00000000
,
10000000
00000000
10000000
00000000
,
00010000
01010000
00000000
01001000
,
00000000
00011000
00000000
00010100
,
00000000
00001100
00000000
00000110
,
00000000
00001001
00000100
00000000
,
00000000
00001010
00000000
00010010
,
00000000
00011000
00000000
00101000
,
00000000
00110000
00000000
01100000
,
00000000
00000000
00000000
00000000
10010000
00000000
00000000
00000000
20020000
00000000
00000000
00030000
00000000
00000000
30000000
00000000
,
00010000
01000000
00010000
00000000
,
10000000
00100000
10000000
00000000
,
01000000
00000000
00100000
00000000
,
00002000
00000000
00013000
00010000
,
00000010
00001000
00000010
00000000
,
00000100
00000001
00000100
00000000
,
00000010
00000000
00010000
00000000
,
00002000
00000000
00013000
00001000
,
01000000
01000000
02000000
00000000
,
03200000
00000000
20300000
00000000
,
31000000
01000000
02000000
00000000
,
03200000
00000000
00302000
00000000
,
00013000
00010000
00020000
00000000
,
00030020
00000000
00000230
00000000
,
00000301
00000001
00000002
00000000
,
00002003
00000000
00003200
00000000
,
00001300
00000000
00000100
00000000
,
00000010
00000000
00000001
00000000
,
00000100
00000000
00000010
00000000
,
00010000
00000000
00001000
00000000
,
02000000
00000000
00000000
00000000
,
03200000
00000000
00000000
00000000
,
20300000
00000000
00000000
00000000
,
30010000
00010000
10000000
10000000
,
01000000
00000000
00100000
00000000
,
00001000
00010000
00001000
00000000
,
00000010
00000000
00000100
00000000
,
00010000
00000000
00001000
00000000
,
01000000
00000000
00100000
10000000
,
00010000
00000000
01000000
00000000
,
00001000
00010000
00000000
00010000
,
00000010
00000010
00001000
00001000
,
00000001
00000000
00000100
00000000
,
00001000
00000000
00010000
00000000
,
00100000
10000000
00100000
10000000
,
01000000
00100000
00001000
00020000
,
00000000
00000000
00030000
00011000
00000000
00000000
00000100
00000000
;

//---------------dance-double - ----------------
#NOTES:
     dance-double:
     :
     Medium:
     6:
     0.338,0.364,0.030,0.059,0.084:
00000000
00000000
00000000
00000000
,
00000000
00000000
00000000
00000000
,
00000000
00000000
00000000
00000000
,
00000000
00000000
00000000
00000000
,
00000100
00001000
00000001
00001000
,
00000010
00000100
00000001
00001000
,
00000010
00010000
00001000
01000000
,
00100000
10000000
00010000
00010000
,
00100000
00010000
10000000
00010000
,
01000000
00100000
10000000
00010000
,
01000000
00001000
00010000
00000010
,
00000100
00000000
00000001
00000000
,
00000000
00000001
00000100
00000000
00000000
00000100
00000010
00000000
,
00000000
00000010
00001000
00000000
00000000
00001000
00000100
00000000
,
00000000
00000100
00010000
00000000
00000000
00010000
00001000
00000000
,
00000000
00001000
01000000
00000000
00100000
00000000
10000000
00000000
,
00000000
10000000
01000000
00000000
00000000
01000000
00100000
00000000
,
00000000
00100000
00010000
00000000
00000000
00010000
01000000
00000000
,
00000000
01000000
00001000
00000000
00000000
00001000
00010000
00000000
,
00000000
00000000
00010000
00000000
00000100
00000000
00000000
00000000
00000100
00000000
00000000
00010000
00000000
00000000
00001000
00000000
,
00010000
00000100
00000010
00000010
,
00000001
00000100
00000001
00001000
00000001
00000000
00000100
00000000
,
00000000
00000001
00000100
00000010
00001000
00000000
00000100
00000000
,
00020000
00000000
00000000
00000000
00000000
00000000
00000000
00000000
00031000
00000000
00000000
00001000
00000000
00000000
00001000
00000000
,
00000000
00100000
00010000
10000000
01000000
00000000
00100000
00000000
,
00010000
01000000
00010000
10000000
00010000
00000000
01000000
00000000
,
00000000
01000000
00010000
10000000
01000000
00000000
00100000
00000000
,
00002000
00000000
00000000
00000000
00000000
00000000
00010000
00000000
00003000
00000000
00010000
00000000
00000000
00010000
00000000
00000000
,
00000100
00000000
00000000
00000000
00010000
00000000
00000000
00000000
00001000
00000000
00000000
01000000
00000000
00000000
00000000
00000000
,
01000000
00100000
00000000
10000000
00000000
00010000
00000000
00010000
,
10000000
00000000
00000000
00000000
00100000
00000000
00000000
00000000
01000000
00000000
00000000
00010000
00000000
00000000
00000000
00000000
,
00010000
00100000
00000000
00001000
00000000
00010000
00000000
00010000
,
00001000
00000000
00000000
00000000
01000000
00000000
00000000
00000000
00001000
00000000
00000000
00010000
00000000
00000000
00000000
00000000
,
00010000
00000100
00000000
00001000
00000000
00000010
00000000
00000010
,
00001000
00000000
00000000
00000000
00000001
00000000
00000000
00000000
00001000
00000000
00000000
00000100
00000000
00000000
00000000
00000000
,
00000100
00000000
00000000
00000010
00000000
00000000
00000000
00000000
00000001
00000000
00000000
00000000
00001000
00000000
00000000
00000000
,
00000000
00000100
00000010
00000100
00000010
00000000
00000001
00000000
,
00000000
00000100
00000010
00000000
00001000
00000001
00000100
00000000
,
00000000
00000010
00001000
00000000
00000000
00000100
00010000
00000000
,
00001000
01000000
00100000
00000000
,
20000000
00000000
30010000
01000000
,
00020000
00000000
00130000
00001000
,
00200000
00000000
00000000
00000000
00300000
00000000
00010000
01000000
,
00100000
00100000
10000000
10000000
,
01000000
00000000
00000000
01000000
00000000
00000000
00100000
00000000
00000000
00100000
00000000
00000000
00010000
00000000
00000000
00000000
,
01000000
00000000
00000000
01000000
00000000
00000000
00001000
00000000
00000000
00001000
00000000
00000000
00010000
00000000
00000000
00000000
,
00000100
00000000
00000000
00000100
00000000
00000000
00000010
00000000
00000000
00000010
00000000
00000000
00000001
00000000
00000000
00000000
,
00001000
00000000
00000000
00001000
00000000
00000000
00000010
00000000
00000000
00000010
00000000
00000000
00000100
00000000
00000000
00000000
,
00000001
00000000
00000000
00001000
00000100
00000010
00000001
00000010
,
00000100
00000000
00001000
00000000
00000010
00000000
00000100
00000000
00000010
00000000
00000000
00000010
00000000
00000000
00000010
00000000
,
00000000
00000000
00010000
00001000
00000000
00000000
01000000
00010000
,
00100000
00100000
01000000
01000000
,
10000000
01010000
00010000
11000000
,
00100000
00001000
00010000
00000010
,
00000100
00000001
00000100
00000000
00000010
00001000
00000010
00000000
,
00010000
00001000
01000000
00000000
00001000
00010000
00000100
00020000
,
00000000
00000000
00030000
00011000
00000000
00000000
01000000
00000000
;

//---------------dance-double - ----------------
#NOTES:
     dance-double:
     :
     Hard:
     9:
     0.606,0.616,0.395,0.207,0.336: // measure 1
00000000
00000000
00000000
00000000
,  // measure 2
00000000
00000000
00000000
00000000
,  // measure 3
00000000
00000000
00000000
00000000
,  // measure 4
00000000
00000000
00000000
00000000
,  // measure 5
00010000
01000000
00100000
10000000
01000000
00100000
00001000
00001000
,  // measure 6
00010000
00100000
00010000
00100000
00001000
00000010
00001000
00000010
,  // measure 7
00010000
00100000
01000000
00100000
00010000
00001000
00000010
00000010
,  // measure 8
00001000
00000001
00000100
00001000
00010000
00001000
00000001
00000000
,  // measure 9
00001000
00000100
00000010
00000001
00000100
00000010
00010000
00010000
,  // measure 10
00001000
00000100
00001000
00000100
00010000
01000000
00010000
01000000
,  // measure 11
00001000
00000100
00000010
00000100
00001000
00010000
01000000
01000000
,  // measure 12
00100000
00000000
00010000
00000000
00010000
00000000
00010000
00000000
10000000
01000000
10000000
01000000
10000000
01000000
10000000
01000000
,  // measure 13
00100000
00001000
00021000
00000000
00030000
00000100
00002100
00000000
,  // measure 14
00003000
00000010
00000210
00000000
00000300
00000001
00000021
00000000
,  // measure 15
00000030
00000100
00002100
00000000
00003000
00000010
00020010
00000000
,  // measure 16
00030000
00000000
00001000
00000000
00201000
00000000
00000000
00000000
00310000
01000000
00010000
01000000
00020000
00000000
00000000
00000000
,  // measure 17
00030000
00100000
00210000
00000000
00300000
00001000
00012000
00000000
,  // measure 18
00003000
01000000
02010000
00000000
03000000
00100000
10200000
00000000
,  // measure 19
00300000
10000000
20010000
00000000
30000000
00010000
02010000
00000000
,  // measure 20
03000000
00000000
00001000
00000000
00011000
00000000
00000000
00000000
00010100
00000000
00000000
00001100
00000000
00000000
00000110
00000000
,  // measure 21
00000011
00000000
00000000
00000000
00001001
00000000
00000000
00000000
00000001
00000000
00000000
00000100
00000000
00000000
00000010
00000000
,  // measure 22
00001000
00000000
00001000
00000000
00001000
00000000
00000100
00000000
00010000
00001000
00010000
00002000
00000000
00000000
00000000
00000000
,  // measure 23
00003000
00000000
01000000
00000000
00010000
00000000
00100000
00000000
01000000
00000000
00000000
10000000
00000000
00000000
00010000
00000000
,  // measure 24
01000000
00100000
01000000
00010000
01000000
00000000
00100000
10000000
00100000
00000000
00000000
01000000
00000000
00000000
00010000
00000000
,  // measure 25
00000000
00000000
00100000
00000000
01000000
00000000
10000000
00000000
00100000
00000000
00000000
00100000
00000000
00000000
01000000
00000000
,  // measure 26
00010000
00000000
00010000
00000000
00010000
00000000
00100000
00000000
00001000
00000000
00000000
00020000
00000000
00000000
00000000
00000000
,  // measure 27
00030000
00000000
00000100
00000000
00001000
00000000
00000010
00000000
00000100
00000000
00000000
00000001
00000000
00000000
00001000
00000000
,  // measure 28
00000100
00000010
00000100
00001000
00000100
00000000
00000010
00000000
00000000
00000000
00000001
00000000
00000000
00001000
00000000
00000000
,  // measure 29
00000001
00000000
00000010
00000000
00001000
00000000
00010000
00000000
01000000
00000000
00000000
01000000
00000000
00000000
01000000
00000000
,  // measure 30
10000000
01010000
00000000
01001000
00000000
00101000
00000000
00110000
,  // measure 31
10000000
00000000
01000000
00000000
00010000
00000000
00001000
00000000
00000010
00000000
00000000
00000010
00000000
00000000
00000010
00000000
,  // measure 32
00000001
00001100
00000000
00010100
00000000
00010010
00000000
00001010
,  // measure 33
00000001
00000000
00000100
00000000
00000010
00000000
00010000
00000000
00001000
00000000
00100000
00010000
00000000
00100000
01000000
00000000
,  // measure 34
10000000
01010000
00000000
01001000
00000000
00101000
00000000
00110000
,  // measure 35
10000000
00000000
01000000
00000000
00100000
00000000
00001000
00000000
00010000
00000000
00000010
00001000
00000000
00000010
00000100
00000000
,  // measure 36
00000001
00000000
00001000
00000100
00000000
00000010
00000100
00000000
00001000
00000000
00000010
00000000
00020000
00000000
00000000
00000000
,  // measure 37
00031000
01000000
00010000
00100000
01000000
10000000
00010000
00000000
,  // measure 38
00100000
00001000
00010000
00000100
00010000
00000010
00000100
00000000
,  // measure 39
00000001
00001000
00000010
00010000
00001000
01000000
00100000
10000000
,  // measure 40
00100000
01000000
00001000
00010000
00000010
00000100
00000000
00000001
,  // measure 41
00000200
00000010
00000000
00001000
00000000
00000310
00000000
00010000
,  // measure 42
00002000
00000100
00000000
00010000
00000000
00103000
00000000
00001000
,  // measure 43
00020000
01000000
00000000
00001000
00000000
00030010
00010000
00001000
,  // measure 44
01010000
01001000
00010100
00001100
,  // measure 45
00010000
00000000
00001000
00000000
01000000
00010000
00000000
00100000
00000000
00100000
00000000
01000000
00000000
01000000
00000000
10000000
,  // measure 46
00010000
00000000
00000000
01000000
00000000
00000000
00100000
00000000
00000000
00000000
10000000
00000000
00010000
00000000
00000000
00000000
,  // measure 47
10000000
01000000
00100000
00001000
00010000
00000100
00000010
00000001
00000100
00000010
00010000
00001000
,  // measure 48
01000000
00100000
10000000
00010000
01000000
00001000
00010000
00000100
00001000
00000000
00000000
00000000
,  // measure 49
00000001
00000000
00000000
00000000
00000000
00000000
00000000
00000000
00000000
00000000
00000000
00000000
00001000
00000000
00000000
00000000
00000000
00000000
00000001
00000000
00000000
00000100
00000000
00000000
00000001
00000000
00000000
00000100
00000000
00000000
00000001
00000000
00000000
00000100
00000000
00000000
00000001
00000000
00000000
00000000
00001000
00000000
00000000
00000000
00000010
00000000
00000000
00000000
,  // measure 50
00010000
00000000
00000000
00000000
00001000
00000000
00000000
00000000
01000000
00000000
00000000
00000000
00010000
00000000
00000000
00000000
10000000
00000000
00000000
00000000
01000000
00000000
00000000
00000000
00100000
00000000
00000000
00000000
00000000
00000000
00000000
00000000
00000000
00001000
00000000
00000000
00000000
00000000
00000000
00000000
00000000
00000000
00010000
00000000
00000000
00000000
00000000
00000000
,  // measure 51
00000000
00000000
00000000
00000000
00000000
00000000
00000010
00000100
00000010
00000100
00000000
00000000
00000000
00000000
00000000
00000010
00000000
00000000
00001000
00000000
00000000
00000001
00000000
00000000
,  // measure 52
00001100
00010100
01001000
01010000
,  // measure 53
00010000
00100000
01000000
10000000
00100000
01000000
00001000
00001000
,  // measure 54
00010000
01000000
00010000
01000000
00001000
00000100
00001000
00000100
,  // measure 55
00010000
01000000
00100000
01000000
00010000
00001000
00000100
00000100
,  // measure 56
00000010
00001000
00000010
00001000
00000010
00001000
00000010
00000000
00000100
00000001
00000100
00000001
00000100
00000001
00000200
00000000
,  // measure 57
00000000
00000000
00000300
00001001
00000000
00000000
00000010
00000000
;
