#TITLE:Strange Injection;
#SUBTITLE:[SPECIAL];
#ARTIST:Shatter;
#TITLETRANSLIT:;
#SUBTITLETRANSLIT:;
#ARTISTTRANSLIT:;
#GENRE:;
#CREDIT:Spork!;
#MENUCOLOR:;
#METERTYPE:DDR;
#BANNER:strange injection-bn.png;
#BACKGROUND:strange injection-bg.png;
#LYRICSPATH:;
#CDTITLE:currentcdtitle.png;
#MUSIC:Strange Injection.mp3;
#OFFSET:-0.014;
#SAMPLESTART:24.780;
#SAMPLELENGTH:12.620;
#SELECTABLE:YES;
#LISTSORT:;
#BPMS:0.000=155.000,32.000=310.000,288.000=77.500,296.000=155.000,328.000=310.000,520.000=77.500;
#STOPS:;
#BGCHANGES:;
#ATTACKS:;

//---------------dance-single - ----------------
#NOTES:
     dance-single:
     :
     Challenge:
     12:
     1.000,1.000,0.524,0.959,0.129: // measure 1
0000
0000
0000
0000
,  // measure 2
0000
0000
0000
0000
,  // measure 3
0000
0000
0000
0000
,  // measure 4
0000
0000
0000
0000
,  // measure 5
1000
0100
1001
0010
0100
0001
0110
1000
,  // measure 6
0010
0100
1001
0010
1010
0001
1001
0100
,  // measure 7
1001
0001
0110
1000
0001
1000
0110
0001
,  // measure 8
0010
0100
1001
0010
0011
1000
0101
0100
,  // measure 9
2010
0000
3001
0010
0100
0001
0200
0000
,  // measure 10
0310
0001
1000
0010
0200
0000
0310
1000
,  // measure 11
0002
0000
0013
0100
0001
0100
2000
0000
,  // measure 12
3010
0100
0001
1000
0002
0000
0000
1003
,  // measure 13
0002
0000
0103
0010
1000
0001
0020
0000
,  // measure 14
0130
0001
0100
1000
0020
0000
0130
0001
,  // measure 15
2000
0000
3010
1000
0001
0010
2000
0000
,  // measure 16
3010
0001
0100
1000
0200
0000
0000
0310
,  // measure 17
2000
0000
3001
0010
1000
0010
0002
0000
,  // measure 18
0103
1000
0100
0001
0020
0000
0130
0010
,  // measure 19
0002
0000
1003
0010
0001
0010
2000
0000
,  // measure 20
3100
0001
0100
1000
0020
0000
0000
0130
,  // measure 21
0002
0000
1003
0100
0010
1000
0020
0000
,  // measure 22
0130
1000
0010
0001
0020
0000
0130
0001
,  // measure 23
0020
0000
0130
1000
0100
0001
0200
0000
,  // measure 24
1300
0010
0100
0001
2000
0000
0000
3010
,  // measure 25
0100
0000
0001
1000
0010
0000
1001
0000
,  // measure 26
0100
0010
0100
0010
1000
0001
1000
0001
,  // measure 27
0011
0000
0010
0100
1000
0000
0010
0000
,  // measure 28
0101
0000
0110
0000
1020
0000
1000
0030
,  // measure 29
1001
0000
1000
0010
0100
0000
1001
0000
,  // measure 30
0100
0000
0001
0000
1000
0010
0100
0001
,  // measure 31
1000
0000
0010
1000
0001
0010
1000
0000
,  // measure 32
0011
0000
0101
0000
2100
0000
0100
3000
,  // measure 33
0011
0000
0001
1000
0010
0100
0101
0000
,  // measure 34
0010
0100
0010
0100
0001
1000
0001
1000
,  // measure 35
1010
0000
0100
0001
0010
0100
1000
0000
,  // measure 36
1010
0000
0101
0000
1002
0000
1000
0003
,  // measure 37
1010
0000
0100
0001
0010
0000
1100
0000
,  // measure 38
0010
0001
0010
0001
1000
0100
1000
0100
,  // measure 39
0110
0000
0010
0001
1000
0010
0100
0000
,  // measure 40
0110
1001
0101
1100
,  // measure 41
0020
0000
1030
0002
0000
0013
0200
0000
,  // measure 42
0310
0001
1000
0010
0100
0001
1000
0100
,  // measure 43
0020
0000
0130
2000
0000
3001
0200
0000
,  // measure 44
0310
1000
0001
0100
0001
0010
0100
1000
,  // measure 45
0020
0000
0130
0002
0000
1003
0020
0000
,  // measure 46
0130
0001
0100
0010
1000
0100
0010
0001
,  // measure 47
2000
0000
3010
0002
0000
0013
2000
0000
,  // measure 48
3100
0002
0000
0103
1000
0001
0100
0000
,  // measure 49
0020
0000
1030
0002
0000
0013
0200
0000
,  // measure 50
0310
0001
1000
0010
1000
0001
0010
0100
,  // measure 51
0020
0000
0031
2000
0000
3010
0200
0000
,  // measure 52
0310
1000
0001
0100
0010
1000
0001
0010
,  // measure 53
0200
0000
0310
0002
0000
1003
0020
0000
,  // measure 54
0130
0001
1000
0001
0010
0100
1000
0001
,  // measure 55
0200
0000
0310
0002
0000
0013
2000
0000
,  // measure 56
3100
0020
0000
0130
0001
0100
1000
0000
,  // measure 57
0010
0200
0000
1000
0000
0000
0301
0000
,  // measure 58
1000
0020
0000
0001
0000
0000
1030
0000
,  // measure 59
0100
0002
0000
0100
0000
0000
0103
0000
,  // measure 60
1000
0010
0000
1001
0000
0010
1000
0001
,  // measure 61
0010
0200
0000
0001
0000
0000
1300
0000
,  // measure 62
0010
0200
0000
1000
0000
0000
0301
0000
,  // measure 63
0020
0000
0130
2000
0000
3010
0200
0000
,  // measure 64
0302
0000
0103
0020
0000
1030
0002
0000
,  // measure 65
1003
0200
0000
0001
0000
0000
1300
0000
,  // measure 66
0010
0200
0000
1000
0000
0000
0301
0000
,  // measure 67
1000
0020
0000
0001
0000
0000
0031
0000
,  // measure 68
0010
0100
0000
1001
0000
0100
0001
0010
,  // measure 69
0001
0200
0000
1000
0000
0000
0301
0000
,  // measure 70
0010
0200
0000
0001
0000
0000
1300
0000
,  // measure 71
0002
0000
1003
0020
0000
0130
0002
0000
,  // measure 72
2003
0000
3010
0200
0000
0301
0010
0000
,  // measure 73
1001
0000
0000
0000
,  // measure 74
0000
0000
0000
0000
,  // measure 75
0010
1000
0010
1000
0001
0100
0001
0100
0010
0100
0010
0100
0001
1000
0001
1000
,  // measure 76
0100
1000
0100
1000
0001
0010
0001
0010
0100
0010
0100
0010
0001
1000
0001
1000
,  // measure 77
0010
0100
0001
0100
0010
1000
0001
1000
0100
0010
0001
0010
0100
1000
0010
1000
,  // measure 78
0001
0100
0010
0100
0001
1000
0010
1000
0001
0100
0010
0100
0001
1000
0100
1000
,  // measure 79
0010
0100
1001
0010
1000
0001
1100
0010
,  // measure 80
0001
0100
1010
0001
0010
0100
1001
0010
,  // measure 81
1000
0001
1100
0010
0100
0001
1100
0010
,  // measure 82
0001
0100
1001
0010
0100
0001
1100
0100
,  // measure 83
2000
0000
3010
0100
0001
0010
0200
0000
,  // measure 84
0310
0001
1000
0010
0100
0000
0010
1000
,  // measure 85
2010
0000
3001
0010
0100
1000
0002
0000
,  // measure 86
0013
0001
0100
0010
2000
0002
0000
3003
,  // measure 87
1002
0000
0013
0001
1000
0010
0200
0000
,  // measure 88
0310
1000
0001
0010
0100
0000
1000
0001
,  // measure 89
2001
0000
3010
0100
0010
1000
0002
0000
,  // measure 90
0013
0100
1000
0001
0200
0020
0000
0330
,  // measure 91
2010
0000
3001
0010
0001
1000
0020
0000
,  // measure 92
0130
0001
1000
0100
0010
0000
0001
0010
,  // measure 93
0021
0000
0130
1000
0010
0100
0002
0000
,  // measure 94
0103
0010
1000
0001
0020
0200
0000
0330
,  // measure 95
1200
0000
1300
0001
0100
0010
0002
0000
,  // measure 96
0013
1000
0100
0010
0001
0000
0100
0010
,  // measure 97
0210
0000
0301
0010
0100
1000
0020
0000
,  // measure 98
0130
0001
0010
0100
2000
0002
0000
3003
,  // measure 99
1000
0000
0010
0100
0001
0000
1100
0000
,  // measure 100
0010
0001
0100
0010
0000
1000
0001
0000
,  // measure 101
0010
0000
0100
1000
0010
0000
1001
0000
,  // measure 102
0001
0100
1000
0100
0001
0020
0000
0000
,  // measure 103
0130
0000
1000
0001
0010
0000
1100
0000
,  // measure 104
0010
0001
0100
1000
0000
0100
0010
0000
,  // measure 105
1000
0000
0001
0010
0100
0000
0011
0000
,  // measure 106
0001
0010
1000
0010
0001
0200
0000
0000
,  // measure 107
0310
0000
0100
0010
0001
0000
1010
0000
,  // measure 108
1000
0100
0010
0001
0000
1000
0010
0000
,  // measure 109
0100
0000
0001
0010
0100
0000
0011
0000
,  // measure 110
0010
0100
1000
0010
0001
0020
0000
0000
,  // measure 111
1030
0000
0001
0100
0010
0000
1001
0000
,  // measure 112
0100
0010
1000
0100
0000
0010
0100
0000
,  // measure 113
1100
0000
0000
0101
0000
0000
1100
0000
,  // measure 114
0010
0100
0001
1000
0100
0001
0100
1000
,  // measure 115
0010
0200
0000
1000
0000
0000
0301
0000
,  // measure 116
0100
0020
0000
0001
0000
0000
1030
0000
,  // measure 117
0001
0200
0000
1000
0000
0000
1300
0000
,  // measure 118
0100
0001
0000
1001
0000
0010
0100
0001
,  // measure 119
0010
0200
0000
0001
0000
0000
1300
0000
,  // measure 120
0010
0200
0000
0001
0000
0000
1300
0000
,  // measure 121
0200
0000
0310
2000
0000
3001
0020
0000
,  // measure 122
0230
0000
1300
0020
0000
0130
0002
0000
,  // measure 123
0013
0001
0100
1000
0100
0010
1000
0001
,  // measure 124
0010
1000
0010
1000
0001
0100
1000
0010
,  // measure 125
0100
1000
0001
0010
0100
0001
0010
0001
,  // measure 126
1000
0100
0001
1000
0010
0100
1000
0010
,  // measure 127
0001
1000
0001
0010
0100
0001
0010
0100
,  // measure 128
1000
0001
0010
1000
0010
0100
1000
0010
,  // measure 129
0200
0000
0301
0020
0000
0031
0200
0000
,  // measure 130
0320
0000
1030
0002
0000
0103
0010
0000
,  // measure 131
2002
0000
0000
0000
,  // measure 132
3003
0000
0000
0000
;

//---------------dance-double - ----------------
#NOTES:
     dance-double:
     :
     Challenge:
     11:
     1.000,1.000,0.266,1.000,0.032:
00000000
00000000
00000000
00000000
,
00000000
00000000
00000000
00000000
,
00000000
00000000
00000000
00000000
,
00000000
00000000
00000000
00000000
,
00010000
00100000
00001000
00010000
00000010
00000100
00000010
00001000
,
00000001
00000010
00000100
00001000
00000010
00010000
00000100
00010000
,
00001000
00100000
00010000
01000000
00100000
10000000
00010000
00100000
,
00001000
01000000
00010000
00100000
01000000
10000000
00010000
01000000
,
00020000
00000000
00130000
00001000
00100000
00001000
00020000
00000000
,
00030100
00001000
00000100
00010000
00002000
00000000
00203000
00000000
,
00320000
00000000
01030000
00100000
01000000
00100000
20000000
00000000
,
30010000
00100000
00010000
01000000
00002000
00000000
00000000
00000000
,
00023000
00000000
00030010
00001000
00000010
00001000
00000002
00000000
,
00000013
00000100
00000010
00000100
00002000
00000000
00003020
00000000
,
00020030
00000000
00031000
00100000
00001000
00010000
00000200
00000000
,
00001300
00000010
00001000
00000010
00000200
00000000
00000000
00000000
,
00000320
00000000
00001030
00000100
00001000
00000010
00002000
00000000
,
00003100
00010000
00000100
00001000
00000020
00000000
00000230
00000000
,
00000302
00000000
00001003
00000010
00001000
00000010
00000200
00000000
,
00000310
00010000
00001000
00010000
00002000
00000000
00000000
00000000
,
00203000
00000000
00310000
01000000
00010000
01000000
00200000
00000000
,
10300000
00010000
10000000
01000000
00200000
00000000
02300000
00000000
,
23000000
00000000
30010000
01000000
00010000
00100000
00002000
00000000
,
00013000
00000100
00010000
00001000
00200000
00000000
00000000
00000000
,
00310000
00000000
01000000
00001000
01000000
00000000
00010000
00000000
,
00101000
00010000
00010100
00001000
,
00000010
00000000
00000100
00000001
00001000
00000000
00000010
00000000
,
00000101
00001010
00020010
00001000
,
00030100
00000000
00010000
00001000
00100000
00000000
00010000
00000000
,
01010000
00100000
10100000
01000000
,
10000000
00000000
00010000
00100000
00001000
00000000
00010000
00000000
,
00010100
00101000
00021000
00000000
,
00031000
00000000
00010000
00000010
00000100
00000000
00000010
00000000
,
00001010
00000100
00010100
00001000
,
00000010
00000000
00000100
00000001
00001000
00000000
00000010
00000000
,
00010010
00011000
00201000
00010000
,
01300000
00000000
10000000
00010000
01000000
00000000
00100000
00000000
,
10010000
01000000
01001000
00010000
,
00100000
00000000
01000000
10000000
00010000
00000000
00100000
00000000
,
00011000
00001100
00000201
00000000
,
00000320
00000000
00001030
00000200
00000000
00010300
00002000
00000000
,
00203000
00000000
00310000
00100000
00010000
01000000
00001000
00010000
,
00000200
00000000
00001300
00000020
00000000
00000130
00000002
00000000
,
00001003
00000110
00000001
00001100
,
00000020
00000000
00010030
00002000
00000000
00103000
00020000
00000000
,
02030000
00000000
03100000
10000000
00010000
00100000
01000000
10000000
,
00200000
00000000
01300000
00020000
00000000
00130000
00002000
00000000
,
00013000
00000200
00000000
00001300
00000010
00000100
00000001
00000000
,
00002000
00000000
00003010
00020000
00000000
00030100
00002000
00000000
,
00003020
00000000
00000130
00000001
00001000
00000010
00010000
00001000
,
00200000
00000000
00310000
02000000
00000000
03100000
20000000
00000000
,
30010000
01100000
10000000
01010000
,
00200000
00000000
10300000
00020000
00000000
00130000
00002000
00000000
,
00023000
00000000
00030100
00001000
00000010
00000100
00000001
00001000
,
00000200
00000000
00010300
00000020
00000000
00001030
00000200
00000000
,
00010300
00002000
00000000
00103000
00010000
01000000
00100000
00000000
,
10000000
00020000
00000000
00100000
00000000
00000000
01030000
00000000
,
00001000
00020000
00000000
00000010
00000000
00000000
00030100
00000000
,
00001000
00000002
00000000
00000100
00000000
00000000
00000013
00000000
,
00000100
00002000
00000000
00000010
00000000
00003010
00010000
00001000
,
01000000
00200000
00000000
10000000
00000000
00000000
01300000
00000000
,
00010000
20000000
00000000
01000000
00000000
00000000
30100000
00000000
,
02000000
00000000
03001000
00020000
00000000
00030100
00002000
00000000
,
00003020
00000000
00010030
00002000
00000000
00103000
02000000
00000000
,
13000000
00200000
00000000
10000000
00000000
00000000
01300000
00000000
,
00001000
00020000
00000000
00000100
00000000
00000000
00031000
00000000
,
00100000
00002000
00000000
01000000
00000000
00000000
00013000
00000000
,
00000010
00000200
00000000
00000001
00000000
00000301
00001000
00000100
,
00010000
00002000
00000000
01000000
00000000
00000000
00103000
00000000
,
01000000
20000000
00000000
00010000
00000000
00000000
30100000
00000000
,
02000000
00000000
03010000
00200000
00000000
00301000
02000000
00000000
,
03020000
00000000
00130000
02000000
00000000
13000000
00020000
00000000
,
00030100
00000000
00000000
00000000
,
00000000
00000000
00000000
00000000
,
00000010
00001000
00000010
00000000
00000100
00000000
00000001
00000000
00001000
00000010
00010000
00000000
00001000
00000000
00100000
00000000
,
00010000
01000000
00010000
00000000
10000000
00000000
01000000
00000000
00100000
00001000
00100000
00000000
00020000
00000000
01000000
00000000
,
01030000
00001000
01000000
00000000
00001000
00000000
00010000
00000000
00000010
00000100
00000001
00000000
00001000
00000000
00000010
00000000
,
00010000
00000100
00010000
00000000
00000010
00000000
00001000
00000000
00000100
00001000
00000100
00000000
00020000
00000000
00001000
00000000
,
00031000
00100000
00101000
00010000
01000000
00100000
10010000
01000000
,
00010000
00100000
00011000
00010000
00000100
00001000
00000010
00000100
,
00000001
00001000
00000101
00000010
00001000
00000100
00011000
00100000
,
01000000
10000000
00110000
01000000
00100000
10000000
00010000
00100000
,
00002000
00000000
00013000
00000010
00010000
00000010
00000200
00000000
,
00000301
00001000
00000010
00001000
00000200
00000000
00010300
00001000
,
02000000
00000000
03100000
10000000
00100000
10000000
00020000
00000000
,
00130000
01000000
00100000
01000000
20000000
00010000
30000000
00000000
,
02000000
00000000
03001000
00100000
00001000
00100000
00020000
00000000
,
01030000
00001000
01000000
00010000
00200000
00000000
00301000
00010000
,
00000200
00000000
00001300
00000010
00001000
00000010
00000200
00000000
,
00000301
00000010
00000100
00001000
00000020
00010000
00000030
00000000
,
00000200
00000000
00001300
00000010
00001000
00000010
00000200
00000000
,
00000310
00010000
00000100
00010000
00002000
00000000
00103000
00010000
,
20000000
00000000
30100000
01000000
00100000
01000000
00020000
00000000
,
00130000
00001000
00100000
00001000
00020000
00000100
00030000
00000000
,
00002000
00000000
00003001
00000100
00000001
00000100
00000020
00000000
,
00001030
00000100
00010000
00000100
00002000
00000000
00003010
00010000
,
00002000
00000000
01003000
00100000
01000000
00100000
20000000
00000000
,
30010000
00100000
01000000
10000000
00020000
01000000
00030000
00000000
,
00010000
00000000
10000000
01000000
00010000
01000000
20000000
00000000
,
30100000
01000000
00010000
00100000
00000000
00001000
00010000
00000000
,
00000200
00000000
00001300
00000100
00000001
00000100
00002000
00000000
,
00003010
00010000
00001000
00100000
00001000
00000200
00000000
00000000
,
00000320
00000000
00001030
00000100
00000001
00000100
00002000
00000000
,
00003010
00010000
00001000
00100000
00000000
00001000
00010000
00000000
,
00002000
00000000
01003000
00100000
00010000
00100000
20000000
00000000
,
31000000
00100000
00010000
01000000
00001000
00020000
00000000
00000000
,
00032000
00000000
00013000
00000100
00000010
00000100
00020000
00000000
,
00031000
01000000
00010000
10000000
00000000
01000000
00100000
00000000
,
02000000
00000000
13000000
00100000
00010000
00100000
20000000
00000000
,
30010000
00100000
00001000
00010000
01000000
00200000
00000000
00000000
,
02300000
00000000
13000000
00100000
01000000
10000000
02000000
00000000
,
03010000
00100000
00001000
00010000
00000000
00000010
00010000
00000000
,
00001100
00000000
00000000
00010100
00000000
00000000
00011000
00000000
,
00001000
00100000
00001000
00010000
00000100
00000010
00000001
00000100
,
00000010
00002000
00000000
00000100
00000000
00000000
00003010
00000000
,
00010000
00000200
00000000
00001000
00000000
00000000
00010300
00000000
,
00001000
02000000
00000000
00010000
00000000
00000000
03100000
00000000
,
10000000
00020000
00000000
00100000
00000000
00130000
00001000
00010000
,
00000100
00000020
00000000
00001000
00000000
00000000
00000130
00000000
,
00001000
00000002
00000000
00000100
00000000
00000000
00000013
00000000
,
00000200
00000000
00001300
00000020
00000000
00010030
00002000
00000000
,
02003000
00000000
03100000
20000000
00000000
30010000
00200000
00000000
,
01300000
10000000
01000000
00100000
00010000
01000000
00001000
00010000
,
00000100
00000010
00000001
00000100
00000010
00001000
00000100
00000001
,
00000100
00001000
00000010
00010000
00001000
00000100
00000010
00001000
,
00000100
00010000
00001000
01000000
00100000
00010000
00100000
10000000
,
01000000
00010000
01000000
00100000
00010000
01000000
00001000
00010000
,
00000100
00010000
00001000
01000000
00100000
00010000
00001000
00000100
,
00000020
00000000
00001030
00000200
00000000
00010300
00000020
00000000
,
00000230
00000000
00000301
00002000
00000000
00003010
00020000
00000000
,
02030000
00000000
00000000
00000000
,
03000000
00000000
00000000
00000000
;
