#TITLE:Today Is Tomorrow;
#SUBTITLE:;
#ARTIST:DJ Tatana Feat. Morris;
#TITLETRANSLIT:;
#SUBTITLETRANSLIT:;
#ARTISTTRANSLIT:;
#CREDIT:;
#BANNER:Today Is Tomorrow.png;
#BACKGROUND:Today Is Tomorrow-bg.jpg;
#LYRICSPATH:;
#CDTITLE:;
#MUSIC:Today Is Tomorrow.mp3;
#OFFSET:-7.760;
#SAMPLESTART:56.220;
#SAMPLELENGTH:18.000;
#SELECTABLE:YES;
#BPMS:0.000=130.050;
#STOPS:;
#BGCHANGES:;

//---------------dance-single - ----------------
#NOTES:
     dance-single:
     :
     Beginner:
     2:
     0.114,0.120,0.028,0.065,0.000:
0000
0000
0000
0000
,
0000
0000
0000
0000
,
0000
0000
0000
0000
,
1000
0000
0100
0000
,
0010
0000
0100
0000
,
1000
0000
0010
0000
,
0100
0000
0001
0000
,
0010
0000
0100
0000
,
1000
0000
0001
0000
,
0100
0000
0010
0000
,
0000
0000
0000
0000
,
1001
0000
0000
0000
,
0010
0000
0001
0000
,
2000
0000
0000
0000
,
3000
0000
0100
0000
,
1000
0000
0010
0000
,
0100
0000
0001
0000
,
0020
0000
0000
0000
,
0030
0000
0000
0000
,
0100
0000
1000
0000
,
0010
0000
0100
0000
,
0002
0000
0000
0000
,
0003
0000
1000
0000
,
0010
0000
0100
0000
,
0001
0000
1000
0000
,
0200
0000
0000
0000
,
0300
0000
0000
0000
,
0110
0000
0100
0000
,
1000
0000
0010
0000
,
0100
0000
0001
0000
,
1000
0000
0000
0000
,
1001
0000
1000
0000
,
0001
0000
0010
0000
,
0100
0000
1000
0000
,
0010
0000
0100
0000
,
0002
0000
0000
0000
,
0003
0000
0010
0000
,
0100
0000
1000
0000
,
0001
0000
0100
0000
,
0010
0000
0100
0000
,
0001
0000
1000
0000
,
0010
0000
0100
0000
,
0002
0000
0000
0000
,
0103
0000
0010
0000
,
0100
0000
0001
0000
,
1000
0000
0010
0000
,
1000
0000
0001
0000
,
0200
0000
0000
0000
,
0300
0000
0000
1000
,
0000
0000
0000
0010
,
0000
0000
0000
1000
,
0000
0000
0000
0010
;

//---------------dance-single - ----------------
#NOTES:
     dance-single:
     :
     Easy:
     4:
     0.172,0.192,0.009,0.065,0.000:
0000
0000
0000
0000
,
0000
0000
0000
0000
,
0000
0000
0000
0000
,
1000
0001
0100
0000
,
0010
1000
0100
0000
,
1000
0001
0010
0000
,
0100
1000
0001
0000
,
0010
0100
1000
0000
,
1000
0001
0100
0000
,
0100
0010
1000
0000
,
0010
0000
0100
0000
,
1001
0000
0100
0000
,
0010
1000
0001
0100
,
0020
0000
0000
0000
,
0030
0000
0100
0000
,
1000
0000
0010
0100
,
0001
0000
0001
1000
,
0020
0000
0000
0000
,
0030
0000
0010
0000
,
0100
0001
1000
0000
,
0010
1000
0001
0100
,
0020
0000
0000
0000
,
0030
0000
1000
0001
,
0010
0000
0100
1000
,
0001
0000
0100
0000
,
0020
0000
0000
0000
,
0030
0000
1000
0001
,
0100
0010
1000
0001
,
0100
0000
0010
1000
,
0001
0100
0000
0000
,
1000
0000
0010
1000
,
0001
0100
0010
1000
,
0000
0000
0010
1000
,
0001
0100
0000
0001
,
0010
0100
1000
0001
,
0100
0020
0000
0000
,
0030
0000
0100
0001
,
1000
0010
0000
0000
,
0001
0000
0100
1000
,
0010
0100
0001
1000
,
0100
0000
1000
0010
,
0100
0001
0000
0000
,
0002
0000
0100
0000
,
0103
0000
1000
0001
,
1000
0001
1000
0001
,
1000
0000
0010
0100
,
0010
0100
0010
0200
,
0000
0000
0000
0000
,
0310
0000
0000
0000
0000
0000
0000
0001
,
0000
0000
0000
0000
0000
0000
0000
0100
,
0000
0000
0000
0000
0000
0010
0000
0000
,
0000
1000
0000
0000
0000
0010
0000
0000
;

//---------------dance-single - ----------------
#NOTES:
     dance-single:
     :
     Medium:
     6:
     0.293,0.288,0.028,0.139,0.000:
0000
0000
0000
0000
,
1000
0000
0000
0000
0000
0000
0000
0001
,
0000
0000
0000
0000
,
0010
0000
0100
0000
1000
0000
0001
0100
,
0001
0010
0100
1000
,
0010
0000
0100
0000
0001
0010
0001
0000
,
1000
0010
0100
0001
,
1000
0000
0100
0000
1000
0001
1000
0000
,
0001
0100
0010
1000
,
0001
0100
0010
1000
,
0001
1000
0001
0000
1000
0001
1000
0000
,
0110
0100
0001
0010
,
0001
0100
0010
1000
,
0020
0130
0020
0130
,
0020
0130
1000
0100
,
0010
0001
1000
0010
,
0100
0001
0010
0100
,
2000
3010
2000
3010
,
2000
3010
0100
0001
,
1000
0010
0100
0001
,
1000
0010
0100
0001
,
2000
3001
2000
3001
,
2000
3001
0010
0100
,
1000
0001
0010
0100
,
1000
0001
0010
0100
,
2002
0000
0000
0000
,
3003
0000
0100
0000
,
0001
0000
1000
0000
0010
0100
0010
0000
,
0100
0010
0100
0000
0001
0000
0010
0000
,
0100
0000
1000
0000
0001
1000
0001
0000
,
0010
0001
0100
0001
,
0010
0000
0001
1000
0001
0000
1000
0001
,
1000
0010
1000
0100
,
0010
0000
0001
0000
0100
0010
0100
0000
,
0001
1000
0010
0100
,
0001
0000
1000
0010
1000
0000
0010
1000
,
0010
0100
0010
1000
,
0100
0000
1000
0000
0001
0010
0001
0000
,
0100
0010
1000
0100
,
0010
0001
0100
0010
,
1000
0100
0010
0001
,
1000
0100
0010
0001
,
0200
0010
0010
0310
,
0110
0100
1000
0100
,
1000
0100
1000
0100
,
0010
0001
0010
0001
,
0010
0001
0010
1000
,
0002
0013
0002
0013
,
0002
0000
0013
0000
0000
1000
0000
0001
,
0000
0000
0000
0000
0100
0000
0000
0010
,
0000
1000
0000
0000
0000
0001
0000
1000
,
0000
0001
0000
1000
0000
0001
0001
0000
;

//---------------dance-single - ----------------
#NOTES:
     dance-single:
     :
     Hard:
     9:
     0.399,0.409,0.074,0.158,0.005: // measure 1
0000
0000
0000
0000
,  // measure 2
0010
0000
0000
1010
0000
1000
0001
1000
,  // measure 3
0000
0000
0000
0000
,  // measure 4
0010
1000
0100
0010
0000
0100
0001
0100
,  // measure 5
0000
0000
1100
0000
1000
0100
0010
0100
,  // measure 6
0000
0010
0100
0000
0100
0000
0100
0000
,  // measure 7
1000
0010
0100
0001
0100
1000
0100
0001
,  // measure 8
0010
0000
0100
1000
0000
1000
0001
1000
,  // measure 9
0000
0000
0100
0000
0010
0100
1000
0010
,  // measure 10
0001
1000
0100
0000
0010
0100
1000
0000
,  // measure 11
0001
0100
1000
0100
0001
0010
1000
0000
,  // measure 12
0110
0100
0001
0010
,  // measure 13
1000
0010
0100
0001
0010
0100
1000
0010
,  // measure 14
2000
0000
3020
0000
0230
0000
0301
1000
,  // measure 15
0200
0000
0300
0000
1000
0001
0100
1000
,  // measure 16
0200
0000
0301
0010
0200
0000
1300
0000
,  // measure 17
0100
0010
0001
1000
0000
0001
0000
1000
,  // measure 18
0002
0000
0203
0000
0320
0000
1030
0100
,  // measure 19
0020
0000
0031
0000
0000
0100
0010
1000
,  // measure 20
0100
0000
0010
0001
1000
0010
0000
0000
,  // measure 21
1000
0010
0100
0001
0010
0100
1000
0010
,  // measure 22
2000
0000
3020
0000
0230
0000
0301
0010
,  // measure 23
0200
0000
1300
0000
0000
0010
0100
0001
,  // measure 24
0010
0000
0100
1000
0001
0100
0000
0000
,  // measure 25
0000
0000
0000
0001
0100
0010
1000
0100
,  // measure 26
2002
0000
0000
0000
,  // measure 27
3003
0000
0100
0010
,  // measure 28
0001
0100
1000
0100
0010
0100
0010
1000
,  // measure 29
0000
0000
0110
0000
1000
0010
0001
0010
,  // measure 30
1000
0100
1000
0000
0001
0000
0100
0000
,  // measure 31
0010
1000
0001
0000
0010
0001
0100
1000
,  // measure 32
0100
0010
0001
0010
0100
0010
1000
0010
,  // measure 33
0000
0000
0010
0000
1000
0010
0100
0001
,  // measure 34
0010
1000
0001
0000
0100
0000
0000
0100
,  // measure 35
0001
0100
1000
0000
0100
0001
0100
1000
,  // measure 36
0100
0010
1000
0010
0001
1000
0010
0001
,  // measure 37
0000
0000
0100
0000
0010
0100
0001
1000
,  // measure 38
0010
0100
0001
0000
0100
0000
0010
0000
,  // measure 39
1000
0000
0001
0000
0100
0000
0000
0000
0010
0000
0000
0010
0000
0000
0010
0000
,  // measure 40
0110
0000
0001
0001
0000
1000
0010
1000
,  // measure 41
0000
0000
0000
0001
0010
0100
1000
0001
,  // measure 42
0000
0100
0001
0000
0010
0000
0000
0001
,  // measure 43
0010
0001
0100
1000
0100
0010
0100
0001
,  // measure 44
0110
0000
0010
0010
0000
1000
0100
1000
,  // measure 45
0000
0000
0010
0000
0000
0100
0001
0100
,  // measure 46
0000
0000
1000
0001
0100
0010
1000
0010
,  // measure 47
0100
1000
0100
0000
0001
0000
0000
0010
,  // measure 48
0001
0100
0010
1000
0010
0100
0010
1000
,  // measure 49
0110
0000
0010
0010
0000
0100
0000
0010
,  // measure 50
0000
0000
0000
0010
1000
0010
0100
0002
,  // measure 51
0000
0000
0013
0000
0100
0100
0000
1000
,  // measure 52
0000
0001
0000
0010
0000
0100
0100
0000
;
