#TITLE:Club Can't Handle Me;
#SUBTITLE:;
#ARTIST:Flo-Rida feat. David Guetta;
#TITLETRANSLIT:;
#SUBTITLETRANSLIT:;
#ARTISTTRANSLIT:;
#CREDIT:;
#BANNER:Club Can't Handle Me.png;
#BACKGROUND:Club Can't Handle Me-bg.png;
#LYRICSPATH:Club Can't Handle Me.lrc;
#CDTITLE:;
#MUSIC:Club Can't Handle Me.mp3;
#OFFSET:-0.161;
#SAMPLESTART:98.500;
#SAMPLELENGTH:19.443;
#SELECTABLE:YES;
#DISPLAYBPM:128.000;
#BPMS:0.000=128.046,144.000=128.866,148.000=127.886,163.000=129.986,164.000=127.886,176.000=128.886,181.000=128.346,192.000=127.846;
#STOPS:;
#BGCHANGES:-20.101=bg.jpg=1.000=0=0=1,
-0.101=Club Can't Handle Me.avi=1.000=0=0=1,
99999=-nosongbg-=1.000=0=0=0 // don't automatically add -songbackground-
;

//---------------dance-single - ----------------
#NOTES:
     dance-single:
     :
     Hard:
     11:
     0.421,0.459,0.180,0.094,0.020: // measure 1
0000
0000
0000
0000
,  // measure 2
0000
0000
0000
0000
,  // measure 3
0000
0000
0000
0000
,  // measure 4
0000
0000
0000
0000
,  // measure 5
0000
0000
0000
0000
,  // measure 6
0000
0002
0000
0000
0000
0000
0000
0000
,  // measure 7
0003
0200
0000
0000
0000
0000
0000
0000
,  // measure 8
0300
0020
0000
0000
0000
0000
0000
0000
,  // measure 9
0000
0030
0000
0000
,  // measure 10
1000
0100
0010
0000
0001
1000
0001
0000
,  // measure 11
1000
0010
0100
0000
0010
0000
1000
0000
0010
0000
0100
0000
0001
0000
0000
0000
,  // measure 12
1000
0100
1000
0000
0100
0000
0010
0000
0001
0000
0010
0000
0100
0000
0000
0000
,  // measure 13
0011
0000
0000
1001
0000
0010
0001
0000
,  // measure 14
1000
0010
0100
0001
0010
0001
1000
0000
,  // measure 15
0001
1000
0100
1000
0010
1000
0001
0000
,  // measure 16
0100
0010
1000
0001
1000
0100
0010
0000
,  // measure 17
0011
0000
1100
0000
1000
0100
1000
0000
,  // measure 18
0002
0000
1000
0000
1000
0100
1000
0000
,  // measure 19
2003
0000
0001
0000
0001
0100
3001
0000
,  // measure 20
0010
0001
0100
0010
1000
0100
1000
0001
,  // measure 21
0000
0000
0100
0000
0010
0000
1000
0000
0001
0000
1000
0001
0000
1000
0001
0000
,  // measure 22
0000
1000
0100
1000
0000
0001
0100
0001
,  // measure 23
0000
1000
0010
1000
0000
0001
0010
0001
,  // measure 24
0000
0010
0001
0100
0000
0010
1000
0100
,  // measure 25
0000
0010
0001
0200
0000
0000
0300
0000
,  // measure 26
0001
0100
0001
0010
0100
1000
0010
0000
,  // measure 27
0100
0001
0010
0100
1000
1001
0002
0000
,  // measure 28
1000
0000
0103
0000
0010
1000
0100
0000
,  // measure 29
0010
0001
1000
0001
0100
0001
0200
0000
,  // measure 30
0010
0300
1000
0000
0010
1000
0100
0000
,  // measure 31
0010
0001
0100
0000
0010
1000
0001
0020
,  // measure 32
0000
0031
0000
1000
0001
1000
0001
0010
,  // measure 33
0100
0010
0001
0100
0010
1000
0001
0100
,  // measure 34
0000
1001
0000
0000
0101
0000
0010
0010
,  // measure 35
0000
1001
0000
0100
0100
0000
1100
0000
,  // measure 36
0000
0010
0000
0100
0100
0000
1001
0000
,  // measure 37
0000
0000
0000
0000
,  // measure 38
0001
0100
0010
0000
0100
0010
1000
0000
,  // measure 39
1100
0100
0010
0001
0100
0010
1000
0000
,  // measure 40
0001
0000
1000
0000
0100
0000
0010
0000
0001
0100
0010
0000
0100
0000
0000
0000
,  // measure 41
1010
0000
0000
1100
0000
0010
0001
0000
,  // measure 42
0011
0010
0100
1000
0010
1000
0001
0000
,  // measure 43
1000
0001
0100
0001
0010
0001
1000
0000
,  // measure 44
0010
0100
0001
1000
0001
0100
0010
0000
,  // measure 45
0101
0000
1010
0000
0001
0100
0001
0000
,  // measure 46
1010
0000
0100
0000
1000
0001
1000
0000
,  // measure 47
0010
0100
0001
1000
0010
0100
0001
1000
,  // measure 48
0010
0100
0001
1000
0100
0010
0001
1000
,  // measure 49
0001
0100
0010
1000
0001
1000
0100
0010
,  // measure 50
0000
0001
0100
0001
0000
1000
0100
1000
,  // measure 51
0000
0001
0010
0100
0000
1000
0010
0100
,  // measure 52
0000
0010
1000
0100
0000
0010
0001
0100
,  // measure 53
0000
0010
1000
0200
0000
0000
0300
0000
,  // measure 54
1000
0100
1000
0010
0100
0001
0010
0100
,  // measure 55
1000
0001
1000
0001
0100
0010
1000
0000
,  // measure 56
1100
0000
0101
0000
0100
0001
0100
0000
,  // measure 57
0001
0100
0001
0010
0100
1000
0010
0100
,  // measure 58
0001
1000
0001
1000
0100
0010
0001
0000
,  // measure 59
0010
0001
0100
0100
0010
1000
0001
0020
,  // measure 60
0000
0031
0000
0001
1000
0001
0100
0010
,  // measure 61
1000
0010
0100
0001
0010
0100
1000
0010
,  // measure 62
0000
1001
0000
0000
0101
0000
0010
1000
,  // measure 63
0000
1001
0000
0010
0001
0000
1001
0000
,  // measure 64
0000
0010
0000
1000
0100
0000
0010
0000
,  // measure 65
0000
0100
0010
0001
0100
0010
2000
0000
,  // measure 66
0000
3000
0000
0000
;

//---------------dance-single - ----------------
#NOTES:
     dance-single:
     :
     Easy:
     6:
     0.245,0.303,0.055,0.062,0.000: // measure 1
0000
0000
0000
0000
,  // measure 2
0000
0000
0000
0000
,  // measure 3
0000
0000
0000
0000
,  // measure 4
0000
0000
0000
0000
,  // measure 5
0000
0000
0000
0000
,  // measure 6
0000
0010
0000
0000
0000
0000
0000
0000
,  // measure 7
0000
0100
0000
0000
0000
0000
0000
0000
,  // measure 8
0000
1001
0000
0000
0000
0000
0000
0000
,  // measure 9
0000
0000
0000
0000
,  // measure 10
1000
0001
0100
0001
,  // measure 11
1000
0001
0100
0001
,  // measure 12
1000
0001
0100
0001
,  // measure 13
1001
0000
0000
0000
,  // measure 14
0001
1000
0100
1000
,  // measure 15
0001
1000
0100
1000
,  // measure 16
0001
1000
0100
1000
,  // measure 17
0100
0000
0010
0100
,  // measure 18
0002
0000
0000
0003
,  // measure 19
2000
0000
0000
3000
,  // measure 20
0001
0100
0001
0000
,  // measure 21
1000
0100
1000
1001
,  // measure 22
0000
1000
1000
1000
0000
0001
0001
0001
,  // measure 23
0000
1000
1000
1000
0000
0001
0001
0001
,  // measure 24
0000
1000
0001
1000
0000
0001
1000
0001
,  // measure 25
0000
1000
1000
2000
0000
0000
3000
0000
,  // measure 26
0001
0001
0001
0001
,  // measure 27
1000
1000
1000
1000
,  // measure 28
0010
0010
0100
0100
,  // measure 29
0001
0001
0001
0001
,  // measure 30
0100
0100
0010
0000
,  // measure 31
1000
0001
1000
0001
,  // measure 32
1001
1001
1000
0100
,  // measure 33
1000
1000
0001
0001
,  // measure 34
0000
0100
0000
0000
0000
0000
0000
0000
,  // measure 35
0000
0100
0000
0000
0000
0000
0000
0000
,  // measure 36
0000
0010
0000
0000
0000
0000
0000
0000
,  // measure 37
0100
0000
0000
0000
,  // measure 38
0001
0001
1000
1000
,  // measure 39
0001
0001
0001
0001
,  // measure 40
1000
0100
0010
0001
,  // measure 41
0001
0000
0000
0000
,  // measure 42
1000
1000
0001
0001
,  // measure 43
1000
1000
0001
0001
,  // measure 44
0100
0010
1000
1000
,  // measure 45
1001
1001
1000
1000
,  // measure 46
0010
1000
0001
0001
,  // measure 47
0010
0001
1000
1000
,  // measure 48
0010
0100
0001
0001
,  // measure 49
0010
0100
1000
1000
,  // measure 50
0000
1000
1000
1000
0000
0001
0001
0001
,  // measure 51
0000
0010
0010
0010
0000
0100
0100
0100
,  // measure 52
0000
1000
0100
1000
0000
0001
0100
0001
,  // measure 53
0000
0010
0001
0200
0000
0000
0300
0000
,  // measure 54
0001
0001
0100
1000
,  // measure 55
1000
0000
0100
1000
0100
0000
0100
0000
,  // measure 56
0010
0000
0001
1000
0100
0000
0010
0000
,  // measure 57
0010
0010
0010
0001
,  // measure 58
1000
0000
0001
0000
0010
0000
0001
1000
,  // measure 59
0001
0000
1000
0001
1000
0000
0010
0000
,  // measure 60
0010
0100
0100
0001
,  // measure 61
1000
0000
0010
0000
0100
0000
0000
0002
,  // measure 62
0000
0000
0000
0000
0003
0000
0000
2000
,  // measure 63
0000
0000
0000
0000
3000
0000
0000
0200
,  // measure 64
0000
0000
0300
1000
,  // measure 65
1000
0000
0001
0100
0002
0000
0003
0000
;

//---------------dance-single - ----------------
#NOTES:
     dance-single:
     :
     Medium:
     8:
     0.331,0.406,0.070,0.070,0.000: // measure 1
0000
0000
0000
0000
,  // measure 2
0000
0000
0000
0000
,  // measure 3
0000
0000
0000
0000
,  // measure 4
0000
0000
0000
0000
,  // measure 5
0000
0000
0000
0000
,  // measure 6
0000
0010
0000
0000
0000
0000
0000
0000
,  // measure 7
0000
0100
0000
0000
0000
0000
0000
0000
,  // measure 8
0000
1001
0000
0000
0000
0000
0000
0000
,  // measure 9
0000
0000
0000
0000
,  // measure 10
1000
0000
0001
0000
0100
0010
1000
0000
,  // measure 11
0001
0100
0001
0100
0001
0100
0001
0000
,  // measure 12
1000
0100
1000
0100
1000
0100
1000
0000
,  // measure 13
0001
0000
0000
1000
0000
0001
0100
0000
,  // measure 14
0010
0000
0100
0000
0001
0100
0001
0000
,  // measure 15
0010
0000
0100
0000
1000
0001
1000
0000
,  // measure 16
0001
1000
0001
1000
0001
0010
0001
0000
,  // measure 17
1000
0001
1000
0001
1000
0010
0100
0000
,  // measure 18
0002
0000
0000
0003
,  // measure 19
0000
2000
0000
0000
0000
0000
3000
0000
,  // measure 20
0000
0001
0100
0010
1000
0000
1001
0000
,  // measure 21
0000
1000
0100
0010
0001
0000
1001
0000
,  // measure 22
0000
1000
0001
1000
0000
0001
1000
0001
,  // measure 23
0000
0010
0001
0010
0000
0100
1000
0100
,  // measure 24
0000
1000
0001
1000
0000
0001
1000
0001
,  // measure 25
0000
1000
0010
2000
0000
0000
3000
0000
,  // measure 26
0001
1000
0001
0100
0001
1000
0001
0000
,  // measure 27
0100
0000
0100
0000
1000
0001
1000
0000
,  // measure 28
0010
0000
0010
0000
0100
0010
0100
0000
,  // measure 29
0001
1000
0001
0100
0001
1000
0001
0000
,  // measure 30
0100
0000
0100
0000
0010
1000
0001
0000
,  // measure 31
1000
0100
0010
0001
0010
0100
1000
0000
,  // measure 32
0101
0000
0101
0000
1000
0010
0100
0000
,  // measure 33
0001
0001
1000
1000
,  // measure 34
0000
0100
0000
0000
0000
0000
0000
0000
,  // measure 35
0000
0100
0000
0000
0000
0000
0000
0000
,  // measure 36
0000
0010
0000
0000
0000
0000
0000
0000
,  // measure 37
0100
0000
0000
0000
,  // measure 38
0001
1000
0001
0000
1000
0001
1000
0000
,  // measure 39
0001
0100
0001
0100
0001
0100
0001
0000
,  // measure 40
1000
0100
0010
0001
0010
0001
0100
0000
,  // measure 41
0100
0000
0000
0001
0000
0010
0001
0000
,  // measure 42
0010
0001
0100
0010
1000
0001
1000
0000
,  // measure 43
0001
0100
0001
0100
0001
0100
0001
0000
,  // measure 44
0100
0010
1000
0001
1000
0100
0010
0000
,  // measure 45
1001
0000
1001
0000
1000
0100
1000
0000
,  // measure 46
0010
0000
1000
0000
0001
0100
0001
0000
,  // measure 47
0010
0000
0001
0000
1000
0100
1000
0000
,  // measure 48
0010
1000
0100
0000
1000
0000
1000
0000
,  // measure 49
0001
0010
0100
0000
0001
0000
0001
0000
,  // measure 50
0000
1000
0100
1000
0000
0001
0100
0001
,  // measure 51
0000
1000
0010
1000
0000
0001
0010
0001
,  // measure 52
0000
0010
0001
0100
0000
0010
1000
0100
,  // measure 53
0000
0010
0001
0200
0000
0000
0300
0000
,  // measure 54
0001
1000
0001
1000
0100
1000
0001
0000
,  // measure 55
1000
0001
1000
0100
1000
0001
1000
0000
,  // measure 56
0100
0000
0010
0000
0001
1000
0100
0000
,  // measure 57
0010
0001
1000
0001
0100
0001
0200
0000
,  // measure 58
0010
0300
1000
0000
0001
1000
0001
0000
,  // measure 59
1000
0001
1000
0000
0010
1000
0010
0000
,  // measure 60
1001
0000
1001
0000
0010
1000
0100
0000
,  // measure 61
1000
0000
0001
0000
0010
0001
0100
0000
,  // measure 62
0000
0002
0000
0000
0000
0000
0003
0000
,  // measure 63
0000
2000
0000
0000
0000
0000
3000
0000
,  // measure 64
0000
0200
0000
0000
0000
0000
0300
0000
,  // measure 65
0000
0010
0001
1000
0001
0010
0200
0000
,  // measure 66
0300
0000
0000
0000
;

//---------------dance-single - ----------------
#NOTES:
     dance-single:
     :
     Beginner:
     3:
     0.248,0.309,0.055,0.062,0.000:
0000
0000
0000
0000
,
0000
0000
0000
0000
,
0000
0000
0000
0000
,
0000
0000
0000
0000
,
0000
0000
0000
0000
,
0000
0010
0000
0000
0000
0000
0000
0000
,
0000
0100
0000
0000
0000
0000
0000
0000
,
0000
1001
0000
0000
0000
0000
0000
0000
,
0000
0000
0000
0000
,
1000
0001
0100
0001
,
1000
0001
0100
0001
,
1000
0001
0100
0001
,
1001
0000
0000
0000
,
0001
1000
0100
1000
,
0001
1000
0100
1000
,
0001
1000
0100
1000
,
0100
0000
0010
0100
,
0002
0000
0000
0003
,
2000
0000
0000
3000
,
0001
0100
0001
0000
,
1000
0100
1000
1001
,
0000
1000
1000
1000
0000
0001
0001
0001
,
0000
1000
1000
1000
0000
0001
0001
0001
,
0000
1000
0001
1000
0000
0001
1000
0001
,
0000
1000
1000
2000
0000
0000
3000
0000
,
0001
0001
0001
0001
,
1000
1000
1000
1000
,
0010
0010
0100
0100
,
0001
0001
0001
0001
,
0100
0100
0010
0000
,
1000
0001
1000
0001
,
1001
1001
1000
0100
,
1000
1000
0001
0001
,
0000
0100
0000
0000
0000
0000
0000
0000
,
0000
0100
0000
0000
0000
0000
0000
0000
,
0000
0010
0000
0000
0000
0000
0000
0000
,
0100
0000
0000
0000
,
0001
0001
1000
1000
,
0001
0001
0001
0001
,
1000
0100
0010
0001
,
0001
0000
0000
0000
,
1000
1000
0001
0001
,
1000
1000
0001
0001
,
0100
0010
1000
1000
,
1001
1001
1000
1000
,
0010
1000
0001
0001
,
0010
0001
1000
1000
,
0010
0100
0001
0001
,
0010
0100
1000
1000
,
0000
1000
1000
1000
0000
0001
0001
0001
,
0000
0010
0010
0010
0000
0100
0100
0100
,
0000
1000
0100
1000
0000
0001
0100
0001
,
0000
0010
0001
0200
0000
0000
0300
0000
,
0001
0000
0001
0000
0100
0001
0100
0000
,
1000
0000
1000
0000
0100
1000
0100
0000
,
0100
0000
0010
0000
0001
1000
0100
0000
,
0010
0010
0010
0010
,
0001
1000
0001
0010
,
0001
1000
0001
0000
1000
0001
1000
0000
,
0010
0010
0100
0100
,
0001
1000
0010
0100
,
0000
0002
0000
0000
0000
0000
0003
0000
,
0000
2000
0000
0000
0000
0000
3000
0000
,
0000
0200
0000
0000
0000
0000
0300
0000
,
1000
0000
1000
0000
0001
0100
0002
0000
,
0000
0000
0000
0000
,
0003
0000
0000
0000
;
