#TITLE:Victoria;
#SUBTITLE:;
#ARTIST:Eve 6;
#TITLETRANSLIT:;
#SUBTITLETRANSLIT:;
#ARTISTTRANSLIT:;
#GENRE:;
#CREDIT:;
#BANNER:[CoCl] #002 Victoria - Eve 6bn.png;
#BACKGROUND:[CoCl] #002 Victoria - Eve 6bg.png;
#LYRICSPATH:;
#CDTITLE:;
#MUSIC:[CoCl] #002 Victoria - Eve 6.ogg;
#OFFSET:0.006;
#SAMPLESTART:48.429;
#SAMPLELENGTH:17.874;
#SELECTABLE:YES;
#BPMS:0.000=118.986
;
#STOPS:
;
#BGCHANGES:;
#KEYSOUNDS:;
#ATTACKS:;

//---------------dance-single - Spork!----------------
#NOTES:
     dance-single:
     :
     Beginner:
     1:
     0.090,0.094,0.061,0.026,0.000,62.000,7.000,3.000,0.000,0.000,0.000,0.090,0.094,0.061,0.026,0.000,62.000,7.000,3.000,0.000,0.000,0.000: // measure 0
0000
0000
0000
0000
,  // measure 1
0000
0000
0000
0000
,  // measure 2
0000
0000
0000
0000
,  // measure 3
0000
0000
0000
0000
,  // measure 4
0100
0000
0000
0000
,  // measure 5
0010
0000
0000
0000
,  // measure 6
1000
0000
0000
0000
,  // measure 7
0001
0000
0000
0000
,  // measure 8
1000
0000
1000
0000
,  // measure 9
0001
0000
0001
0000
,  // measure 10
0000
0000
0000
0000
,  // measure 11
0110
0000
0000
0000
,  // measure 12
0001
0000
0001
0000
,  // measure 13
1000
0000
1000
0000
,  // measure 14
0000
0000
0000
0000
,  // measure 15
0110
0000
0000
0000
,  // measure 16
1000
0000
0100
0000
,  // measure 17
0010
0000
0000
0000
,  // measure 18
0001
0000
0100
0000
,  // measure 19
0010
0000
0000
0000
,  // measure 20
1000
0000
0000
0000
,  // measure 21
0001
0000
0000
0000
,  // measure 22
0100
0000
0000
0000
0000
0000
0000
1001
,  // measure 23
0000
0000
0000
0000
,  // measure 24
0010
0000
0000
0000
,  // measure 25
0001
0000
0000
0000
,  // measure 26
0001
0000
0010
0000
,  // measure 27
0100
0000
1000
0000
,  // measure 28
0010
0000
0000
0000
,  // measure 29
1000
0000
0000
0000
,  // measure 30
1000
0000
0100
0000
,  // measure 31
0010
0000
0100
0000
,  // measure 32
0010
0000
0001
0000
,  // measure 33
2000
0000
0000
0000
,  // measure 34
3000
0000
0000
0000
,  // measure 35
0002
0000
0000
0000
,  // measure 36
0003
0000
0000
0000
,  // measure 37
0001
0000
0000
0000
,  // measure 38
0100
0000
0000
0000
,  // measure 39
0010
0000
0000
0000
,  // measure 40
1000
0000
0000
0000
,  // measure 41
0001
0000
0000
0000
,  // measure 42
0010
0000
0000
0000
,  // measure 43
0200
0000
0000
0000
,  // measure 44
0300
0000
0000
0000
,  // measure 45
0000
1001
0000
0000
,  // measure 46
0100
0000
0000
0000
,  // measure 47
0010
0000
1001
0000
,  // measure 48
0110
0000
0010
0000
,  // measure 49
0001
0000
0000
0000
,  // measure 50
1000
0000
0000
0000
,  // measure 51
0001
0000
0100
0000
,  // measure 52
0001
0000
0010
0000
,  // measure 53
0100
0000
0010
0000
,  // measure 54
1001
0000
0000
0000
;

//---------------dance-single - Spork!----------------
#NOTES:
     dance-single:
     :
     Easy:
     3:
     0.236,0.215,0.096,0.183,0.000,158.000,11.000,21.000,0.000,0.000,0.000,0.236,0.215,0.096,0.183,0.000,158.000,11.000,21.000,0.000,0.000,0.000: // measure 0
0000
0000
0000
0000
,  // measure 1
0000
0000
0000
0000
,  // measure 2
0000
0000
0000
0000
,  // measure 3
0000
0000
0000
0000
,  // measure 4
0001
1000
0000
0100
,  // measure 5
0010
1000
0100
0100
,  // measure 6
1000
0001
0000
0010
,  // measure 7
0100
0001
0020
0000
,  // measure 8
0031
0100
0010
0010
,  // measure 9
0100
0001
0010
0010
,  // measure 10
1001
0000
1001
0000
,  // measure 11
0100
0001
1000
0000
,  // measure 12
1000
0010
0100
0100
,  // measure 13
0010
1000
0100
0100
,  // measure 14
1001
0000
1001
0000
,  // measure 15
0010
1000
0001
0000
,  // measure 16
1000
0100
0010
0001
,  // measure 17
0100
0010
0010
0000
,  // measure 18
0001
0100
0010
1000
,  // measure 19
0100
0010
0010
0000
,  // measure 20
2000
0000
3002
0000
,  // measure 21
2003
0000
3200
0000
,  // measure 22
0320
0000
0000
0000
0032
0000
0000
2000
,  // measure 23
0000
0000
0000
0000
0000
0003
0000
0000
3000
0000
0000
0000
,  // measure 24
1001
0000
0010
0001
,  // measure 25
0100
0000
0100
0001
,  // measure 26
1000
0010
0100
0010
,  // measure 27
1000
0000
0100
1000
,  // measure 28
0001
0000
0100
0001
,  // measure 29
0010
0000
0100
0010
,  // measure 30
0001
1000
0001
0100
,  // measure 31
0020
0100
0130
0001
,  // measure 32
1000
0001
0100
0010
,  // measure 33
1002
0000
0000
0000
0010
0000
0000
0003
,  // measure 34
0100
0001
0010
0100
,  // measure 35
2001
0000
0100
0000
,  // measure 36
3010
1000
0100
1000
,  // measure 37
0001
0001
0001
0000
,  // measure 38
1000
1000
1000
0000
,  // measure 39
0020
0000
0230
0000
,  // measure 40
0310
1000
0001
0000
,  // measure 41
1000
0100
1000
0000
,  // measure 42
0001
0010
0001
0000
,  // measure 43
2000
0000
0000
0020
3000
0000
0200
0030
,  // measure 44
0000
0002
0300
0000
2000
0003
0000
3000
,  // measure 45
1001
0000
0010
1000
,  // measure 46
0100
0000
0100
1000
,  // measure 47
0001
0010
0100
0110
,  // measure 48
1001
0010
0001
1000
,  // measure 49
0001
0000
0010
0001
,  // measure 50
0100
0000
0010
0100
,  // measure 51
0001
0010
0100
1000
,  // measure 52
0020
0100
0130
0001
,  // measure 53
1000
0100
1000
0001
,  // measure 54
2002
0000
0000
0000
,  // measure 55
3003
0000
0000
0000
;

//---------------dance-single - Spork!----------------
#NOTES:
     dance-single:
     :
     Medium:
     5:
     0.311,0.335,0.218,0.322,0.000,188.000,25.000,37.000,0.000,0.000,0.000,0.311,0.335,0.218,0.322,0.000,188.000,25.000,37.000,0.000,0.000,0.000: // measure 0
0000
0000
0000
0000
,  // measure 1
0000
0000
0000
0000
,  // measure 2
0000
0000
0000
0000
,  // measure 3
0000
0000
0000
0000
,  // measure 4
2000
0100
0100
3100
,  // measure 5
0002
0100
0100
0103
,  // measure 6
2000
0001
0000
3010
,  // measure 7
0002
0000
1000
0000
0003
0100
0010
0000
,  // measure 8
1000
0100
0010
0001
,  // measure 9
0100
0010
1000
1000
,  // measure 10
0022
0033
2020
3000
,  // measure 11
0000
0100
0030
0000
2002
0000
3003
0000
,  // measure 12
0001
0100
0010
1000
,  // measure 13
0100
0010
0001
0001
,  // measure 14
2020
3030
0022
0003
,  // measure 15
0000
0100
0030
0000
2002
0000
3003
1000
,  // measure 16
0001
0100
0001
0010
,  // measure 17
0100
0000
0100
0010
0000
0000
0000
0001
,  // measure 18
1000
0010
1000
0001
,  // measure 19
0100
0000
0100
0001
0000
0000
0000
0000
,  // measure 20
2000
0000
0000
0010
3000
0000
0000
0000
,  // measure 21
0001
0002
0000
0010
0003
0000
0000
0000
,  // measure 22
0020
0000
0000
0001
0030
0001
2000
0002
,  // measure 23
0000
0000
0000
0000
0000
3000
0000
0000
0003
0000
0000
0000
,  // measure 24
1100
0000
0010
0000
1000
0001
1000
0000
,  // measure 25
0011
0000
0100
0000
0001
1000
0100
0000
,  // measure 26
0010
0100
1000
0001
,  // measure 27
0100
0000
0010
0000
1000
0001
1000
0000
,  // measure 28
0101
0000
0010
0000
0001
1000
0001
0000
,  // measure 29
1010
0000
0100
0000
1000
0001
0100
0000
,  // measure 30
0010
1000
0100
0010
,  // measure 31
1001
1001
0110
0110
,  // measure 32
0001
0000
1000
0000
0010
0100
0010
1000
,  // measure 33
0002
0000
0013
0001
,  // measure 34
0100
0000
0000
0100
0001
1000
0100
0000
,  // measure 35
2000
0000
3010
1000
,  // measure 36
0100
0000
1000
0001
,  // measure 37
0200
0010
0310
0000
,  // measure 38
2000
0100
3001
0000
,  // measure 39
0020
0100
0130
0000
,  // measure 40
0002
0010
1003
0000
,  // measure 41
0200
0010
1300
0001
,  // measure 42
0020
0100
0031
1000
,  // measure 43
0002
0000
0000
0200
0003
0000
0020
0300
,  // measure 44
0000
2000
0030
0000
0002
3000
0000
0003
,  // measure 45
0100
1001
0010
1000
,  // measure 46
0200
0000
0000
0000
1300
0100
0010
0001
,  // measure 47
0000
1000
0101
1001
,  // measure 48
1100
0000
0010
0000
0001
1000
0001
0000
,  // measure 49
1100
0000
0010
0000
1000
0001
1000
0000
,  // measure 50
0101
0000
0010
0000
0001
1000
0010
0000
,  // measure 51
0100
0001
0010
0100
,  // measure 52
1001
1001
0110
0110
,  // measure 53
0001
0000
1000
0000
0010
1000
0001
0000
,  // measure 54
2002
0000
0000
0000
,  // measure 55
3003
0000
0000
0000
;

//---------------dance-single - Spork!----------------
#NOTES:
     dance-single:
     :
     Challenge:
     10:
     0.680,0.766,0.296,0.444,0.531,462.000,34.000,51.000,208.000,2.000,0.000,0.680,0.766,0.296,0.444,0.531,462.000,34.000,51.000,208.000,2.000,0.000: // measure 0
0000
0000
0000
0000
,  // measure 1
0000
0000
0000
0000
,  // measure 2
0000
0000
0000
0000
,  // measure 3
0000
0000
0000
0000
0M00
00M0
M000
000M
,  // measure 4
1000
0010
0100
0001
0010
0000
0100
0010
0001
1000
0010
0000
0100
0000
0010
0100
,  // measure 5
0001
0010
0001
0000
0010
0000
0010
0001
0000
1000
0001
0000
0100
0000
0100
0001
,  // measure 6
1000
0000
0010
0000
1001
0000
0100
1000
0000
0001
1000
0001
0100
0000
0100
0001
,  // measure 7
0010
0100
0010
0100
0010
0000
0010
0001
1000
0000
0001
0100
0010
1000
0001
0000
,  // measure 8
20M0
0000
0200
3000
001M
0300
200M
0000
0M20
3000
0M02
0030
1M00
0003
00M1
M000
,  // measure 9
01M0
0000
M020
0000
0M01
0030
M020
0000
200M
0030
020M
3000
002M
0300
0001
0030
,  // measure 10
1001
0011
0100
1000
1001
1010
0100
0001
,  // measure 11
M010
M101
001M
100M
1100
1001
0010
101M
,  // measure 12
011M
0000
100M
0000
01M0
0000
002M
0000
M200
0030
0002
0300
01M0
0003
100M
0000
,  // measure 13
0M10
0000
0200
0000
10M0
0300
02M0
0000
M002
0300
0020
0003
M200
0030
1000
0300
,  // measure 14
1100
1001
0010
0010
1001
0011
0100
0100
,  // measure 15
10M0
0000
01M1
0000
0M10
0000
1M00
0000
0011
0000
1001
0000
0100
0000
01M0
0001
,  // measure 16
M200
M010
M301
10M0
002M
010M
103M
0M01
,  // measure 17
M010
1100
00M1
M100
1001
1010
0001
1M00
,  // measure 18
001M
1000
001M
1000
010M
0000
M010
0001
0M10
0001
1M00
0000
0M10
0000
100M
0000
,  // measure 19
010M
M011
1M00
0M10
0101
0110
1000
0000
,  // measure 20
M002
0000
0M00
0010
M003
0000
02M0
000M
,  // measure 21
2300
0001
0M00
301M
0000
M110
1001
0000
,  // measure 22
0200
000M
M000
M010
030M
01M0
1000
2M02
,  // measure 23
0000
0000
0000
00M0
0000
0000
0000
0000
0000
0M00
0010
0000
0000
0000
0000
0M00
0010
0000
3003
0000
0000
0000
0000
0000
,  // measure 24
100M
0100
1000
0100
1000
0100
1000
0100
10M0
0001
M100
0001
10M0
0100
M010
0001
,  // measure 25
0100
0010
0100
0010
0100
0010
0100
0010
M100
0001
1M00
0010
010M
0010
1M00
0001
,  // measure 26
0010
0100
M010
0100
0010
0001
0M10
0001
1000
0010
100M
0010
0100
0010
010M
0010
,  // measure 27
1000
0000
0100
0000
1000
0000
0010
0000
M200
0000
03M2
0000
M023
0000
013M
0010
,  // measure 28
0001
0100
0001
0100
0001
0100
M001
0100
00M1
1000
001M
0100
M001
0100
001M
1000
,  // measure 29
0100
0010
0100
0010
0100
0010
0100
0010
0M01
1000
01M0
1000
00M1
0100
00M1
1000
,  // measure 30
0010
0100
001M
0100
0010
1000
0M10
1000
0100
0010
010M
0010
0100
1000
01M0
1000
,  // measure 31
0001
0M00
10M0
0M00
10M1
000M
M110
000M
,  // measure 32
M100
0000
00M1
0000
1M00
0000
001M
0000
100M
0100
M010
0001
M100
0001
1M00
0010
,  // measure 33
020M
0000
0001
0000
0010
0000
1000
0300
,  // measure 34
0200
0000
0000
M010
M310
01M0
001M
100M
,  // measure 35
0200
00M0
1000
0000
0010
0000
0001
0300
,  // measure 36
0200
0000
0000
0000
0010
0000
0000
0000
0310
0000
0100
1000
0100
1000
0M01
1000
,  // measure 37
0M20
0000
100M
0000
0M01
0000
M130
M001
,  // measure 38
0020
0M00
0001
0M00
1000
0M30
0011
0000
,  // measure 39
0200
0000
100M
00M0
00M1
0000
031M
100M
,  // measure 40
0200
M000
0001
00M0
1000
030M
0110
0000
,  // measure 41
0020
0000
1M30
0001
01M0
M001
0010
0M10
,  // measure 42
0001
1M00
0001
00M1
0100
001M
0100
0100
,  // measure 43
0002
1000
1003
0200
1000
1300
0002
0010
,  // measure 44
0013
0001
2000
0000
0010
0000
3010
1000
0001
0000
0001
0010
0100
1000
0001
1000
,  // measure 45
00M0
0000
0000
0000
0101
0000
0000
0000
01M0
1000
0M01
0010
0M01
1000
001M
0100
,  // measure 46
0001
0000
0010
0000
0002
0000
0000
0000
M103
0001
1M00
0010
100M
0100
M010
0001
,  // measure 47
1000
0000
0100
1000
001M
0000
0100
0001
M010
0000
0010
0001
1M00
0000
0010
1000
,  // measure 48
0M01
0000
2000
0000
002M
3000
0200
0030
M002
0300
2000
0003
01M0
3000
010M
0010
,  // measure 49
0001
1000
0001
1000
0001
1000
00M1
1000
0M01
0010
010M
1000
001M
0100
00M1
1000
,  // measure 50
001M
0100
M010
0100
001M
0100
M010
0100
001M
1000
010M
0010
M001
0100
001M
1000
,  // measure 51
0001
0000
0M10
0001
0010
0100
100M
0010
0100
0000
001M
1000
0001
0100
M001
0010
,  // measure 52
0100
000M
2M10
3M00
00M1
0M00
100M
011M
,  // measure 53
M010
1M00
00M1
M010
M001
01M0
001M
1M00
,  // measure 54
2002
00M0
0000
0000
0000
0000
0000
0000
,  // measure 55
3003
0000
0000
0000
;

//---------------dance-single - Spork!----------------
#NOTES:
     dance-single:
     :
     Hard:
     7:
     0.402,0.407,0.061,0.296,0.022,282.000,7.000,34.000,0.000,0.000,0.000,0.402,0.407,0.061,0.296,0.022,282.000,7.000,34.000,0.000,0.000,0.000: // measure 0
0000
0000
0000
0000
,  // measure 1
0000
0000
0000
0000
,  // measure 2
0000
0000
0000
0000
,  // measure 3
0000
0000
0000
0000
,  // measure 4
0010
0100
0001
0100
0010
0100
0002
0000
,  // measure 5
0013
0000
0100
0000
1000
0000
0100
0000
0010
0000
0100
0000
1000
0000
1000
0001
,  // measure 6
1000
0100
0020
0000
0130
0010
0002
0000
,  // measure 7
0103
0000
0001
0000
1000
0000
0010
0000
0100
0000
0100
0010
0100
0010
0000
0000
,  // measure 8
1000
0000
0000
0000
0100
0000
1000
0000
0010
0000
0100
0000
0001
0000
1000
0001
,  // measure 9
1000
0100
0010
0100
1000
0010
0100
0000
,  // measure 10
0010
2000
0000
3000
0100
2000
0000
3000
,  // measure 11
0100
0010
0001
1000
0001
0002
0000
0103
,  // measure 12
0001
1000
0100
0010
0100
0000
1000
0010
,  // measure 13
0100
0000
0001
1000
0010
0000
1000
0000
,  // measure 14
0100
2000
0000
3000
0010
2000
0000
3000
,  // measure 15
0010
0100
0001
1000
0100
0200
0000
0310
,  // measure 16
0100
1000
0001
0100
0010
0100
0001
1000
,  // measure 17
0010
0000
0010
1000
0100
0200
0000
1300
,  // measure 18
0001
0010
0100
0010
0001
1000
0010
0100
,  // measure 19
0010
1000
0001
0100
0010
0020
0100
0030
,  // measure 20
2000
3020
2030
3200
,  // measure 21
0320
0032
2003
3010
,  // measure 22
0020
0000
0032
0000
0203
0000
0302
2000
,  // measure 23
0000
0000
0000
0000
0000
0003
0000
0000
3000
0000
0000
0000
,  // measure 24
0001
1000
0100
0000
0010
0100
1000
0001
,  // measure 25
0010
0100
0010
0000
0001
1000
0010
0100
,  // measure 26
0000
0100
0000
1000
0000
0001
0000
0010
,  // measure 27
0000
0010
1000
0000
1000
0001
0010
0100
,  // measure 28
1000
0001
0100
0000
0010
0100
0001
1000
,  // measure 29
0010
0100
0010
0000
1000
0001
0100
0010
,  // measure 30
0000
0010
0000
0001
0000
1000
0000
0010
,  // measure 31
0000
0010
0001
0010
0100
1000
0010
0100
,  // measure 32
0001
1000
0100
0010
0001
1000
0001
0100
,  // measure 33
0020
1000
0100
0100
,  // measure 34
0230
0000
0000
0010
0310
1000
0001
0010
,  // measure 35
0200
1000
0010
0010
,  // measure 36
0320
0000
0000
0000
0000
0000
0000
0000
0030
0000
0001
1000
0001
0000
0010
0000
,  // measure 37
0001
0001
1000
0010
,  // measure 38
0100
0001
1000
0011
,  // measure 39
0100
1000
0001
0100
,  // measure 40
0010
1000
0001
1100
,  // measure 41
0010
1000
0100
0100
,  // measure 42
0001
1000
0010
0010
,  // measure 43
0002
0000
0000
0020
0003
0000
0200
0030
,  // measure 44
0000
2000
0300
0000
0002
0000
0000
3003
,  // measure 45
0000
0000
1001
0000
0010
1000
0001
0000
,  // measure 46
0010
0000
0100
0000
0010
0001
0100
0010
,  // measure 47
1000
0110
0011
1100
,  // measure 48
1001
0000
0010
0100
0010
1000
0100
0010
,  // measure 49
0001
0000
0001
0010
0001
0100
0010
1000
,  // measure 50
0100
0000
1000
0010
1000
0001
0010
0100
,  // measure 51
0000
0100
0000
0001
0000
1000
0000
0100
,  // measure 52
0000
0100
0010
1000
0001
0010
0100
0010
,  // measure 53
0001
1000
0010
0100
0001
1000
0001
0020
,  // measure 54
0000
0200
0000
0000
0000
0000
0000
0000
,  // measure 55
0330
0000
0000
0000
;
