#TITLE:Kiss Me;
#SUBTITLE:;
#ARTIST:Debbie Scott;
#TITLETRANSLIT:;
#SUBTITLETRANSLIT:;
#ARTISTTRANSLIT:;
#CREDIT:;
#BANNER:Kiss Me-banner.png;
#BACKGROUND:Kiss Me-bg.png;
#LYRICSPATH:;
#CDTITLE:cdtitle.png;
#MUSIC:Kiss Me.mp3;
#OFFSET:-0.127;
#SAMPLESTART:30.600;
#SAMPLELENGTH:18.000;
#SELECTABLE:YES;
#BPMS:0.000=126.000;
#STOPS:;
#BGCHANGES:0.000=Kiss Me.avi=1.000=1=1=0,
99999=-nosongbg-=1.000=0=0=0 // don't automatically add -songbackground-
;

//---------------dance-single - ----------------
#NOTES:
     dance-single:
     :
     Beginner:
     1:
     0.101,0.128,0.041,0.000,0.000: // measure 1
0000
0000
0000
0000
,  // measure 2
0000
0000
0000
0000
,  // measure 3
0000
0000
0000
0000
,  // measure 4
0000
0000
0000
0000
,  // measure 5
1001
0000
0000
0000
,  // measure 6
0010
0000
0000
0000
,  // measure 7
1001
0000
0000
0000
,  // measure 8
0100
0000
0000
0000
,  // measure 9
0000
0010
0010
0000
,  // measure 10
1000
0000
0000
0000
,  // measure 11
0000
0100
0100
0000
,  // measure 12
0010
0000
0000
0000
,  // measure 13
0000
0010
0010
0000
,  // measure 14
0001
0000
0000
0000
,  // measure 15
0000
0001
0001
0000
,  // measure 16
0100
0000
0000
0000
,  // measure 17
0000
0010
0000
0010
,  // measure 18
0000
1000
0000
0000
,  // measure 19
0000
0100
0000
0100
,  // measure 20
0000
0010
0000
0000
,  // measure 21
0000
0001
0000
0001
,  // measure 22
0000
0100
0000
0100
,  // measure 23
0000
0010
0000
0010
,  // measure 24
0010
0000
0000
0000
,  // measure 25
1001
0000
0000
0000
,  // measure 26
0000
0100
0100
0000
,  // measure 27
0000
0000
0000
0000
,  // measure 28
0000
0010
0010
0000
,  // measure 29
0000
0000
0000
0000
,  // measure 30
0000
0001
0001
0000
,  // measure 31
0000
0000
0000
0000
,  // measure 32
1000
0000
1000
0000
,  // measure 33
1000
0000
1000
0000
,  // measure 34
0000
0100
0000
0100
,  // measure 35
0000
0010
0000
0000
,  // measure 36
0000
0001
0000
0001
,  // measure 37
0000
1000
0000
0000
,  // measure 38
0000
1000
0000
1000
,  // measure 39
0000
0100
0000
0100
,  // measure 40
0000
0100
0000
0100
,  // measure 41
0100
0000
0000
0000
,  // measure 42
1001
0000
0000
0000
,  // measure 43
0010
0000
0000
0000
,  // measure 44
1000
0000
0000
0000
,  // measure 45
0001
0000
0000
0000
,  // measure 46
1000
0000
0000
0100
,  // measure 47
0100
0000
0000
0000
,  // measure 48
1000
0000
0000
0000
,  // measure 49
0001
0000
0000
0000
,  // measure 50
0100
0000
0000
0010
,  // measure 51
0010
0000
0000
0000
;

//---------------dance-single - ----------------
#NOTES:
     dance-single:
     :
     Medium:
     4:
     0.262,0.284,0.082,0.380,0.000: // measure 1
0000
0000
0000
0000
,  // measure 2
0000
0000
0000
0000
,  // measure 3
0000
0000
0000
0000
,  // measure 4
0000
0000
0000
0000
,  // measure 5
1001
0020
0230
0000
,  // measure 6
0301
1000
0100
0000
,  // measure 7
1001
2000
3200
0000
,  // measure 8
0310
0000
0001
0000
,  // measure 9
1000
0020
0230
0300
,  // measure 10
0001
1000
1000
0000
,  // measure 11
0100
0020
0032
0003
,  // measure 12
1000
0001
0100
0000
,  // measure 13
0010
2000
3200
0300
,  // measure 14
0010
0001
1000
0000
,  // measure 15
0010
1000
0001
0100
,  // measure 16
0010
0100
0001
0000
,  // measure 17
1000
0001
0200
0300
,  // measure 18
0010
0000
0100
0000
0001
0001
0001
0000
,  // measure 19
1000
0010
0200
0300
,  // measure 20
0001
1000
0100
0010
,  // measure 21
0001
1000
0010
0200
,  // measure 22
0300
0001
0000
1000
,  // measure 23
0000
0100
0000
0010
,  // measure 24
2002
0000
0000
3003
,  // measure 25
0220
0000
0000
0330
,  // measure 26
1000
0100
0200
0300
,  // measure 27
0010
0001
1000
0000
,  // measure 28
0001
0100
0200
0300
,  // measure 29
0001
1000
0010
0000
,  // measure 30
1000
0010
0020
0030
,  // measure 31
1000
0001
0010
0000
,  // measure 32
0001
1000
0001
1000
,  // measure 33
0010
0100
0010
0100
0010
0000
0000
0000
,  // measure 34
1001
0100
2000
3000
,  // measure 35
0010
0000
1000
0000
0100
0100
0100
0000
,  // measure 36
0010
0001
0200
0300
,  // measure 37
0001
1000
0010
0100
,  // measure 38
0001
1000
0100
0020
,  // measure 39
0030
0001
0000
1000
,  // measure 40
0000
0010
0000
0100
,  // measure 41
2002
0000
0000
3003
,  // measure 42
0220
0000
0000
0330
,  // measure 43
0002
0000
0203
0000
,  // measure 44
0310
0000
1000
0000
,  // measure 45
0200
0000
2300
0000
,  // measure 46
3010
0000
0000
0000
0100
0100
0100
0000
,  // measure 47
0200
0000
0302
0000
,  // measure 48
1003
0000
0100
0000
,  // measure 49
2000
0000
3020
0000
,  // measure 50
0130
0000
0000
0000
0001
0001
0001
0000
,  // measure 51
2002
3003
0000
0000
;

//---------------dance-single - ----------------
#NOTES:
     dance-single:
     :
     Hard:
     7:
     0.367,0.387,0.195,0.349,0.000: // measure 1
0000
0000
0000
0000
,  // measure 2
0000
0000
0000
0000
,  // measure 3
0000
0000
0000
0000
,  // measure 4
0000
0000
0000
0000
,  // measure 5
0101
1000
0010
0001
,  // measure 6
1100
0001
1000
0010
,  // measure 7
0110
1000
0001
0010
,  // measure 8
2002
0000
0000
3003
,  // measure 9
0010
0000
1000
0100
0020
0000
0031
0000
,  // measure 10
0000
0000
2000
0000
3001
1000
0010
0000
,  // measure 11
0100
0000
0001
1000
0200
0000
0310
0000
,  // measure 12
0000
0000
0001
0010
0100
0000
1000
0001
,  // measure 13
0100
0000
0010
1000
0002
0000
1003
0000
,  // measure 14
0000
0000
0020
0000
1030
0100
0010
0000
,  // measure 15
0001
0000
1000
0000
0010
1000
0001
0000
,  // measure 16
0100
0000
0001
0000
1000
0200
0000
0000
,  // measure 17
0310
1001
0100
1001
,  // measure 18
0100
0000
0010
1000
0010
0100
0010
0000
,  // measure 19
1000
0101
1000
0011
,  // measure 20
2000
0000
3002
0000
0203
0000
0310
1000
,  // measure 21
0001
1100
0101
1000
,  // measure 22
0000
1001
0010
1000
,  // measure 23
0100
0010
0001
0000
0100
0000
0010
0000
,  // measure 24
2000
0000
3100
0000
0001
1000
0010
0100
,  // measure 25
0002
0000
0000
1003
,  // measure 26
0210
0302
2003
3100
,  // measure 27
0001
1000
0100
0001
,  // measure 28
0010
2000
3002
0013
,  // measure 29
1000
0010
0001
0100
,  // measure 30
0010
2000
3002
0103
,  // measure 31
0010
0100
0001
1000
,  // measure 32
0010
1000
0001
0010
,  // measure 33
0100
1000
0100
1000
0100
1000
0100
0000
,  // measure 34
0010
0101
0010
1100
,  // measure 35
0001
0000
1000
0010
1000
0001
1000
0000
,  // measure 36
0010
0200
0302
1003
,  // measure 37
0100
0000
0011
0000
1100
0000
0001
1000
,  // measure 38
0100
0000
0001
1000
0001
1000
0010
0000
,  // measure 39
0000
0100
0000
0001
,  // measure 40
0000
0000
1000
0000
0100
0010
0001
0000
,  // measure 41
2000
3100
0001
1000
,  // measure 42
0220
0000
0330
0001
,  // measure 43
2000
3100
0001
0100
,  // measure 44
0020
1030
0001
0010
,  // measure 45
0200
1300
0010
0100
,  // measure 46
0002
0000
1003
0000
0100
0010
0001
0000
,  // measure 47
2000
3100
2000
3010
,  // measure 48
2000
3001
2000
3010
,  // measure 49
0100
0001
1000
0000
0100
1000
0001
0000
,  // measure 50
0000
0000
1100
0000
1010
0000
0001
0100
,  // measure 51
0020
0030
0000
0000
;

//---------------dance-single - ----------------
#NOTES:
     dance-single:
     :
     Challenge:
     12:
     0.540,0.542,0.123,0.082,0.169:
0000
0000
0000
0000
,
0000
0000
0000
0000
,
0000
0000
0000
0000
,
0000
0000
0000
0000
,
0001
0010
0100
0010
0001
1000
0100
0010
,
0001
1000
0100
1000
0010
0100
0001
1000
,
0010
0100
0010
1000
0010
0100
0001
0010
,
0200
0000
1000
1300
,
0010
1000
0001
1000
0020
0000
0130
0000
,
0001
0000
0100
0000
0010
0000
1000
0100
0000
1000
0100
0000
1000
0000
0010
0000
,
0100
0000
0001
1000
0010
1000
0001
0000
,
0100
0000
0001
0000
1000
0000
0100
0010
0000
0000
0100
0000
1000
0000
0010
0000
,
0100
0001
1000
0010
1000
0001
0200
0000
,
0301
0000
0010
0000
0100
0000
1000
0000
0001
0100
0000
0001
0100
0000
0000
0000
,
0010
1000
1000
0001
0001
0010
0100
1000
,
0001
0000
0100
0000
0010
0000
1000
0000
0001
0010
0001
0010
0001
0010
0001
0000
,
0100
0000
0010
0000
1000
0000
0001
0000
0010
0100
1000
0000
0001
0000
0000
0000
,
1000
0000
0010
0000
0100
0000
0001
0000
0010
0100
1000
0000
0010
0000
1000
0000
,
0001
0000
0100
0000
0010
0000
1000
0000
0100
0010
0001
0000
1000
0000
0000
0000
,
0010
0000
1000
0000
0001
0000
0100
0000
0010
1000
0100
0000
1000
0000
0010
0000
,
0100
0000
0001
0000
0010
0000
0100
0000
1000
0001
0100
0000
0010
0000
0000
0000
,
1000
0000
0100
1000
0100
0000
1000
0000
0010
0000
1000
0001
1000
0000
0010
0000
,
0100
0000
0001
0100
0001
0000
1000
0000
0001
0000
0010
0100
0010
0000
0001
0000
,
0200
0000
1000
0000
0010
0000
0301
1000
,
0200
0000
0010
0000
0310
0001
1000
0000
,
0010
1010
0101
1000
,
0100
1000
0010
1000
0100
0010
0001
1000
,
0001
0101
1100
0001
,
1000
0010
1000
0001
0010
0100
1000
0001
,
0100
1010
0101
1000
,
0001
0010
0100
0010
0001
1000
0010
0000
,
0100
0001
1000
0010
0100
0001
0010
0100
,
1000
0000
1000
0000
0001
0000
0001
0000
0100
0010
0100
0010
0100
0010
0100
0000
,
0001
0000
0100
0000
0010
0000
1000
0000
0100
0010
0001
0000
1000
0000
0000
0000
,
0010
0000
1000
0000
0001
0000
0010
0000
0100
0010
0001
0000
1000
0000
0010
0000
,
0100
0000
0001
0000
0010
0000
0100
0000
1000
0001
0100
0000
0010
0000
0000
0000
,
1000
0000
0100
0000
1000
0000
0010
0000
0100
0001
1000
0000
0010
0000
1000
0000
,
0001
0000
0010
0000
0100
0000
1000
0000
0010
0100
0001
0000
1000
0000
0000
0000
,
0001
0000
1000
0100
1000
0000
0010
0000
0100
0000
0001
1000
0001
0000
0010
0000
,
0100
0000
1000
0100
1000
0000
0010
0000
0100
0000
0001
1000
0001
0000
0100
0000
,
0020
0000
1000
0000
0100
0000
1030
0001
,
0020
0000
0000
0000
0000
0100
0130
0000
,
1001
0100
1000
0000
1001
0100
0001
0000
,
1001
0010
1000
0000
1001
0010
0001
0000
,
1000
0001
0100
0010
1000
0100
0010
0001
,
1000
0010
1000
0001
0100
0010
1000
0000
,
0011
0100
1000
0000
1010
0100
0001
0000
,
1000
0100
1000
0001
0100
0010
0100
0001
,
1000
0010
1000
0001
0010
1000
0010
0001
,
1000
0000
0100
0000
1000
0000
0010
0000
0100
0001
0100
0001
1000
0100
1000
0100
,
0020
0030
0000
0000
;

//---------------dance-single - ----------------
#NOTES:
     dance-single:
     :
     Easy:
     2:
     0.150,0.181,0.051,0.062,0.000: // measure 1
0000
0000
0000
0000
,  // measure 2
0000
0000
0000
0000
,  // measure 3
0000
0000
0000
0000
,  // measure 4
0000
0000
0000
0000
,  // measure 5
0000
1000
1000
0000
,  // measure 6
0010
0000
0000
0000
,  // measure 7
0000
0100
0100
0000
,  // measure 8
0010
0000
0000
0000
,  // measure 9
1001
0000
0100
0000
,  // measure 10
1000
0000
0001
0000
,  // measure 11
0100
0000
0001
0000
,  // measure 12
1000
0000
0010
0010
,  // measure 13
0010
0000
1000
0000
,  // measure 14
0001
0000
0010
0000
,  // measure 15
0001
0000
1000
0000
,  // measure 16
0100
0100
0100
0000
,  // measure 17
0110
0000
0000
0000
,  // measure 18
0001
0001
1000
1000
,  // measure 19
0010
0000
0000
0000
,  // measure 20
0100
0100
0010
0010
,  // measure 21
1000
0000
0000
0000
,  // measure 22
0000
0100
0000
0100
,  // measure 23
0000
0100
0000
0000
,  // measure 24
1000
0000
0001
0000
,  // measure 25
2002
0000
0000
3003
,  // measure 26
0010
0000
0010
0000
,  // measure 27
1000
0000
1000
0000
,  // measure 28
0100
0000
0100
0000
,  // measure 29
0010
0000
0010
0000
,  // measure 30
0001
0000
0001
0000
,  // measure 31
1000
0000
1000
0000
,  // measure 32
0010
0010
0100
0100
,  // measure 33
0002
0000
0000
0003
,  // measure 34
0000
1000
1000
0000
,  // measure 35
0100
0000
1000
0000
,  // measure 36
0000
0001
0001
0000
,  // measure 37
1000
0000
0010
0000
,  // measure 38
0000
0100
0100
0100
,  // measure 39
0000
0001
0000
0001
,  // measure 40
0000
0001
0000
0000
,  // measure 41
1001
0000
0000
0000
,  // measure 42
0220
0000
0000
0330
,  // measure 43
1000
0000
1000
0000
,  // measure 44
0001
0000
0100
0000
,  // measure 45
0001
0000
0001
0000
,  // measure 46
1000
0000
0000
0010
,  // measure 47
0010
0000
0010
0000
,  // measure 48
1000
0000
1000
0000
,  // measure 49
0001
0000
0001
0000
,  // measure 50
0100
0000
0000
0100
,  // measure 51
0200
0300
0000
0000
;
